osu file format v14

[General]
AudioFilename: audio.mp3
AudioLeadIn: 0
PreviewTime: 137115
Countdown: 0
SampleSet: Normal
StackLeniency: 0.7
Mode: 1
LetterboxInBreaks: 0
WidescreenStoryboard: 0

[Editor]
DistanceSpacing: 0.8
BeatDivisor: 4
GridSize: 32
TimelineZoom: 0.9999998

[Metadata]
Title:Aimai Trip (with Momobako & miko)
TitleUnicode:曖昧トリップ (with 桃箱 & miko)
Artist:Yunomi
ArtistUnicode:Yunomi
Creator:komasy
Version:Futsuu
Source:
Tags:M3 2017 MMBK.COM Alternative ending
BeatmapID:1518532
BeatmapSetID:719072

[Difficulty]
HPDrainRate:7
CircleSize:4
OverallDifficulty:4
ApproachRate:7
SliderMultiplier:1.4
SliderTickRate:1

[Events]
//Background and Video events
0,0,"bg.jpg",0,80
//Break Periods
2,106958,113057
//Storyboard Layer 0 (Background)
//Storyboard Layer 1 (Fail)
//Storyboard Layer 2 (Pass)
//Storyboard Layer 3 (Foreground)
//Storyboard Sound Samples

[TimingPoints]
92,476.190476190476,4,1,0,50,1,0
7591,-100,4,1,0,70,0,0
13544,-100,4,1,0,10,0,0
14496,-100,4,1,0,25,0,0
14615,-100,4,1,0,40,0,0
14734,-100,4,1,0,65,0,0
15211,-100,4,1,0,70,0,0
30449,-100,4,1,0,80,0,0
59139,-100,4,1,0,10,0,0
60449,-100,4,1,0,50,0,0
60568,-125,4,1,0,50,0,0
61044,-90.9090909090909,4,1,0,95,0,1
76163,-90.9090909090909,4,1,0,75,0,1
76282,-100,4,1,0,75,0,0
91639,-111.111111111111,4,1,0,45,0,0
98782,-111.111111111111,4,1,0,60,0,0
106639,-111.111111111111,4,1,0,40,0,0
106877,-111.111111111111,4,1,0,15,0,0
108663,-113.636363636364,4,1,0,15,0,0
110568,-116.279069767442,4,1,0,15,0,0
112472,-119.047619047619,4,1,0,30,0,0
114258,-121.951219512195,4,1,0,50,0,0
114377,-125,4,1,0,50,0,0
121877,-125,4,1,0,75,0,0
121996,-111.111111111111,4,1,0,75,0,0
129615,-100,4,1,0,75,0,0
135330,-100,4,1,0,20,0,0
135449,-125,4,1,0,20,0,0
136639,-125,4,1,0,50,0,0
137115,-125,4,1,0,95,0,0
137234,-90.9090909090909,4,1,0,95,0,1
151996,-90.9090909090909,4,1,0,95,0,0
152472,-90.9090909090909,4,1,0,95,0,1
165806,-90.9090909090909,4,1,0,95,0,0
165925,-90.9090909090909,4,1,0,70,0,0
167591,-90.9090909090909,4,1,0,60,0,0
167711,-100,4,1,0,60,0,0

[HitObjects]
288,192,92,5,8,0:0:0:0:
256,160,1044,1,8,0:0:0:0:
256,160,1996,1,8,0:0:0:0:
352,96,2949,1,8,0:0:0:0:
256,160,3425,1,8,0:0:0:0:
256,160,3901,1,8,0:0:0:0:
448,32,4853,1,8,0:0:0:0:
256,160,5806,1,8,0:0:0:0:
352,96,6758,1,8,0:0:0:0:
256,160,7234,1,8,0:0:0:0:
288,160,7711,1,0,0:0:0:0:
256,256,8187,1,8,0:0:0:0:
256,256,9139,1,8,0:0:0:0:
256,256,10092,1,8,0:0:0:0:
256,256,11044,1,8,0:0:0:0:
352,288,11520,1,0,0:0:0:0:
448,320,11996,1,8,0:0:0:0:
224,256,12949,1,8,0:0:0:0:
320,288,13425,1,0,0:0:0:0:
256,192,14377,12,0,14853,0:0:0:0:
256,288,15330,5,0,0:0:0:0:
256,192,15806,1,8,0:0:0:0:
288,224,16282,1,0,0:0:0:0:
288,224,16520,1,0,0:0:0:0:
224,192,16758,1,8,0:0:0:0:
256,160,17234,1,0,0:0:0:0:
256,224,17711,1,8,0:0:0:0:
256,224,18187,1,8,0:0:0:0:
352,192,19139,1,0,0:0:0:0:
288,128,19615,1,8,0:0:0:0:
384,128,20091,1,0,0:0:0:0:
320,128,20330,1,0,0:0:0:0:
320,128,20568,1,8,0:0:0:0:
320,128,21044,1,0,0:0:0:0:
320,128,21520,1,8,0:0:0:0:
256,128,21996,1,0,0:0:0:0:
352,192,22949,1,0,0:0:0:0:
352,192,23425,1,8,0:0:0:0:
352,192,23901,1,0,0:0:0:0:
352,192,24139,1,8,0:0:0:0:
352,192,24377,1,8,0:0:0:0:
448,224,24853,1,0,0:0:0:0:
352,192,25330,1,8,0:0:0:0:
384,224,25806,1,8,0:0:0:0:
320,128,26758,1,0,0:0:0:0:
320,128,27234,1,8,0:0:0:0:
320,128,27711,1,0,0:0:0:0:
320,128,27949,1,8,0:0:0:0:
320,128,28187,1,8,0:0:0:0:
416,128,28663,1,0,0:0:0:0:
416,128,29139,1,8,0:0:0:0:
416,128,29615,1,0,0:0:0:0:
384,256,30568,1,0,0:0:0:0:
320,224,31044,1,8,0:0:0:0:
320,224,31520,1,0,0:0:0:0:
320,192,31758,1,0,0:0:0:0:
320,224,31996,1,8,0:0:0:0:
320,224,32472,1,0,0:0:0:0:
224,224,32949,1,8,0:0:0:0:
256,192,33187,1,0,0:0:0:0:
288,192,33425,1,8,0:0:0:0:
352,256,34139,1,8,0:0:0:0:
352,256,34377,1,0,0:0:0:0:
352,256,34853,1,8,0:0:0:0:
352,224,35091,1,8,0:0:0:0:
352,192,35330,1,0,0:0:0:0:
320,224,35806,1,8,0:0:0:0:
384,128,36282,1,0,0:0:0:0:
320,224,36758,1,0,0:0:0:0:
320,224,37234,1,8,0:0:0:0:
384,256,38187,1,0,0:0:0:0:
320,224,38663,1,8,0:0:0:0:
320,224,39139,1,0,0:0:0:0:
320,224,39377,1,0,0:0:0:0:
320,224,39615,1,8,0:0:0:0:
320,224,40091,1,0,0:0:0:0:
224,224,40568,1,8,0:0:0:0:
256,192,40806,1,0,0:0:0:0:
288,192,41044,1,8,0:0:0:0:
352,256,41520,1,8,0:0:0:0:
352,256,41996,1,0,0:0:0:0:
320,224,42710,1,8,0:0:0:0:
320,224,42949,1,0,0:0:0:0:
320,224,43425,1,8,0:0:0:0:
320,224,43901,1,0,0:0:0:0:
288,192,44139,1,8,0:0:0:0:
288,192,44615,1,8,0:0:0:0:
320,160,44853,1,0,0:0:0:0:
224,192,45330,1,0,0:0:0:0:
224,192,45806,1,12,0:0:0:0:
320,256,47711,1,8,0:0:0:0:
320,288,48663,1,8,0:0:0:0:
96,288,49615,1,8,0:0:0:0:
288,320,51520,1,8,0:0:0:0:
288,320,52472,1,8,0:0:0:0:
288,352,53425,1,0,0:0:0:0:
320,320,53901,1,8,0:0:0:0:
320,320,54377,1,8,0:0:0:0:
288,352,55330,1,0,0:0:0:0:
320,288,55568,1,8,0:0:0:0:
320,320,55806,1,8,0:0:0:0:
320,320,56282,1,8,0:0:0:0:
288,320,57234,1,0,0:0:0:0:
288,320,57711,1,8,0:0:0:0:
320,288,57949,1,8,0:0:0:0:
320,224,58187,1,0,0:0:0:0:
320,224,58663,1,8,0:0:0:0:
384,224,58901,1,8,0:0:0:0:
352,224,60568,1,8,0:0:0:0:
256,256,61044,1,0,0:0:0:0:
320,256,61282,1,0,0:0:0:0:
320,256,61520,1,8,0:0:0:0:
288,224,61996,1,0,0:0:0:0:
288,224,62472,1,8,0:0:0:0:
320,256,62711,1,8,0:0:0:0:
320,256,62949,1,0,0:0:0:0:
288,192,63187,1,0,0:0:0:0:
288,192,63425,1,8,0:0:0:0:
160,160,63901,1,0,0:0:0:0:
288,128,64377,1,12,0:0:0:0:
384,224,64853,1,0,0:0:0:0:
320,224,65091,1,0,0:0:0:0:
320,224,65330,1,8,0:0:0:0:
320,192,65806,1,0,0:0:0:0:
256,224,66282,1,8,0:0:0:0:
256,160,66520,1,8,0:0:0:0:
224,288,66758,1,0,0:0:0:0:
224,224,66996,1,0,0:0:0:0:
256,192,67234,1,8,0:0:0:0:
256,160,67711,1,0,0:0:0:0:
416,224,68663,1,0,0:0:0:0:
352,192,68901,1,8,0:0:0:0:
320,224,69139,1,8,0:0:0:0:
256,192,69615,1,0,0:0:0:0:
224,64,70091,1,8,0:0:0:0:
320,256,70330,1,0,0:0:0:0:
320,256,70568,1,0,0:0:0:0:
384,224,70806,1,8,0:0:0:0:
384,256,71044,1,8,0:0:0:0:
320,256,71520,1,0,0:0:0:0:
320,256,71996,1,12,0:0:0:0:
320,224,72472,1,0,0:0:0:0:
256,192,72711,1,8,0:0:0:0:
192,192,72949,1,8,0:0:0:0:
256,224,73425,1,0,0:0:0:0:
256,224,73901,1,8,0:0:0:0:
256,224,74139,1,0,0:0:0:0:
288,224,74377,1,0,0:0:0:0:
384,160,74853,1,8,0:0:0:0:
384,224,75091,1,8,0:0:0:0:
352,256,75330,1,0,0:0:0:0:
256,224,76282,1,0,0:0:0:0:
384,224,76758,1,0,0:0:0:0:
448,224,77234,1,8,0:0:0:0:
352,192,77711,1,8,0:0:0:0:
320,160,78187,1,0,0:0:0:0:
288,160,78663,1,8,0:0:0:0:
256,128,78901,1,0,0:0:0:0:
288,160,79139,1,8,0:0:0:0:
256,224,80091,1,0,0:0:0:0:
384,224,80567,1,0,0:0:0:0:
448,224,81043,1,8,0:0:0:0:
384,224,81520,1,8,0:0:0:0:
320,160,81996,1,0,0:0:0:0:
288,160,82472,1,0,0:0:0:0:
320,192,82711,1,8,0:0:0:0:
320,192,82949,1,0,0:0:0:0:
288,160,83900,1,0,0:0:0:0:
288,224,84377,1,8,0:0:0:0:
320,288,84615,1,8,0:0:0:0:
384,320,84853,1,0,0:0:0:0:
352,320,85330,1,8,0:0:0:0:
384,288,85806,1,0,0:0:0:0:
448,288,86282,1,8,0:0:0:0:
448,288,86520,1,0,0:0:0:0:
448,288,86758,1,8,0:0:0:0:
320,288,87711,1,0,0:0:0:0:
256,256,88187,1,8,0:0:0:0:
288,224,88425,1,0,0:0:0:0:
288,256,88663,1,0,0:0:0:0:
288,256,89139,1,8,0:0:0:0:
288,224,89615,1,0,0:0:0:0:
384,256,90091,1,0,0:0:0:0:
352,160,90330,1,8,0:0:0:0:
352,160,90568,1,0,0:0:0:0:
416,160,91520,1,8,0:0:0:0:
288,224,93425,1,8,0:0:0:0:
480,256,94377,1,8,0:0:0:0:
352,160,95330,1,8,0:0:0:0:
352,160,97234,1,8,0:0:0:0:
384,192,98187,1,8,0:0:0:0:
256,288,99139,1,8,0:0:0:0:
352,224,99615,1,8,0:0:0:0:
416,128,100091,1,8,0:0:0:0:
416,160,101044,1,8,0:0:0:0:
384,192,101996,1,8,0:0:0:0:
384,192,102949,1,8,0:0:0:0:
352,320,103901,1,8,0:0:0:0:
352,256,104377,1,8,0:0:0:0:
416,256,104853,1,8,0:0:0:0:
256,128,105806,1,8,0:0:0:0:
352,224,106282,1,0,0:0:0:0:
352,224,106758,1,4,0:0:0:0:
384,192,114377,5,8,0:0:0:0:
512,192,115330,1,8,0:0:0:0:
512,192,116282,1,8,0:0:0:0:
512,192,117234,1,8,0:0:0:0:
512,192,117711,1,8,0:0:0:0:
512,192,118187,1,8,0:0:0:0:
512,192,119139,1,8,0:0:0:0:
512,192,120091,1,8,0:0:0:0:
352,192,121044,5,12,0:0:0:0:
224,160,121996,5,0,0:0:0:0:
256,160,122472,1,8,0:0:0:0:
448,224,122949,1,8,0:0:0:0:
384,160,123425,1,8,0:0:0:0:
320,192,123901,1,0,0:0:0:0:
448,128,124139,1,8,0:0:0:0:
448,128,124377,1,8,0:0:0:0:
448,192,124853,1,8,0:0:0:0:
416,256,125806,1,0,0:0:0:0:
416,256,126282,1,8,0:0:0:0:
416,256,126758,1,8,0:0:0:0:
352,192,127234,1,8,0:0:0:0:
384,224,127711,1,0,0:0:0:0:
416,256,128187,1,8,0:0:0:0:
416,256,128425,1,8,0:0:0:0:
416,256,128663,1,8,0:0:0:0:
320,224,129615,1,0,0:0:0:0:
416,256,130091,1,8,0:0:0:0:
352,224,130330,1,8,0:0:0:0:
416,256,130568,1,0,0:0:0:0:
416,256,131044,1,8,0:0:0:0:
416,256,131520,1,0,0:0:0:0:
416,256,131758,1,8,0:0:0:0:
416,256,131996,1,8,0:0:0:0:
416,256,132472,1,0,0:0:0:0:
416,256,133425,1,0,0:0:0:0:
352,224,133663,1,0,0:0:0:0:
384,224,133901,1,8,0:0:0:0:
448,256,134377,1,0,0:0:0:0:
448,256,134853,1,8,0:0:0:0:
448,256,135091,1,8,0:0:0:0:
448,192,136758,5,8,0:0:0:0:
288,288,137234,5,0,0:0:0:0:
288,288,137711,1,8,0:0:0:0:
288,288,137949,1,8,0:0:0:0:
288,288,138187,1,0,0:0:0:0:
320,256,138663,1,8,0:0:0:0:
256,192,139139,1,0,0:0:0:0:
288,160,139377,1,0,0:0:0:0:
256,192,139615,1,8,0:0:0:0:
288,224,139853,1,8,0:0:0:0:
288,224,140091,1,0,0:0:0:0:
288,224,140568,1,12,0:0:0:0:
352,224,141044,1,0,0:0:0:0:
288,256,141520,1,8,0:0:0:0:
320,224,141758,1,8,0:0:0:0:
320,224,141996,1,0,0:0:0:0:
224,320,142472,1,8,0:0:0:0:
224,320,142949,1,0,0:0:0:0:
224,256,143187,1,0,0:0:0:0:
256,256,143425,1,8,0:0:0:0:
352,224,143663,1,0,0:0:0:0:
288,224,143901,1,8,0:0:0:0:
480,224,144853,1,0,0:0:0:0:
448,224,145330,1,8,0:0:0:0:
384,224,145568,1,8,0:0:0:0:
320,224,145806,1,0,0:0:0:0:
384,256,146282,1,8,0:0:0:0:
288,192,146758,1,0,0:0:0:0:
352,192,146996,1,0,0:0:0:0:
416,192,147234,1,8,0:0:0:0:
352,192,147472,1,8,0:0:0:0:
320,160,147711,1,0,0:0:0:0:
416,256,148187,1,12,0:0:0:0:
416,224,148663,1,0,0:0:0:0:
352,288,149139,1,8,0:0:0:0:
384,224,149377,1,8,0:0:0:0:
416,256,149615,1,0,0:0:0:0:
384,224,150091,1,8,0:0:0:0:
384,224,150568,1,0,0:0:0:0:
352,160,151044,1,8,0:0:0:0:
416,192,151282,1,0,0:0:0:0:
384,256,151520,1,8,0:0:0:0:
288,192,152472,1,0,0:0:0:0:
224,160,152711,1,8,0:0:0:0:
288,192,152949,1,8,0:0:0:0:
288,192,153425,1,0,0:0:0:0:
288,192,153901,1,8,0:0:0:0:
288,192,154139,1,8,0:0:0:0:
288,192,154377,1,0,0:0:0:0:
288,192,154853,1,8,0:0:0:0:
256,160,155330,1,0,0:0:0:0:
224,224,155806,1,12,0:0:0:0:
416,160,156282,1,0,0:0:0:0:
352,160,156520,1,0,0:0:0:0:
224,224,156758,1,8,0:0:0:0:
224,224,157234,1,0,0:0:0:0:
256,224,157711,1,8,0:0:0:0:
256,224,157949,1,0,0:0:0:0:
256,224,158187,1,0,0:0:0:0:
256,224,158663,1,8,0:0:0:0:
256,224,159139,1,0,0:0:0:0:
288,192,160091,1,0,0:0:0:0:
288,192,160330,1,8,0:0:0:0:
288,192,160568,1,8,0:0:0:0:
288,192,161044,1,0,0:0:0:0:
288,192,161520,1,8,0:0:0:0:
288,192,161758,1,8,0:0:0:0:
288,192,161996,1,0,0:0:0:0:
288,192,162472,1,8,0:0:0:0:
256,160,162949,1,0,0:0:0:0:
288,192,163425,1,12,0:0:0:0:
288,192,163901,1,0,0:0:0:0:
224,224,164139,1,0,0:0:0:0:
224,224,164377,1,8,0:0:0:0:
288,224,164853,1,0,0:0:0:0:
256,224,165330,1,8,0:0:0:0:
256,224,165568,1,0,0:0:0:0:
256,160,165806,1,0,0:0:0:0:
256,224,167711,1,0,0:0:0:0:
320,160,168187,1,8,0:0:0:0:
384,192,168663,1,0,0:0:0:0:
416,160,169615,1,0,0:0:0:0:
352,256,170091,1,0,0:0:0:0:
416,160,170330,1,8,0:0:0:0:
416,160,170568,1,0,0:0:0:0:
256,224,171520,1,0,0:0:0:0:
320,160,171996,1,8,0:0:0:0:
384,192,172472,1,0,0:0:0:0:
416,160,173424,1,0,0:0:0:0:
352,256,173900,1,0,0:0:0:0:
416,160,174139,1,8,0:0:0:0:
416,160,174377,1,8,0:0:0:0:
416,160,175329,1,0,0:0:0:0:
320,160,175806,1,8,0:0:0:0:
384,192,176282,1,0,0:0:0:0:
416,160,177234,1,0,0:0:0:0:
352,256,177710,1,0,0:0:0:0:
416,160,177949,1,8,0:0:0:0:
416,160,178187,1,0,0:0:0:0:
416,160,179139,1,0,0:0:0:0:
384,256,179615,1,8,0:0:0:0:
416,224,180091,1,0,0:0:0:0:
384,224,181044,1,12,0:0:0:0:
