osu file format v14

[General]
AudioFilename: audio.mp3
AudioLeadIn: 0
PreviewTime: 152467
Countdown: 0
SampleSet: Soft
StackLeniency: 0.4
Mode: 0
LetterboxInBreaks: 0
WidescreenStoryboard: 1

[Editor]
Bookmarks: 30563,106753,121991
DistanceSpacing: 1.1
BeatDivisor: 4
GridSize: 8
TimelineZoom: 1.5

[Metadata]
Title:Aimai Trip (with Momobako & miko)
TitleUnicode:曖昧トリップ (with 桃箱 & miko)
Artist:Yunomi
ArtistUnicode:Yunomi
Creator:Snow Note
Version:Normal
Source:
Tags:7odoa M3 2017 MMBK.COM Alternative ending japanese electronic きあと pop electropop tokyo jpop j-pop electro w/ future bass edm dance music
BeatmapID:3009360
BeatmapSetID:1463819

[Difficulty]
HPDrainRate:3
CircleSize:3.5
OverallDifficulty:3.6
ApproachRate:4
SliderMultiplier:1.6
SliderTickRate:1

[Events]
//Background and Video events
0,0,"bg.jpg",0,0
//Break Periods
2,91715,97699
2,106953,112937
//Storyboard Layer 0 (Background)
Sprite,Background,Centre,"SB801.png",320,240 M,0,14853,,316.833,332.635 S,0,14853,,1.079175 F,0,14853,15091,0,1 F,0,15091,60568,1 F,0,60568,60806,1,0 F,0,75806,76044,0,1 F,0,76044,106282,1 F,0,106282,106520,1,0 F,0,121758,121996,0,1 F,0,136282,136520,1,0 F,0,151996,152234,0,1 F,0,167234,167472,1,0
//Storyboard Layer 1 (Fail)
//Storyboard Layer 2 (Pass)
//Storyboard Layer 3 (Foreground)
Sprite,Foreground,TopLeft,"SB01.png",320,420 M,0,14853,15091,-5,430,-5,400 F,0,14853,15091,0,1 M,0,16520,16758,-5,400,-5,370 F,0,16520,16758,1,0
Sprite,Foreground,TopLeft,"SB02.png",320,420 M,0,16758,16996,-5,430,-5,400 F,0,16758,16996,0,1 M,0,18425,18663,-5,400,-5,370 F,0,18425,18663,1,0
Sprite,Foreground,TopLeft,"SB03.png",320,420 M,0,18663,18901,-5,430,-5,400 F,0,18663,18901,0,1 M,0,22235,22473,-5,400,-5,370 F,0,22235,22473,1,0
Sprite,Foreground,TopLeft,"SB04.png",320,420 M,0,22473,22711,-5,430,-5,400 F,0,22473,22711,0,1 M,0,24139,24377,-5,400,-5,370 F,0,24139,24377,1,0
Sprite,Foreground,TopLeft,"SB05.png",320,420 M,0,24377,24615,-5,430,-5,400 F,0,24377,24615,0,1 M,0,26044,26282,-5,400,-5,370 F,0,26044,26282,1,0
Sprite,Foreground,TopLeft,"SB06.png",320,420 M,0,26282,26520,-5,430,-5,400 F,0,26282,26520,0,1 M,0,29854,30092,-5,400,-5,370 F,0,29854,30092,1,0
Sprite,Foreground,TopLeft,"SB07.png",320,420 M,0,30092,30330,-5,430,-5,400 F,0,30092,30330,0,1 M,0,33663,33901,-5,400,-5,370 F,0,33663,33901,1,0
Sprite,Foreground,TopLeft,"SB08.png",320,420 M,0,33901,34139,-5,430,-5,400 F,0,33901,34139,0,1 M,0,37473,37711,-5,400,-5,370 F,0,37473,37711,1,0
Sprite,Foreground,TopLeft,"SB09.png",320,420 M,0,37711,37949,-5,430,-5,400 F,0,37711,37949,0,1 M,0,42235,42473,-5,400,-5,370 F,0,42235,42473,1,0
Sprite,Foreground,TopLeft,"SB10.png",320,420 M,0,42473,42711,-5,430,-5,400 F,0,42473,42711,0,1 M,0,45330,45568,-5,400,-5,370 F,0,45330,45568,1,0
Sprite,Foreground,TopLeft,"SB11.png",320,420 M,0,45568,45806,-5,430,-5,400 F,0,45568,45806,0,1 M,0,48901,49139,-5,400,-5,370 F,0,48901,49139,1,0 M,0,121758,121996,-5,430,-5,400 F,0,121758,121996,0,1 M,0,125092,125330,-5,400,-5,370 F,0,125092,125330,1,0 M,0,151996,152234,-5,430,-5,400 F,0,151996,152234,0,1 M,0,155568,155806,-5,400,-5,370 F,0,155568,155806,1,0
Sprite,Foreground,TopLeft,"SB12.png",320,420 M,0,49139,49377,-5,430,-5,400 F,0,49139,49377,0,1 M,0,52949,53187,-5,400,-5,370 F,0,52949,53187,1,0 M,0,125330,125568,-5,430,-5,400 F,0,125330,125568,0,1 M,0,129139,129377,-5,400,-5,370 F,0,129139,129377,1,0 M,0,155806,156044,-5,430,-5,400 F,0,155806,156044,0,1 M,0,159615,159853,-5,400,-5,370 F,0,159615,159853,1,0
Sprite,Foreground,TopLeft,"SB13.png",320,420 M,0,53187,53425,-5,430,-5,400 F,0,53187,53425,0,1 M,0,56520,56758,-5,400,-5,370 F,0,56520,56758,1,0 M,0,129377,129615,-5,430,-5,400 F,0,129377,129615,0,1 M,0,132711,132949,-5,400,-5,370 F,0,132711,132949,1,0 M,0,159853,160091,-5,430,-5,400 F,0,159853,160091,0,1 M,0,163187,163425,-5,400,-5,370 F,0,163187,163425,1,0
Sprite,Foreground,TopLeft,"SB14.png",320,420 M,0,56758,56996,-5,430,-5,400 F,0,56758,56996,0,1 M,0,58425,58663,-5,400,-5,370 F,0,58425,58663,1,0 M,0,132949,133187,-5,430,-5,400 F,0,132949,133187,0,1 M,0,134854,135092,-5,400,-5,370 F,0,134854,135092,1,0 M,0,163425,163663,-5,430,-5,400 F,0,163425,163663,0,1 M,0,165330,165568,-5,400,-5,370 F,0,165330,165568,1,0
Sprite,Foreground,TopLeft,"SB15.png",320,420 M,0,58663,58901,-5,430,-5,400 F,0,58663,58901,0,1 M,0,60568,60806,-5,400,-5,370 F,0,60568,60806,1,0 M,0,135092,135330,-5,430,-5,400 F,0,135092,135330,0,1 M,0,136282,136520,-5,400,-5,370 F,0,136282,136520,1,0 M,0,165568,165806,-5,430,-5,400 F,0,165568,165806,0,1 M,0,167235,167473,-5,400,-5,370 F,0,167235,167473,1,0
Sprite,Foreground,TopLeft,"SB16.png",320,420 M,0,75806,76044,-5,430,-5,400 F,0,75806,76044,0,1 M,0,77473,77711,-5,400,-5,370 F,0,77473,77711,1,0
Sprite,Foreground,TopLeft,"SB17.png",320,420 M,0,77711,77949,-5,430,-5,400 F,0,77711,77949,0,1 M,0,79377,79615,-5,400,-5,370 F,0,79377,79615,1,0
Sprite,Foreground,TopLeft,"SB18.png",320,420 M,0,79615,79853,-5,430,-5,400 F,0,79615,79853,0,1 M,0,81282,81520,-5,400,-5,370 F,0,81282,81520,1,0
Sprite,Foreground,TopLeft,"SB19.png",320,420 M,0,81520,81758,-5,430,-5,400 F,0,81520,81758,0,1 M,0,83187,83425,-5,400,-5,370 F,0,83187,83425,1,0
Sprite,Foreground,TopLeft,"SB20.png",320,420 M,0,83425,83663,-5,430,-5,400 F,0,83425,83663,0,1 M,0,85092,85330,-5,400,-5,370 F,0,85092,85330,1,0
Sprite,Foreground,TopLeft,"SB21.png",320,420 M,0,85330,85568,-5,430,-5,400 F,0,85330,85568,0,1 M,0,86996,87234,-5,400,-5,370 F,0,86996,87234,1,0
Sprite,Foreground,TopLeft,"SB22.png",320,420 M,0,87234,87472,-5,430,-5,400 F,0,87234,87472,0,1 M,0,88901,89139,-5,400,-5,370 F,0,88901,89139,1,0
Sprite,Foreground,TopLeft,"SB23.png",320,420 M,0,89139,89377,-5,430,-5,400 F,0,89139,89377,0,1 M,0,90806,91044,-5,400,-5,370 F,0,90806,91044,1,0
Sprite,Foreground,TopLeft,"SB24.png",320,420 M,0,91044,91282,-5,430,-5,400 F,0,91044,91282,0,1 M,0,94615,94853,-5,400,-5,370 F,0,94615,94853,1,0
Sprite,Foreground,TopLeft,"SB25.png",320,420 M,0,94853,95091,-5,430,-5,400 F,0,94853,95091,0,1 M,0,98425,98663,-5,400,-5,370 F,0,98425,98663,1,0
Sprite,Foreground,TopLeft,"SB26.png",320,420 M,0,98663,98901,-5,430,-5,400 F,0,98663,98901,0,1 M,0,102235,102473,-5,400,-5,370 F,0,102235,102473,1,0
Sprite,Foreground,TopLeft,"SB27.png",320,420 M,0,102473,102711,-5,430,-5,400 F,0,102473,102711,0,1 M,0,106282,106520,-5,400,-5,370 F,0,106282,106520,1,0
Sprite,Foreground,Centre,"SB-Kuro.jpg",320,240 F,0,-2000,7711,1,0.4394228
Sprite,Foreground,Centre,"SB701.jpg",320,240 F,0,13425,14615,0,1 F,0,14615,15330,1,0 F,0,106758,,0 F,0,106758,114377,0,1 F,0,114377,121044,1 F,0,121044,121996,1,0 F,0,181044,182472,0,1 F,0,182472,182711,1 F,0,182711,182949,1,0
Sprite,Foreground,Centre,"SB-Siro.jpg",320,240 F,0,7711,8187,1,0 F,0,106758,107711,1,0
//Storyboard Layer 4 (Overlay)
//Storyboard Sound Samples

[TimingPoints]
87,476.190476190476,4,2,1,80,1,0
15325,-133.333333333333,4,2,1,80,0,0
30563,-100,4,2,1,80,0,0
45801,-133.333333333333,4,2,1,80,0,0
61039,-100,4,2,1,90,0,1
76277,-100,4,2,1,80,0,0
91515,-100,4,2,1,80,0,0
99134,-133.333333333333,4,2,1,50,0,0
106277,-100,4,2,1,80,0,0
114372,-100,4,2,2,80,0,0
121991,-100,4,2,1,80,0,0
137229,-100,4,2,1,90,0,1
151991,-100,4,2,1,90,0,0
152467,-100,4,2,1,90,0,1
165801,-100,4,2,1,80,0,0
166753,-100,4,2,2,80,0,0
167706,-100,4,2,1,80,0,0

[Colours]
Combo1 : 128,128,255
Combo2 : 255,128,255
Combo3 : 252,131,140
Combo4 : 128,0,255

[HitObjects]
104,256,15325,6,0,L|94:381,1,120.000004577637,4|8,3:1|3:1,0:0:0:0:
200,232,16277,2,0,L|190:357,1,120.000004577637,0|8,3:3|3:1,0:0:0:0:
312,232,17229,6,0,L|321:351,1,120.000004577637,0|8,3:3|3:1,0:0:0:0:
408,256,18181,2,0,L|417:375,1,120.000004577637,0|8,3:3|3:1,0:0:0:0:
496,216,19134,6,0,L|486:96,1,120.000004577637,0|8,3:3|3:1,0:0:0:0:
328,16,20086,2,0,L|337:135,1,120.000004577637,0|8,3:3|3:1,0:0:0:0:
352,256,21039,6,0,P|288:272|240:248,1,120.000004577637,0|8,3:3|3:1,0:0:0:0:
144,184,21991,2,0,P|89:160|33:177,1,120.000004577637,0|8,3:3|3:1,0:0:0:0:
0,296,22944,5,4,3:1:0:0:
96,368,23420,1,8,3:1:0:0:
208,320,23896,2,0,L|336:320,1,120.000004577637,0|8,3:3|3:1,0:0:0:0:
440,360,24848,5,0,3:3:0:0:
504,256,25325,1,8,3:1:0:0:
392,224,25801,2,0,P|368:168|376:104,1,120.000004577637,0|8,3:3|3:1,0:0:0:0:
464,32,26753,5,0,3:3:0:0:
344,32,27229,1,8,3:1:0:0:
223,32,27706,2,0,L|95:32,1,120.000004577637,0|8,3:3|3:1,0:0:0:0:
32,128,28658,2,0,L|296:128,1,240.000009155274,0|0,3:3|3:3,0:0:0:0:
368,360,30563,6,0,P|452:375|525:320,2,160,4|8|0,3:1|3:1|3:3,0:0:0:0:
328,280,31753,1,0,1:1:0:0:
256,336,31991,1,8,3:1:0:0:
88,296,32467,6,0,P|48:232|48:136,1,160,0|8,3:3|3:1,0:0:0:0:
72,64,33182,1,0,1:1:0:0:
160,64,33420,2,0,L|320:64,1,160,0|8,3:3|3:1,0:0:0:0:
480,136,34372,6,0,P|504:208|472:296,2,160,0|8|0,3:3|3:1|3:3,0:0:0:0:
392,136,35563,1,0,1:1:0:0:
432,56,35801,1,8,3:1:0:0:
256,24,36277,5,0,3:3:0:0:
256,192,36753,1,8,3:1:0:0:
256,360,37229,1,0,3:3:0:0:
40,160,38182,6,0,P|48:64|112:24,2,160,4|8|0,3:1|3:1|3:3,0:0:0:0:
64,248,39372,1,0,1:1:0:0:
96,328,39610,1,8,3:1:0:0:
312,232,40086,6,0,P|352:160|328:88,1,160,0|8,3:3|3:1,0:0:0:0:
256,40,40801,1,0,1:1:0:0:
182,90,41039,2,0,P|160:164|200:232,1,160,0|8,3:3|3:1,0:0:0:0:
328,352,41991,6,0,P|408:328|480:104,1,320,0|0,3:3|3:3,0:0:0:0:
344,24,43420,1,8,3:1:0:0:
168,24,43896,5,0,3:3:0:0:
256,192,44372,1,8,3:1:0:0:
344,360,44848,1,0,3:3:0:0:
256,360,45086,1,0,1:1:0:0:
168,360,45324,1,0,3:3:0:0:
16,240,45801,6,0,P|16:136|120:56,2,240.000009155274,12|8|8,1:1|1:1|1:1,0:0:0:0:
136,296,48182,1,8,1:1:0:0:
256,240,48658,1,8,1:1:0:0:
496,240,49610,6,0,P|496:136|392:56,2,240.000009155274,12|8|8,1:1|1:1|1:1,0:0:0:0:
376,296,51991,1,8,1:1:0:0:
256,240,52467,1,8,1:1:0:0:
16,32,53420,6,0,L|0:168,1,120.000004577637,12|8,1:1|1:1,0:0:0:0:
128,200,54372,2,0,L|144:64,1,120.000004577637,8|8,1:1|1:1,0:0:0:0:
256,8,55325,1,8,1:1:0:0:
336,112,55801,1,8,1:1:0:0:
456,64,56277,1,8,1:1:0:0:
504,320,57229,6,0,P|456:344|376:328,1,120.000004577637,8|8,1:1|1:1,0:0:0:0:
264,288,58182,2,0,P|205:279|151:304,1,120.000004577637,8|8,1:1|1:1,0:0:0:0:
256,192,60563,5,8,1:1:0:0:
320,360,61039,6,0,P|368:304|352:208,2,160,4|0|0,3:1|3:3|3:3,0:0:0:0:
256,304,62229,1,0,1:1:0:0:
192,360,62467,1,8,3:1:0:0:
56,248,62944,6,0,P|8:192|24:96,1,160,0|0,3:3|3:3,0:0:0:0:
67,39,63658,1,0,1:1:0:0:
154,48,63896,2,0,P|202:163|159:250,1,160,0|8,3:3|3:1,0:0:0:0:
176,368,64848,6,0,B|96:384|96:320|24:336,2,160,0|0|0,3:3|3:3|3:3,0:0:0:0:
256,328,66039,1,0,1:1:0:0:
336,368,66277,1,8,3:1:0:0:
456,248,66753,6,0,P|504:192|488:96,1,160,0|0,3:3|3:3,0:0:0:0:
445,39,67467,1,0,1:1:0:0:
358,48,67705,2,0,P|309:163|352:250,1,160,0|8,3:3|1:1,0:0:0:0:
336,368,68658,6,0,B|416:384|416:320|488:336,2,160,4|8|0,3:1|3:1|3:3,0:0:0:0:
256,328,69849,1,0,1:1:0:0:
176,368,70087,1,8,3:1:0:0:
16,296,70563,5,0,3:3:0:0:
176,224,71039,1,8,3:1:0:0:
256,192,71277,1,0,1:1:0:0:
336,224,71515,2,0,B|416:240|416:176|488:192,1,160,0|8,3:3|3:1,0:0:0:0:
376,16,72467,6,0,B|296:0|296:64|224:48,2,160,4|8|0,3:1|3:1|3:3,0:0:0:0:
464,16,73658,1,0,1:1:0:0:
424,96,73896,1,8,3:1:0:0:
512,248,74372,2,0,B|480:352|480:352|376:352|376:352|336:248,1,320,0|0,3:3|1:1,0:0:0:0:
168,32,76277,6,0,P|88:32|0:96,1,160,4|0,3:1|3:3,0:0:0:0:
174,114,77229,2,0,P|228:89|250:18,2,120,0|0|0,3:3|3:3|3:3,0:0:0:0:
88,144,78182,6,0,L|96:304,1,160,0|0,3:3|3:3,0:0:0:0:
272,296,79134,2,0,L|266:176,2,120,0|0|0,3:3|3:3|3:3,0:0:0:0:
224,368,80086,6,0,L|384:352,1,160,0|0,3:3|3:3,0:0:0:0:
496,240,81039,2,0,P|512:304|472:368,2,120,0|0|0,3:3|3:3|3:3,0:0:0:0:
440,176,81991,6,0,P|416:120|432:16,2,160,0|0|0,3:3|3:3|3:3,0:0:0:0:
184,176,83896,6,0,P|160:248|192:344,1,160,4|0,3:1|3:3,0:0:0:0:
256,368,84610,1,0,1:1:0:0:
336,328,84848,2,0,P|360:256|328:160,1,160,0|0,3:3|3:3,0:0:0:0:
256,16,85801,5,0,3:3:0:0:
256,192,86277,1,0,3:3:0:0:
256,368,86753,1,0,3:3:0:0:
0,128,87706,5,0,3:3:0:0:
64,64,87944,1,0,3:3:0:0:
88,152,88182,1,0,3:3:0:0:
128,328,88658,2,0,P|64:344|-8:304,2,120,0|0|0,3:3|3:3|3:3,0:0:0:0:
208,288,89610,6,0,L|288:296,1,80,0|0,3:3|1:1,0:0:0:0:
376,320,90086,2,0,L|384:240,1,80,0|0,1:1|1:1,0:0:0:0:
376,152,90563,2,0,P|314:76|138:152,1,320,0|6,3:3|2:2,0:0:0:0:
312,344,99134,6,0,P|384:368|480:256,1,240.000009155274,0|0,1:1|1:1,0:0:0:0:
472,128,100563,1,0,1:1:0:0:
368,48,101039,2,0,P|255:13|142:48,2,240.000009155274,0|0|0,1:1|1:1|1:1,0:0:0:0:
192,240,103896,5,0,1:1:0:0:
320,240,104372,1,0,1:1:0:0:
256,352,104848,2,0,B|160:352|160:352|80:352|16:320|-8:240|56:176,1,360.000013732911,0|0,1:1|1:2,0:0:0:0:
120,80,106753,1,6,2:2:0:0:
68,268,114372,5,6,2:2:0:0:
332,378,115325,1,6,2:2:0:0:
442,113,116277,1,6,2:2:0:0:
178,4,117230,1,6,2:2:0:0:
256,119,117706,1,4,2:2:0:0:
332,4,118182,5,6,2:2:0:0:
68,113,119134,1,6,2:2:0:0:
178,378,120086,1,6,2:2:0:0:
442,268,121039,1,6,2:2:0:0:
330,43,121991,6,0,P|255:18|181:44,1,160,12|8,1:1|1:1,0:0:0:0:
128,120,122706,1,0,1:1:0:0:
181,192,122944,2,0,P|255:216|329:192,1,160,8|8,1:1|1:1,0:0:0:0:
464,80,123895,6,0,P|504:144|504:240,1,160,8|8,1:1|1:1,0:0:0:0:
488,312,124610,1,0,1:1:0:0:
416,368,124848,2,0,L|256:368,1,160,8|8,1:1|1:1,0:0:0:0:
176,208,125800,6,0,P|152:136|184:48,1,160,12|8,1:1|1:1,0:0:0:0:
256,16,126515,1,0,1:1:0:0:
335,58,126753,2,0,P|360:133|336:208,1,160,8|8,1:1|1:1,0:0:0:0:
184,296,127705,5,8,1:1:0:0:
256,136,128181,1,8,1:1:0:0:
328,296,128657,1,8,1:1:0:0:
56,248,129610,6,0,P|8:192|24:96,1,160,12|8,1:1|1:1,0:0:0:0:
67,39,130324,1,0,1:1:0:0:
154,48,130562,2,0,P|202:163|159:250,1,160,8|8,1:1|1:1,0:0:0:0:
96,336,131515,5,8,1:1:0:0:
256,264,131991,1,8,1:1:0:0:
416,336,132467,1,8,1:1:0:0:
480,168,132944,1,8,1:1:0:0:
344,56,133420,5,12,1:1:0:0:
344,232,133896,1,8,1:1:0:0:
168,232,134372,1,8,1:1:0:0:
168,56,134848,1,8,1:1:0:0:
256,192,136753,5,8,1:1:0:0:
192,360,137229,6,0,B|96:360|96:360|47:304,2,160,4|0|0,3:1|3:3|3:3,0:0:0:0:
256,304,138419,1,0,1:1:0:0:
320,360,138657,1,8,3:1:0:0:
456,248,139134,6,0,B|504:200|504:200|504:96,1,160,0|0,3:3|3:3,0:0:0:0:
448,40,139848,1,0,1:1:0:0:
360,56,140086,2,0,B|312:104|312:104|312:208,1,160,0|8,3:3|1:1,0:0:0:0:
336,368,141039,6,0,B|400:368|400:368|432:336|432:336|488:336,2,160,0|0|0,3:3|3:3|3:3,0:0:0:0:
256,328,142230,1,0,1:1:0:0:
176,368,142468,1,8,3:1:0:0:
56,248,142944,6,0,B|8:200|8:200|8:96,1,160,0|0,3:3|3:3,0:0:0:0:
64,40,143658,1,0,1:1:0:0:
152,56,143896,2,0,B|200:104|200:104|200:208,1,160,0|8,3:3|1:1,0:0:0:0:
168,368,144848,5,4,3:1:0:0:
344,368,145325,1,8,3:1:0:0:
496,280,145801,1,0,3:3:0:0:
496,192,146039,1,0,1:1:0:0:
496,104,146277,1,8,3:1:0:0:
344,16,146753,5,0,3:3:0:0:
168,16,147229,1,8,3:1:0:0:
168,104,147467,1,0,1:1:0:0:
168,192,147706,2,0,B|168:272|168:272|224:328,1,160,0|8,3:3|3:1,0:0:0:0:
344,192,148658,6,0,B|344:112|344:112|288:56,2,160,0|8|0,3:3|3:1|3:3,0:0:0:0:
344,280,149848,1,0,1:1:0:0:
424,240,150086,1,8,3:1:0:0:
256,368,150563,6,0,B|168:368|168:368|120:312|120:312|120:232,1,240,0|0,3:3|1:1,0:0:0:0:
120,144,151515,1,0,1:1:0:0:
384,16,152467,6,0,P|448:24|496:128,1,160,4|8,3:1|3:1,0:0:0:0:
464,176,153182,1,0,1:1:0:0:
408,112,153420,2,0,P|344:120|288:208,1,160,0|8,3:3|3:1,0:0:0:0:
280,280,154134,1,0,1:1:0:0:
336,352,154372,6,0,P|408:368|504:328,2,160,0|8|0,3:3|3:1|3:3,0:0:0:0:
280,280,155563,1,8,1:1:0:0:
288,192,155801,1,8,1:1:0:0:
232,24,156277,6,0,P|160:8|88:64,1,160,4|8,3:1|3:1,0:0:0:0:
64,136,156991,1,0,1:1:0:0:
128,200,157229,2,0,P|200:216|272:160,1,160,0|8,3:3|3:1,0:0:0:0:
296,88,157944,1,0,1:1:0:0:
360,152,158182,6,0,P|376:224|336:320,2,160,0|8|0,3:3|3:1|3:1,0:0:0:0:
296,88,159373,1,8,1:1:0:0:
336,8,159611,1,8,1:1:0:0:
162,80,160086,6,0,P|136:154|152:232,1,160,4|8,3:1|3:1,0:0:0:0:
192,312,160801,1,0,1:1:0:0:
272,344,161039,2,0,L|456:336,1,160,0|8,3:3|3:1,0:0:0:0:
488,168,161991,6,0,P|488:96|408:24,2,160,0|8|0,3:3|3:1|3:3,0:0:0:0:
432,240,163182,1,8,1:1:0:0:
344,240,163420,1,8,1:1:0:0:
256,192,163896,12,0,165801,3:3:0:0:
184,288,167706,6,0,B|120:288|120:288|88:312|88:312|24:312,2,160,4|8|0,3:1|3:1|3:3,0:0:0:0:
256,336,168896,1,0,1:1:0:0:
328,288,169134,1,8,3:1:0:0:
432,144,169610,6,0,P|400:56|336:32,1,160,0|8,3:3|3:1,0:0:0:0:
256,16,170325,1,0,1:1:0:0:
168,32,170563,2,0,P|99:68|80:144,1,160,0|8,3:3|3:1,0:0:0:0:
32,312,171515,6,0,P|120:328|176:272,1,160,0|8,3:3|3:1,0:0:0:0:
342,286,172467,2,0,P|405:331|480:312,1,160,0|8,3:3|3:1,0:0:0:0:
488,224,173182,1,0,1:1:0:0:
496,136,173420,6,0,P|433:90|358:110,1,160,0|8,3:3|3:1,0:0:0:0:
224,224,174372,1,0,3:3:0:0:
256,304,174610,2,0,L|256:360,2,40,0|0|8,1:1|1:1|3:1,0:0:0:0:
153,110,175325,6,0,P|78:90|16:136,1,160,4|8,3:1|3:1,0:0:0:0:
40,312,176277,2,0,P|105:353|179:329,1,160,0|8,3:3|3:1,0:0:0:0:
328,208,177229,6,0,P|352:136|320:40,1,160,0|8,3:3|3:1,0:0:0:0:
256,16,177943,1,0,1:1:0:0:
176,56,178181,2,0,P|152:128|184:224,1,160,0|8,3:3|3:1,0:0:0:0:
332,329,179134,6,0,P|406:353|472:312,2,160,0|8|0,3:3|3:1|3:3,0:0:0:0:
272,264,180325,1,0,1:1:0:0:
336,200,180563,1,8,3:1:0:0:
168,152,181039,1,4,3:1:0:0:
