osu file format v14

[General]
AudioFilename: audio.mp3
AudioLeadIn: 0
PreviewTime: 152467
Countdown: 0
SampleSet: Soft
StackLeniency: 0.4
Mode: 0
LetterboxInBreaks: 0
WidescreenStoryboard: 1

[Editor]
Bookmarks: 30563,106753,121991
DistanceSpacing: 0.9
BeatDivisor: 4
GridSize: 8
TimelineZoom: 2.199999

[Metadata]
Title:Aimai Trip (with Momobako & miko)
TitleUnicode:曖昧トリップ (with 桃箱 & miko)
Artist:Yunomi
ArtistUnicode:Yunomi
Creator:Snow Note
Version:Insane
Source:
Tags:7odoa M3 2017 MMBK.COM Alternative ending japanese electronic きあと pop electropop tokyo jpop j-pop electro w/ future bass edm dance music
BeatmapID:3044375
BeatmapSetID:1463819

[Difficulty]
HPDrainRate:4
CircleSize:3.8
OverallDifficulty:6
ApproachRate:6.5
SliderMultiplier:2.1
SliderTickRate:1

[Events]
//Background and Video events
0,0,"bg.jpg",0,0
//Break Periods
2,106953,113397
//Storyboard Layer 0 (Background)
Sprite,Background,Centre,"SB801.png",320,240 M,0,14853,,316.833,332.635 S,0,14853,,1.079175 F,0,14853,15091,0,1 F,0,15091,60568,1 F,0,60568,60806,1,0 F,0,75806,76044,0,1 F,0,76044,106282,1 F,0,106282,106520,1,0 F,0,121758,121996,0,1 F,0,136282,136520,1,0 F,0,151996,152234,0,1 F,0,167234,167472,1,0
//Storyboard Layer 1 (Fail)
//Storyboard Layer 2 (Pass)
//Storyboard Layer 3 (Foreground)
Sprite,Foreground,TopLeft,"SB01.png",320,420 M,0,14853,15091,-5,430,-5,400 F,0,14853,15091,0,1 M,0,16520,16758,-5,400,-5,370 F,0,16520,16758,1,0
Sprite,Foreground,TopLeft,"SB02.png",320,420 M,0,16758,16996,-5,430,-5,400 F,0,16758,16996,0,1 M,0,18425,18663,-5,400,-5,370 F,0,18425,18663,1,0
Sprite,Foreground,TopLeft,"SB03.png",320,420 M,0,18663,18901,-5,430,-5,400 F,0,18663,18901,0,1 M,0,22235,22473,-5,400,-5,370 F,0,22235,22473,1,0
Sprite,Foreground,TopLeft,"SB04.png",320,420 M,0,22473,22711,-5,430,-5,400 F,0,22473,22711,0,1 M,0,24139,24377,-5,400,-5,370 F,0,24139,24377,1,0
Sprite,Foreground,TopLeft,"SB05.png",320,420 M,0,24377,24615,-5,430,-5,400 F,0,24377,24615,0,1 M,0,26044,26282,-5,400,-5,370 F,0,26044,26282,1,0
Sprite,Foreground,TopLeft,"SB06.png",320,420 M,0,26282,26520,-5,430,-5,400 F,0,26282,26520,0,1 M,0,29854,30092,-5,400,-5,370 F,0,29854,30092,1,0
Sprite,Foreground,TopLeft,"SB07.png",320,420 M,0,30092,30330,-5,430,-5,400 F,0,30092,30330,0,1 M,0,33663,33901,-5,400,-5,370 F,0,33663,33901,1,0
Sprite,Foreground,TopLeft,"SB08.png",320,420 M,0,33901,34139,-5,430,-5,400 F,0,33901,34139,0,1 M,0,37473,37711,-5,400,-5,370 F,0,37473,37711,1,0
Sprite,Foreground,TopLeft,"SB09.png",320,420 M,0,37711,37949,-5,430,-5,400 F,0,37711,37949,0,1 M,0,42235,42473,-5,400,-5,370 F,0,42235,42473,1,0
Sprite,Foreground,TopLeft,"SB10.png",320,420 M,0,42473,42711,-5,430,-5,400 F,0,42473,42711,0,1 M,0,45330,45568,-5,400,-5,370 F,0,45330,45568,1,0
Sprite,Foreground,TopLeft,"SB11.png",320,420 M,0,45568,45806,-5,430,-5,400 F,0,45568,45806,0,1 M,0,48901,49139,-5,400,-5,370 F,0,48901,49139,1,0 M,0,121758,121996,-5,430,-5,400 F,0,121758,121996,0,1 M,0,125092,125330,-5,400,-5,370 F,0,125092,125330,1,0 M,0,151996,152234,-5,430,-5,400 F,0,151996,152234,0,1 M,0,155568,155806,-5,400,-5,370 F,0,155568,155806,1,0
Sprite,Foreground,TopLeft,"SB12.png",320,420 M,0,49139,49377,-5,430,-5,400 F,0,49139,49377,0,1 M,0,52949,53187,-5,400,-5,370 F,0,52949,53187,1,0 M,0,125330,125568,-5,430,-5,400 F,0,125330,125568,0,1 M,0,129139,129377,-5,400,-5,370 F,0,129139,129377,1,0 M,0,155806,156044,-5,430,-5,400 F,0,155806,156044,0,1 M,0,159615,159853,-5,400,-5,370 F,0,159615,159853,1,0
Sprite,Foreground,TopLeft,"SB13.png",320,420 M,0,53187,53425,-5,430,-5,400 F,0,53187,53425,0,1 M,0,56520,56758,-5,400,-5,370 F,0,56520,56758,1,0 M,0,129377,129615,-5,430,-5,400 F,0,129377,129615,0,1 M,0,132711,132949,-5,400,-5,370 F,0,132711,132949,1,0 M,0,159853,160091,-5,430,-5,400 F,0,159853,160091,0,1 M,0,163187,163425,-5,400,-5,370 F,0,163187,163425,1,0
Sprite,Foreground,TopLeft,"SB14.png",320,420 M,0,56758,56996,-5,430,-5,400 F,0,56758,56996,0,1 M,0,58425,58663,-5,400,-5,370 F,0,58425,58663,1,0 M,0,132949,133187,-5,430,-5,400 F,0,132949,133187,0,1 M,0,134854,135092,-5,400,-5,370 F,0,134854,135092,1,0 M,0,163425,163663,-5,430,-5,400 F,0,163425,163663,0,1 M,0,165330,165568,-5,400,-5,370 F,0,165330,165568,1,0
Sprite,Foreground,TopLeft,"SB15.png",320,420 M,0,58663,58901,-5,430,-5,400 F,0,58663,58901,0,1 M,0,60568,60806,-5,400,-5,370 F,0,60568,60806,1,0 M,0,135092,135330,-5,430,-5,400 F,0,135092,135330,0,1 M,0,136282,136520,-5,400,-5,370 F,0,136282,136520,1,0 M,0,165568,165806,-5,430,-5,400 F,0,165568,165806,0,1 M,0,167235,167473,-5,400,-5,370 F,0,167235,167473,1,0
Sprite,Foreground,TopLeft,"SB16.png",320,420 M,0,75806,76044,-5,430,-5,400 F,0,75806,76044,0,1 M,0,77473,77711,-5,400,-5,370 F,0,77473,77711,1,0
Sprite,Foreground,TopLeft,"SB17.png",320,420 M,0,77711,77949,-5,430,-5,400 F,0,77711,77949,0,1 M,0,79377,79615,-5,400,-5,370 F,0,79377,79615,1,0
Sprite,Foreground,TopLeft,"SB18.png",320,420 M,0,79615,79853,-5,430,-5,400 F,0,79615,79853,0,1 M,0,81282,81520,-5,400,-5,370 F,0,81282,81520,1,0
Sprite,Foreground,TopLeft,"SB19.png",320,420 M,0,81520,81758,-5,430,-5,400 F,0,81520,81758,0,1 M,0,83187,83425,-5,400,-5,370 F,0,83187,83425,1,0
Sprite,Foreground,TopLeft,"SB20.png",320,420 M,0,83425,83663,-5,430,-5,400 F,0,83425,83663,0,1 M,0,85092,85330,-5,400,-5,370 F,0,85092,85330,1,0
Sprite,Foreground,TopLeft,"SB21.png",320,420 M,0,85330,85568,-5,430,-5,400 F,0,85330,85568,0,1 M,0,86996,87234,-5,400,-5,370 F,0,86996,87234,1,0
Sprite,Foreground,TopLeft,"SB22.png",320,420 M,0,87234,87472,-5,430,-5,400 F,0,87234,87472,0,1 M,0,88901,89139,-5,400,-5,370 F,0,88901,89139,1,0
Sprite,Foreground,TopLeft,"SB23.png",320,420 M,0,89139,89377,-5,430,-5,400 F,0,89139,89377,0,1 M,0,90806,91044,-5,400,-5,370 F,0,90806,91044,1,0
Sprite,Foreground,TopLeft,"SB24.png",320,420 M,0,91044,91282,-5,430,-5,400 F,0,91044,91282,0,1 M,0,94615,94853,-5,400,-5,370 F,0,94615,94853,1,0
Sprite,Foreground,TopLeft,"SB25.png",320,420 M,0,94853,95091,-5,430,-5,400 F,0,94853,95091,0,1 M,0,98425,98663,-5,400,-5,370 F,0,98425,98663,1,0
Sprite,Foreground,TopLeft,"SB26.png",320,420 M,0,98663,98901,-5,430,-5,400 F,0,98663,98901,0,1 M,0,102235,102473,-5,400,-5,370 F,0,102235,102473,1,0
Sprite,Foreground,TopLeft,"SB27.png",320,420 M,0,102473,102711,-5,430,-5,400 F,0,102473,102711,0,1 M,0,106282,106520,-5,400,-5,370 F,0,106282,106520,1,0
Sprite,Foreground,Centre,"SB-Kuro.jpg",320,240 F,0,-2000,7711,1,0.4394228
Sprite,Foreground,Centre,"SB701.jpg",320,240 F,0,13425,14615,0,1 F,0,14615,15330,1,0 F,0,106758,,0 F,0,106758,114377,0,1 F,0,114377,121044,1 F,0,121044,121996,1,0 F,0,181044,182472,0,1 F,0,182472,182711,1 F,0,182711,182949,1,0
Sprite,Foreground,Centre,"SB-Siro.jpg",320,240 F,0,7711,8187,1,0 F,0,106758,107711,1,0
//Storyboard Layer 4 (Overlay)
//Storyboard Sound Samples

[TimingPoints]
87,476.190476190476,4,2,1,80,1,0
15325,-133.333333333333,4,2,1,80,0,0
30563,-100,4,2,1,80,0,0
45801,-133.333333333333,4,2,1,80,0,0
61039,-100,4,2,1,95,0,1
76277,-100,4,2,1,80,0,0
91515,-200,4,2,1,80,0,0
99134,-133.333333333333,4,2,1,50,0,0
106277,-133.333333333333,4,2,1,80,0,0
114372,-133.333333333333,4,2,2,80,0,0
121991,-133.333333333333,4,2,1,80,0,0
137229,-100,4,2,1,90,0,1
151991,-100,4,2,1,90,0,0
152467,-100,4,2,1,90,0,1
165801,-100,4,2,1,80,0,0
166753,-100,4,2,2,80,0,0
167706,-133.333333333333,4,2,1,80,0,0

[Colours]
Combo1 : 128,128,255
Combo2 : 255,128,255
Combo3 : 252,131,140
Combo4 : 128,0,255

[HitObjects]
56,280,87,5,2,2:2:0:0:
56,280,1039,5,2,2:2:0:0:
114,339,1277,1,0,2:2:0:0:
197,338,1515,1,0,2:2:0:0:
256,278,1753,1,0,2:2:0:0:
256,192,1991,1,2,2:2:0:0:
256,192,2706,5,0,2:2:0:0:
338,205,2944,1,2,2:2:0:0:
256,352,3420,5,0,2:2:0:0:
178,319,3658,1,0,2:2:0:0:
148,240,3896,1,2,2:2:0:0:
148,240,4848,5,2,2:2:0:0:
217,192,5086,1,0,2:2:0:0:
299,209,5325,1,0,2:2:0:0:
380,228,5563,1,0,2:2:0:0:
449,180,5801,1,2,2:2:0:0:
310,13,6515,5,0,2:2:0:0:
256,72,6753,1,2,2:2:0:0:
240,154,6991,1,0,2:2:0:0:
251,237,7229,5,0,2:2:0:0:
168,252,7467,1,0,2:2:0:0:
101,200,7706,1,6,2:2:0:0:
376,32,8658,5,2,2:2:0:0:
465,19,8896,1,0,2:2:0:0:
510,96,9134,1,0,2:2:0:0:
446,166,9372,1,0,2:2:0:0:
363,121,9610,1,2,2:2:0:0:
363,121,10325,5,0,2:2:0:0:
377,214,10563,1,2,2:2:0:0:
256,360,11039,5,0,2:2:0:0:
163,339,11277,1,0,2:2:0:0:
122,253,11515,1,2,2:2:0:0:
256,24,12229,5,0,2:2:0:0:
349,45,12467,1,2,2:2:0:0:
404,122,12706,2,0,L|412:170,3,35
396,250,13182,1,0,2:2:0:0:
438,334,13420,1,2,2:2:0:0:
208,368,15325,6,0,P|138:376|76:321,1,157.500006008148,4|8,3:1|3:1,0:0:0:0:
308,288,16277,2,0,P|377:296|439:241,1,157.500006008148,0|8,3:3|3:1,0:0:0:0:
204,204,17229,2,0,P|134:212|72:157,1,157.500006008148,0|8,3:3|3:1,0:0:0:0:
312,124,18181,2,0,P|381:132|443:77,1,157.500006008148,0|8,3:3|3:1,0:0:0:0:
208,16,19134,6,0,P|138:7|76:62,1,157.500006008148,0|8,3:3|3:1,0:0:0:0:
308,96,20086,2,0,P|377:87|439:142,1,157.500006008148,0|8,3:3|3:1,0:0:0:0:
204,180,21038,2,0,P|134:171|72:226,1,157.500006008148,0|8,3:3|3:1,0:0:0:0:
312,260,21991,2,0,P|381:251|435:292,1,118.125004506111,0|0,3:3|2:1,0:0:0:0:
443,306,22467,1,0,3:1:0:0:
443,306,22547,1,0,1:1:0:0:
188,376,22944,6,0,L|64:368,1,118.125004506111,4|0,3:1|1:1,0:0:0:0:
56,376,23420,2,0,P|48:336|56:280,1,78.7500030040742,8|0,3:1|1:1,0:0:0:0:
40,192,23896,2,0,L|164:200,1,118.125004506111,0|0,3:3|1:1,0:0:0:0:
171,191,24372,2,0,P|179:230|177:269,1,78.7500030040742,8|0,3:1|1:1,0:0:0:0:
324,376,24848,6,0,L|448:368,1,118.125004506111,0|0,3:3|1:1,0:0:0:0:
456,376,25324,2,0,P|464:336|456:280,1,78.7500030040742,8|0,3:1|1:1,0:0:0:0:
472,192,25800,2,0,L|348:200,1,118.125004506111,0|0,3:3|1:1,0:0:0:0:
340,191,26276,2,0,P|332:230|334:269,1,78.7500030040742,8|0,3:1|1:1,0:0:0:0:
192,192,26753,6,0,P|184:128|200:64,1,118.125004506111,0|0,3:3|1:1,0:0:0:0:
208,56,27229,2,0,L|120:48,1,78.7500030040742,8|0,3:1|1:1,0:0:0:0:
40,120,27706,2,0,P|28:177|37:235,1,118.125004506111,0|0,3:3|1:1,0:0:0:0:
48,256,28182,2,0,L|136:248,1,78.7500030040742,8|0,3:1|1:1,0:0:0:0:
288,232,28658,6,0,P|299:289|290:347,1,118.125004506111,0|0,3:3|1:1,0:0:0:0:
280,368,29134,2,0,L|192:360,1,78.7500030040742,8|0,3:1|1:1,0:0:0:0:
120,344,29610,1,0,3:3:0:0:
112,63,30086,5,0,1:1:0:0:
123,59,30206,1,0,1:1:0:0:
134,55,30325,1,0,1:1:0:0:
145,51,30444,1,0,1:1:0:0:
160,48,30563,6,0,L|332:44,1,157.5,4|0,3:1|1:1,0:0:0:0:
344,24,31039,2,0,P|356:72|340:140,1,105,8|0,3:1|1:1,0:0:0:0:
256,192,31515,1,0,3:3:0:0:
168,248,31753,1,0,1:1:0:0:
168,248,31872,1,0,1:1:0:0:
168,248,31991,1,8,3:1:0:0:
256,296,32229,1,0,1:1:0:0:
352,344,32467,6,0,L|464:344,1,105,0|0,3:3|1:1,0:0:0:0:
512,192,32944,2,0,L|408:192,1,105,8|0,3:1|1:1,0:0:0:0:
352,40,33420,2,0,P|408:24|488:72,1,157.5,0|0,3:3|1:1,0:0:0:0:
496,96,33896,1,8,3:1:0:0:
407,192,34134,1,0,1:1:0:0:
272,192,34372,6,0,P|248:136|264:32,1,157.5,0|0,3:3|1:1,0:0:0:0:
272,24,34848,2,0,L|160:24,1,105,8|0,3:1|1:1,0:0:0:0:
8,16,35325,2,0,P|-8:64|8:128,1,105,0|0,3:3|1:1,0:0:0:0:
160,232,35801,2,0,P|176:184|160:120,1,105,8|0,3:1|1:1,0:0:0:0:
0,288,36277,5,0,3:3:0:0:
104,304,36515,2,0,L|104:376,2,52.5,0|0|8,1:1|1:1|3:1,0:0:0:0:
208,312,36991,2,0,L|208:364,2,52.5,0|0|0,1:1|1:1|3:3,0:0:0:0:
312,320,37467,2,0,L|312:256,1,52.5,0|8,1:1|3:1,0:0:0:0:
256,120,37944,5,0,1:1:0:0:
400,40,38182,2,0,P|420:108|384:192,1,157.5,4|0,3:1|1:1,0:0:0:0:
376,200,38658,2,0,L|256:208,1,105,8|0,3:1|1:1,0:0:0:0:
144,96,39134,5,0,3:3:0:0:
72,176,39372,1,0,1:1:0:0:
72,280,39610,1,8,3:1:0:0:
152,352,39848,1,0,1:1:0:0:
256,368,40086,6,0,P|328:384|416:344,1,157.5,0|0,3:3|1:1,0:0:0:0:
416,336,40563,1,8,3:1:0:0:
448,232,40801,2,0,L|456:176,2,52.5,0|0|0,1:1|1:0|3:3,0:0:0:0:
344,240,41277,2,0,L|336:296,2,52.5,0|0|8,1:1|1:1|3:1,0:0:0:0:
256,192,41753,1,0,1:1:0:0:
168,240,41991,6,0,P|128:256|16:144,1,210,0|8,3:3|3:1,0:0:0:0:
48,64,42706,1,0,1:1:0:0:
166,112,42944,5,0,3:3:0:0:
14,161,43182,1,0,1:1:0:0:
108,38,43420,1,8,3:1:0:0:
104,200,43658,1,0,1:1:0:0:
16,72,43896,5,0,3:3:0:0:
166,112,44134,2,0,L|174:48,2,52.5,0|0|8,1:1|1:1|3:1,0:0:0:0:
104,200,44610,2,0,L|96:264,1,52.5,0|0,1:1|1:1,0:0:0:0:
72,328,44848,5,0,3:3:0:0:
232,272,45086,1,0,3:1:0:0:
16,232,45325,1,0,3:3:0:0:
424,192,45801,5,12,1:1:0:0:
448,304,46039,1,0,1:1:0:0:
448,304,46158,1,0,1:1:0:0:
448,304,46277,1,8,1:1:0:0:
344,264,46515,1,0,1:1:0:0:
424,192,46753,6,0,P|444:136|420:64,1,118.125004506111,8|0,1:1|1:1,0:0:0:0:
416,56,47229,2,0,L|304:48,1,78.7500030040742,8|0,1:1|1:1,0:0:0:0:
184,168,47706,2,0,P|164:224|188:296,1,118.125004506111,8|0,1:1|1:1,0:0:0:0:
192,304,48182,2,0,L|304:312,1,78.7500030040742,8|0,1:1|1:1,0:0:0:0:
456,48,48658,2,0,L|300:36,1,118.125004506111,8|0,1:1|1:1,0:0:0:0:
312,32,49134,2,0,P|304:64|312:128,1,78.7500030040742,8|0,1:1|1:1,0:0:0:0:
448,280,49610,5,12,1:1:0:0:
512,208,49848,1,0,1:1:0:0:
512,208,49967,1,0,1:1:0:0:
512,208,50086,1,8,1:1:0:0:
416,192,50325,1,0,1:1:0:0:
448,280,50562,6,0,P|424:336|354:367,1,118.125004506111,8|0,1:1|1:1,0:0:0:0:
352,368,51039,2,0,L|336:272,1,78.7500030040742,8|0,1:1|1:0,0:0:0:0:
304,48,51515,2,0,P|247:25|175:51,1,118.125004506111,8|0,1:1|1:1,0:0:0:0:
173,53,51992,2,0,L|168:144,1,78.7500030040742,8|0,1:1|1:0,0:0:0:0:
160,352,52467,2,0,P|103:374|31:348,1,118.125004506111,8|0,1:1|1:1,0:0:0:0:
29,347,52944,2,0,L|24:256,1,78.7500030040742,8|0,1:1|1:0,0:0:0:0:
88,32,53420,5,12,1:1:0:0:
96,136,53658,1,0,1:1:0:0:
96,136,53777,1,0,1:1:0:0:
96,136,53896,1,8,1:1:0:0:
8,96,54134,1,0,1:1:0:0:
88,32,54372,6,0,P|146:17|223:46,1,118.125004506111,8|0,1:1|1:1,0:0:0:0:
208,40,54848,2,0,L|200:128,1,78.7500030040742,8|0,1:1|1:1,0:0:0:0:
200,336,55325,2,0,P|258:350|335:321,1,118.125004506111,8|0,1:1|1:1,0:0:0:0:
320,328,55801,2,0,L|312:240,1,78.7500030040742,8|0,1:1|1:1,0:0:0:0:
296,24,56277,2,0,P|354:9|431:38,1,118.125004506111,8|0,1:1|1:1,0:0:0:0:
416,32,56753,2,0,L|408:120,1,78.7500030040742,8|0,1:1|1:1,0:0:0:0:
312,304,57229,6,0,L|228:312,1,78.7500030040742,12|0,1:1|1:1,0:0:0:0:
200,80,57706,2,0,L|284:72,1,78.7500030040742,8|0,1:1|1:1,0:0:0:0:
233,311,58182,2,0,L|149:319,1,78.7500030040742,8|0,1:1|1:1,0:0:0:0:
121,87,58659,2,0,L|205:79,1,78.7500030040742,8|0,1:1|1:1,0:0:0:0:
472,40,59134,5,2,2:2:0:0:
384,64,59372,1,2,2:2:0:0:
448,128,59610,1,2,2:2:0:0:
448,128,59729,1,2,2:2:0:0:
416,208,59967,1,2,2:2:0:0:
256,56,60563,1,8,1:1:0:0:
256,360,61039,5,4,3:1:0:0:
136,328,61277,2,0,L|72:336,1,52.5,0|0,1:1|1:1,0:0:0:0:
8,344,61515,1,0,3:3:0:0:
168,240,61753,2,0,L|104:248,1,52.5,0|0,1:1|1:1,0:0:0:0:
40,256,61991,1,0,3:3:0:0:
256,160,62229,5,0,1:1:0:0:
208,312,62467,1,8,3:1:0:0:
376,328,62706,6,0,L|440:336,1,52.5,0|0,1:1|1:1,0:0:0:0:
504,344,62944,1,0,3:3:0:0:
344,240,63182,2,0,L|408:248,1,52.5,0|0,1:1|1:1,0:0:0:0:
472,256,63420,1,0,3:3:0:0:
256,160,63658,5,0,1:1:0:0:
304,312,63896,1,0,3:3:0:0:
400,160,64134,1,8,1:1:0:0:
400,160,64372,1,8,3:1:0:0:
249,107,64610,6,0,L|257:171,1,52.5,0|0,1:1|1:1,0:0:0:0:
265,235,64848,1,0,3:3:0:0:
161,75,65086,2,0,L|169:139,1,52.5,0|0,1:1|1:1,0:0:0:0:
177,203,65324,1,0,3:3:0:0:
72,48,65563,2,0,L|80:112,1,52.5,0|0,1:1|1:1,0:0:0:0:
88,176,65801,1,0,3:3:0:0:
161,75,66039,5,0,1:1:0:0:
0,152,66277,1,8,3:1:0:0:
177,203,66515,6,0,L|185:139,1,52.5,0|0,1:1|1:1,0:0:0:0:
193,75,66753,1,0,3:3:0:0:
264,184,66991,2,0,L|272:120,1,52.5,0|0,1:1|1:1,0:0:0:0:
280,56,67229,1,0,3:3:0:0:
360,120,67467,1,0,1:1:0:0:
448,184,67706,1,0,3:3:0:0:
464,80,67944,2,0,L|472:16,2,52.5,8|8|8,1:1|1:1|1:1,0:0:0:0:
280,376,68658,5,4,3:1:0:0:
152,376,68896,1,0,1:1:0:0:
144,360,69015,1,0,1:1:0:0:
136,344,69134,1,8,3:1:0:0:
32,376,69372,1,0,1:1:0:0:
24,360,69491,1,0,1:1:0:0:
16,344,69610,1,0,3:3:0:0:
88,264,69848,1,0,1:1:0:0:
192,264,70086,1,8,3:1:0:0:
296,264,70325,5,0,1:1:0:0:
304,248,70444,1,0,1:1:0:0:
312,232,70563,1,0,3:3:0:0:
416,264,70801,1,0,1:1:0:0:
424,248,70920,1,0,1:1:0:0:
432,232,71039,1,8,3:1:0:0:
480,128,71277,1,0,1:1:0:0:
376,128,71515,1,0,3:3:0:0:
272,128,71753,5,8,1:1:0:0:
256,8,71991,1,8,3:1:0:0:
152,40,72229,5,0,1:1:0:0:
144,56,72348,1,0,1:1:0:0:
136,72,72467,1,4,3:1:0:0:
32,96,72705,1,0,1:1:0:0:
40,112,72824,1,0,1:1:0:0:
48,128,72943,1,8,3:1:0:0:
144,176,73182,1,0,1:1:0:0:
136,192,73301,1,0,1:1:0:0:
128,208,73420,1,0,3:3:0:0:
80,304,73658,1,0,1:1:0:0:
184,304,73896,1,8,3:1:0:0:
288,304,74134,5,0,1:1:0:0:
296,288,74253,1,0,1:1:0:0:
304,272,74372,2,0,L|336:208,2,70,0|0|0,3:3|1:1|1:1,0:0:0:0:
368,320,74848,2,0,P|424:336|472:296,2,105,0|0|0,1:1|1:1|1:1,0:0:0:0:
440,36,76277,5,4,3:1:0:0:
256,108,76753,1,0,3:3:0:0:
72,36,77229,5,0,3:3:0:0:
92,192,77586,1,0,3:3:0:0:
112,348,77944,1,0,3:3:0:0:
40,272,78182,5,0,3:3:0:0:
256,332,78658,1,0,3:3:0:0:
472,272,79134,5,0,3:3:0:0:
320,228,79491,1,0,3:3:0:0:
352,384,79848,1,0,3:3:0:0:
392,296,80086,5,0,3:3:0:0:
120,296,80562,1,0,3:3:0:0:
328,96,81038,5,0,3:3:0:0:
256,236,81395,1,0,3:3:0:0:
184,96,81753,1,0,3:3:0:0:
108,172,81991,5,0,3:3:0:0:
256,368,82467,1,0,3:3:0:0:
404,172,82943,1,0,3:3:0:0:
404,172,83420,1,2,2:2:0:0:
432,272,83658,2,0,L|496:256,2,35,0|0|0,1:1|1:1|1:1,0:0:0:0:
432,272,83896,6,0,L|320:264,1,105,4|0,3:1|1:1,0:0:0:0:
456,368,84372,2,0,L|344:360,1,105,0|0,3:3|1:1,0:0:0:0:
248,344,84848,6,0,P|224:288|248:216,1,105,0|0,3:3|1:1,0:0:0:0:
282,138,85325,2,0,P|286:86|264:40,1,105,0|0,3:3|1:1,0:0:0:0:
160,72,85801,6,0,L|168:184,1,105,0|0,3:3|1:1,0:0:0:0:
64,48,86277,2,0,L|72:160,1,105,0|0,3:3|1:1,0:0:0:0:
24,248,86753,6,0,P|72:280|176:256,1,157.5,0|0,3:3|1:1,0:0:0:0:
184,248,87229,2,0,L|192:360,1,105,0|0,3:3|1:1,0:0:0:0:
296,360,87706,5,0,3:3:0:0:
288,256,87944,1,0,3:3:0:0:
280,152,88182,1,0,3:3:0:0:
280,152,88658,6,0,P|352:168|424:112,2,157.5,0|0|0,3:3|3:3|3:3,0:0:0:0:
296,48,89610,5,0,3:3:0:0:
280,51,89729,1,0,1:1:0:0:
264,54,89848,1,0,1:1:0:0:
248,57,89967,1,0,1:1:0:0:
232,60,90086,1,0,1:1:0:0:
142,154,90325,1,0,1:1:0:0:
158,157,90444,1,0,1:1:0:0:
174,160,90563,6,0,L|181:230,2,70,0|0|0,3:3|3:3|3:3,0:0:0:0:
94,101,91039,2,0,L|87:31,2,70,0|0|0,3:3|3:3|3:3,0:0:0:0:
40,192,91515,6,0,L|51:308,1,105,6|0,2:2|2:2,0:0:0:0:
128,368,92467,1,2,2:2:0:0:
200,344,92706,1,0,2:2:0:0:
272,320,92944,1,0,2:2:0:0:
344,296,93182,1,0,2:2:0:0:
416,272,93420,6,0,L|427:388,1,105,2|0,2:2|2:2,0:0:0:0:
328,384,94134,1,0,2:2:0:0:
360,216,94372,2,0,L|348:99,1,105,2|0,2:2|2:2,0:0:0:0:
424,16,95086,1,0,2:2:0:0:
440,160,95325,6,0,L|451:276,1,105,2|0,2:2|2:2,0:0:0:0:
464,368,96039,1,0,2:2:0:0:
376,336,96277,5,2,2:2:0:0:
368,256,96515,1,0,2:2:0:0:
360,176,96753,1,0,2:2:0:0:
352,96,96991,1,0,2:2:0:0:
344,16,97229,6,0,P|280:8|232:32,1,105,2|0,2:2|2:2,0:0:0:0:
168,368,98182,2,0,P|232:376|280:352,1,105,2|0,2:2|2:2,0:0:0:0:
296,280,98896,1,0,0:0:0:0:
208,288,99134,6,0,L|118:288,1,78.7500030040742,0|0,1:1|1:1,0:0:0:0:
112,288,99491,1,0,1:1:0:0:
96,288,99610,2,0,P|89:326|101:363,1,78.7500030040742,0|0,1:1|1:1,0:0:0:0:
208,288,100086,2,0,L|200:224,1,39.3750015020371,0|0,1:1|1:1,0:0:0:0:
272,208,100325,2,0,L|280:272,1,39.3750015020371,0|0,1:1|1:1,0:0:0:0:
288,320,100563,1,0,1:1:0:0:
200,224,100801,1,0,1:1:0:0:
360,192,101039,5,0,1:1:0:0:
360,192,101158,1,0,1:1:0:0:
360,192,101277,1,0,1:1:0:0:
464,272,101515,1,0,1:1:0:0:
470,302,101634,1,0,1:1:0:0:
468,334,101753,1,0,1:1:0:0:
453,363,101872,1,0,1:1:0:0:
429,383,101991,1,0,1:1:0:0:
296,376,102229,1,0,1:1:0:0:
289,345,102348,1,0,1:1:0:0:
283,313,102467,1,0,1:1:0:0:
256,192,102706,1,0,1:1:0:0:
283,71,102944,5,0,1:1:0:0:
289,39,103063,1,0,1:1:0:0:
296,8,103182,1,0,1:1:0:0:
416,0,103420,1,0,1:1:0:0:
360,104,103658,2,0,L|360:144,2,39.3750015020371,0|0|0,1:1|1:1|1:1,0:0:0:0:
480,120,104134,2,0,L|480:80,2,39.3750015020371,0|0|0,1:1|1:1|1:1,0:0:0:0:
416,216,104610,1,0,1:1:0:0:
480,312,104848,5,0,1:1:0:0:
376,368,105086,1,0,1:1:0:0:
296,280,105325,1,0,1:1:0:0:
268,276,105445,1,0,1:1:0:0:
240,272,105564,1,0,1:1:0:0:
212,268,105683,1,0,1:1:0:0:
184,264,105801,2,0,L|153:259,7,19.6875007510186,0|0|0|0|0|0|0|0,1:1|1:1|1:1|1:1|1:1|1:1|1:1|1:1,0:0:0:0:
147,271,106277,5,0,1:2:0:0:
256,80,106753,1,6,2:2:0:0:
323,47,114372,6,0,P|255:13|187:47,1,157.500006008148,6|0,2:2|0:0,0:0:0:0:
189,337,115325,2,0,P|256:370|324:337,1,157.500006008148,6|0,2:2|2:2,0:0:0:0:
256,192,116039,1,0,2:2:0:0:
111,125,116277,6,0,P|77:192|111:260,1,157.500006008148,6|0,2:2|0:0,0:0:0:0:
401,259,117229,2,0,P|434:191|416:120,1,118.125004506111,6|0,2:2|0:0,0:0:0:0:
401,125,117706,1,4,2:2:0:0:
256,32,117944,1,4,2:2:0:0:
111,125,118182,6,0,P|77:192|111:260,1,157.500006008148,6|0,2:2|0:0,0:0:0:0:
256,192,118896,1,0,2:2:0:0:
256,32,119134,2,0,L|176:32,1,78.7500030040742,6|0,2:2|2:2,0:0:0:0:
256,352,119610,2,0,L|336:352,1,78.7500030040742,0|0,2:2|2:2,0:0:0:0:
432,352,120086,5,6,2:2:0:0:
438,320,120205,1,0,0:0:0:0:
445,289,120324,1,0,0:0:0:0:
452,258,120444,1,0,0:0:0:0:
457,227,120563,1,2,2:2:0:0:
478,132,120801,1,0,0:0:0:0:
471,101,120921,1,0,0:0:0:0:
466,70,121040,1,6,2:2:0:0:
88,192,121991,5,12,1:1:0:0:
64,304,122229,1,0,1:1:0:0:
64,304,122348,1,0,1:1:0:0:
64,304,122467,1,8,1:1:0:0:
168,264,122705,1,0,1:1:0:0:
88,192,122944,6,0,P|68:136|92:64,1,118.125004506111,8|0,1:1|1:1,0:0:0:0:
96,56,123420,2,0,L|208:48,1,78.7500030040742,8|0,1:1|1:1,0:0:0:0:
176,216,123896,2,0,P|156:272|180:344,1,118.125004506111,8|0,1:1|1:0,0:0:0:0:
184,352,124372,2,0,L|296:360,1,78.7500030040742,8|0,1:1|1:0,0:0:0:0:
424,144,124848,2,0,L|268:132,1,118.125004506111,8|0,1:1|1:1,0:0:0:0:
280,128,125324,2,0,P|272:160|280:224,1,78.7500030040742,8|0,1:1|1:1,0:0:0:0:
448,384,125800,5,12,1:1:0:0:
512,312,126038,1,0,1:1:0:0:
512,312,126157,1,0,1:1:0:0:
512,312,126276,1,8,1:1:0:0:
472,224,126515,1,0,1:1:0:0:
376,224,126752,6,0,L|248:224,1,118.125004506111,8|0,1:0|1:0,0:0:0:0:
232,224,127229,2,0,P|221:262|232:320,1,78.7500030040742,8|0,1:1|1:1,0:0:0:0:
376,224,127706,2,0,P|399:167|373:95,1,118.125004506111,8|0,1:1|1:0,0:0:0:0:
376,96,128182,2,0,L|288:96,1,78.7500030040742,8|0,1:1|1:0,0:0:0:0:
136,160,128658,2,0,P|113:217|139:289,1,118.125004506111,8|0,1:1|1:1,0:0:0:0:
136,288,129134,2,0,L|224:288,1,78.7500030040742,8|0,1:1|1:0,0:0:0:0:
192,64,129610,5,12,1:1:0:0:
96,16,129848,1,0,1:1:0:0:
96,16,129967,1,0,1:0:0:0:
96,16,130086,1,8,1:1:0:0:
0,64,130324,1,0,1:1:0:0:
0,168,130562,6,0,L|16:304,1,118.125004506111,8|0,1:1|1:1,0:0:0:0:
16,312,131038,2,0,L|104:296,1,78.7500030040742,8|0,1:1|1:1,0:0:0:0:
256,192,131515,2,0,L|272:56,1,118.125004506111,8|0,1:1|1:0,0:0:0:0:
272,48,131991,2,0,L|360:64,1,78.7500030040742,8|0,1:1|1:0,0:0:0:0:
469,238,132467,2,0,P|484:296|455:373,1,118.125004506111,8|0,1:1|1:1,0:0:0:0:
461,358,132943,2,0,L|373:350,1,78.7500030040742,8|0,1:1|1:1,0:0:0:0:
151,294,133420,6,0,L|143:210,1,78.7500030040742,12|0,1:1|1:1,0:0:0:0:
375,182,133896,2,0,L|383:266,1,78.7500030040742,8|0,1:1|1:1,0:0:0:0:
144,215,134372,2,0,L|136:131,1,78.7500030040742,8|0,1:1|1:1,0:0:0:0:
368,103,134848,2,0,L|376:187,1,78.7500030040742,8|0,1:1|1:0,0:0:0:0:
375,181,136753,1,8,1:1:0:0:
256,24,137229,5,4,3:1:0:0:
376,56,137467,2,0,L|440:48,1,52.5,0|0,1:1|1:1,0:0:0:0:
504,40,137705,1,0,3:3:0:0:
344,144,137943,2,0,L|408:136,1,52.5,0|0,1:1|1:1,0:0:0:0:
472,128,138181,1,0,3:3:0:0:
256,80,138419,5,0,1:1:0:0:
256,224,138657,1,8,3:1:0:0:
168,144,138896,6,0,L|104:136,1,52.5,0|0,1:1|1:1,0:0:0:0:
40,128,139134,1,0,3:3:0:0:
136,56,139372,2,0,L|72:48,1,52.5,0|0,1:1|1:1,0:0:0:0:
8,40,139610,1,0,3:3:0:0:
0,208,139848,5,0,1:1:0:0:
168,144,140086,1,0,3:3:0:0:
40,128,140324,1,8,1:1:0:0:
40,128,140562,1,8,3:1:0:0:
72,256,140800,6,0,L|64:320,1,52.5,0|0,1:1|1:1,0:0:0:0:
56,384,141038,1,0,3:3:0:0:
168,240,141276,2,0,L|160:304,1,52.5,0|0,1:1|1:1,0:0:0:0:
152,368,141514,1,0,3:3:0:0:
264,224,141753,2,0,L|256:288,1,52.5,0|0,1:1|1:1,0:0:0:0:
248,352,141991,1,0,3:3:0:0:
360,208,142229,5,0,1:1:0:0:
344,336,142467,1,8,3:1:0:0:
464,288,142705,2,0,L|456:224,1,52.5,0|0,1:1|1:1,0:0:0:0:
440,152,142944,6,0,L|448:72,2,70,0|0|0,3:3|1:1|1:1,0:0:0:0:
360,208,143420,2,0,P|320:224|256:200,1,105,0|0,3:3|1:1,0:0:0:0:
192,136,143896,1,0,3:3:0:0:
256,56,144134,1,8,1:1:0:0:
256,56,144253,1,8,1:1:0:0:
256,56,144372,1,8,1:1:0:0:
0,240,144848,5,4,3:1:0:0:
40,352,145086,1,0,1:1:0:0:
48,336,145205,1,0,1:1:0:0:
56,320,145324,1,8,3:1:0:0:
160,352,145564,1,0,1:1:0:0:
168,336,145682,1,0,1:1:0:0:
176,320,145801,1,0,3:3:0:0:
280,320,146038,1,0,1:1:0:0:
384,320,146276,1,8,3:1:0:0:
456,240,146515,5,0,1:1:0:0:
448,224,146634,1,0,1:1:0:0:
440,208,146753,1,0,3:3:0:0:
336,240,146991,1,0,1:1:0:0:
328,224,147110,2,0,L|312:184,2,26.25,0|0|8,1:1|1:1|3:1,0:0:0:0:
208,200,147467,1,0,1:1:0:0:
104,200,147705,1,0,3:3:0:0:
56,104,147943,5,8,1:1:0:0:
160,104,148181,1,8,3:1:0:0:
264,104,148419,5,0,1:1:0:0:
272,88,148538,1,0,1:0:0:0:
280,72,148657,1,0,3:0:0:0:
376,104,148895,1,0,1:0:0:0:
384,88,149014,1,0,1:1:0:0:
392,72,149133,1,8,3:1:0:0:
488,112,149372,1,0,1:1:0:0:
496,96,149491,1,0,1:1:0:0:
504,80,149610,1,0,3:3:0:0:
512,192,149848,1,0,1:1:0:0:
408,192,150086,1,8,3:1:0:0:
304,192,150324,5,0,1:1:0:0:
296,208,150443,1,0,1:0:0:0:
288,224,150562,2,0,L|256:288,2,70,0|0|0,3:0|1:1|1:1,0:0:0:0:
208,192,151038,2,0,L|96:208,2,105,0|0|0,1:1|1:1|1:1,0:0:0:0:
208,192,152467,6,0,P|192:240|208:296,1,105,4|0,3:1|1:1,0:0:0:0:
304,192,152944,2,0,P|320:144|304:88,1,105,8|0,3:1|1:1,0:0:0:0:
216,24,153420,2,0,L|376:8,1,157.5,0|0,3:3|1:1,0:0:0:0:
400,0,153896,2,0,P|416:32|416:112,1,105,8|0,3:1|1:1,0:0:0:0:
392,200,154372,5,0,3:3:0:0:
496,176,154610,1,0,1:1:0:0:
456,272,154848,1,8,3:1:0:0:
456,272,154967,1,0,1:1:0:0:
416,368,155206,1,0,1:1:0:0:
416,368,155325,1,0,3:3:0:0:
344,296,155563,5,8,1:1:0:0:
512,352,155801,1,8,3:1:0:0:
192,360,156277,6,0,P|168:312|176:248,1,105,4|0,3:1|1:1,0:0:0:0:
320,24,156753,2,0,P|344:72|336:136,1,105,8|0,3:1|1:1,0:0:0:0:
88,144,157229,2,0,P|133:94|221:86,1,157.5,0|0,3:3|1:1,0:0:0:0:
240,96,157706,2,0,L|232:200,1,105,8|0,3:1|1:1,0:0:0:0:
256,328,158182,5,0,3:3:0:0:
360,304,158420,1,0,1:1:0:0:
464,280,158658,1,8,3:1:0:0:
464,280,158777,1,0,1:1:0:0:
328,224,159015,1,0,1:1:0:0:
328,224,159134,1,0,3:1:0:0:
416,64,159372,5,8,1:1:0:0:
416,64,159491,1,8,1:1:0:0:
416,64,159610,1,8,1:1:0:0:
416,64,160086,6,0,P|352:48|304:56,1,105,4|0,3:1|1:1,0:0:0:0:
304,288,160563,2,0,P|368:304|416:296,1,105,8|0,3:1|1:1,0:0:0:0:
392,144,161039,2,0,B|356:128|356:128|232:136,1,157.5,0|0,3:3|1:1,0:0:0:0:
208,136,161515,1,8,3:1:0:0:
256,232,161753,1,0,1:1:0:0:
304,328,161991,5,0,3:3:0:0:
200,352,162229,1,0,1:1:0:0:
96,376,162467,1,8,3:1:0:0:
96,376,162586,1,0,1:1:0:0:
48,280,162825,1,0,1:1:0:0:
48,280,162944,1,0,3:3:0:0:
200,352,163182,5,8,1:1:0:0:
0,368,163420,1,8,3:1:0:0:
304,256,163896,6,0,P|328:208|320:152,1,105,4|0,3:1|1:1,0:0:0:0:
208,128,164372,2,0,P|184:176|192:232,1,105,8|0,3:1|1:1,0:0:0:0:
376,296,164848,2,0,P|408:240|400:144,1,157.5,0|0,3:3|1:1,0:0:0:0:
392,128,165325,2,0,L|496:120,1,105,8|0,3:1|1:1,0:0:0:0:
336,24,165801,1,0,3:3:0:0:
336,24,166753,5,0,3:3:0:0:
424,72,166912,1,0,3:3:0:0:
424,72,166991,1,0,3:3:0:0:
288,128,167229,1,0,3:3:0:0:
288,128,167706,6,0,P|225:150|136:112,1,157.500006008148,4|8,3:1|3:1,0:0:0:0:
16,208,168658,1,0,3:3:0:0:
16,296,168896,1,0,1:1:0:0:
88,352,169134,1,8,3:1:0:0:
176,360,169372,1,0,1:1:0:0:
256,320,169610,6,0,P|328:296|416:328,1,157.500006008148,0|8,3:3|3:1,0:0:0:0:
480,360,170325,1,0,1:1:0:0:
472,272,170563,2,0,P|456:208|472:112,1,157.500006008148,0|8,3:3|3:1,0:0:0:0:
504,40,171277,1,0,1:1:0:0:
416,56,171515,6,0,P|336:72|256:40,1,157.500006008148,0|8,3:3|3:1,0:0:0:0:
96,24,172467,1,0,3:3:0:0:
32,80,172706,1,0,1:1:0:0:
16,168,172944,1,8,3:1:0:0:
64,240,173182,1,0,1:1:0:0:
144,272,173420,6,0,P|216:280|304:232,1,157.500006008148,0|8,3:3|3:1,0:0:0:0:
344,176,174134,1,0,1:1:0:0:
376,256,174372,2,0,P|384:312|368:352,1,78.7500030040742,0|0,3:3|1:1,0:0:0:0:
256,168,174848,2,0,P|248:112|264:72,1,78.7500030040742,8|0,3:1|1:1,0:0:0:0:
336,32,175325,6,0,P|261:51|189:21,1,157.500006008148,4|8,3:1|3:1,0:0:0:0:
0,192,176277,1,0,3:3:0:0:
16,280,176515,1,0,1:1:0:0:
80,336,176753,1,8,3:1:0:0:
168,352,176991,1,0,1:1:0:0:
256,336,177229,6,0,P|288:328|416:368,1,157.500006008148,0|8,3:3|3:1,0:0:0:0:
488,368,177944,1,0,1:1:0:0:
448,288,178182,2,0,P|424:216|440:128,1,157.500006008148,0|8,3:3|3:1,0:0:0:0:
480,64,178896,1,0,1:1:0:0:
376,88,179134,6,0,P|299:113|225:84,1,157.500006008148,0|8,3:3|3:1,0:0:0:0:
168,32,179848,1,0,1:1:0:0:
0,96,180086,5,0,3:3:0:0:
11,182,180325,1,0,1:1:0:0:
96,197,180563,1,8,3:1:0:0:
137,120,180801,1,0,1:1:0:0:
77,58,181039,1,4,3:1:0:0:
