osu file format v14

[General]
AudioFilename: audio.mp3
AudioLeadIn: 0
PreviewTime: 152467
Countdown: 0
SampleSet: Soft
StackLeniency: 0.4
Mode: 0
LetterboxInBreaks: 0
WidescreenStoryboard: 1

[Editor]
Bookmarks: 30563,106753,121991
DistanceSpacing: 0.9
BeatDivisor: 4
GridSize: 4
TimelineZoom: 2.799999

[Metadata]
Title:Aimai Trip (with Momobako & miko)
TitleUnicode:曖昧トリップ (with 桃箱 & miko)
Artist:Yunomi
ArtistUnicode:Yunomi
Creator:Snow Note
Version:Extra
Source:
Tags:7odoa M3 2017 MMBK.COM Alternative ending japanese electronic きあと pop electropop tokyo jpop j-pop electro w/ future bass edm dance music
BeatmapID:3006792
BeatmapSetID:1463819

[Difficulty]
HPDrainRate:5
CircleSize:3.8
OverallDifficulty:6.8
ApproachRate:7.4
SliderMultiplier:2.1
SliderTickRate:1

[Events]
//Background and Video events
0,0,"bg.jpg",0,0
//Break Periods
//Storyboard Layer 0 (Background)
Sprite,Background,Centre,"SB801.png",320,240 M,0,14853,,316.833,332.635 S,0,14853,,1.079175 F,0,14853,15091,0,1 F,0,15091,60568,1 F,0,60568,60806,1,0 F,0,75806,76044,0,1 F,0,76044,106282,1 F,0,106282,106520,1,0 F,0,121758,121996,0,1 F,0,136282,136520,1,0 F,0,151996,152234,0,1 F,0,167234,167472,1,0
//Storyboard Layer 1 (Fail)
//Storyboard Layer 2 (Pass)
//Storyboard Layer 3 (Foreground)
Sprite,Foreground,TopLeft,"SB01.png",320,420 M,0,14853,15091,-5,430,-5,400 F,0,14853,15091,0,1 M,0,16520,16758,-5,400,-5,370 F,0,16520,16758,1,0
Sprite,Foreground,TopLeft,"SB02.png",320,420 M,0,16758,16996,-5,430,-5,400 F,0,16758,16996,0,1 M,0,18425,18663,-5,400,-5,370 F,0,18425,18663,1,0
Sprite,Foreground,TopLeft,"SB03.png",320,420 M,0,18663,18901,-5,430,-5,400 F,0,18663,18901,0,1 M,0,22235,22473,-5,400,-5,370 F,0,22235,22473,1,0
Sprite,Foreground,TopLeft,"SB04.png",320,420 M,0,22473,22711,-5,430,-5,400 F,0,22473,22711,0,1 M,0,24139,24377,-5,400,-5,370 F,0,24139,24377,1,0
Sprite,Foreground,TopLeft,"SB05.png",320,420 M,0,24377,24615,-5,430,-5,400 F,0,24377,24615,0,1 M,0,26044,26282,-5,400,-5,370 F,0,26044,26282,1,0
Sprite,Foreground,TopLeft,"SB06.png",320,420 M,0,26282,26520,-5,430,-5,400 F,0,26282,26520,0,1 M,0,29854,30092,-5,400,-5,370 F,0,29854,30092,1,0
Sprite,Foreground,TopLeft,"SB07.png",320,420 M,0,30092,30330,-5,430,-5,400 F,0,30092,30330,0,1 M,0,33663,33901,-5,400,-5,370 F,0,33663,33901,1,0
Sprite,Foreground,TopLeft,"SB08.png",320,420 M,0,33901,34139,-5,430,-5,400 F,0,33901,34139,0,1 M,0,37473,37711,-5,400,-5,370 F,0,37473,37711,1,0
Sprite,Foreground,TopLeft,"SB09.png",320,420 M,0,37711,37949,-5,430,-5,400 F,0,37711,37949,0,1 M,0,42235,42473,-5,400,-5,370 F,0,42235,42473,1,0
Sprite,Foreground,TopLeft,"SB10.png",320,420 M,0,42473,42711,-5,430,-5,400 F,0,42473,42711,0,1 M,0,45330,45568,-5,400,-5,370 F,0,45330,45568,1,0
Sprite,Foreground,TopLeft,"SB11.png",320,420 M,0,45568,45806,-5,430,-5,400 F,0,45568,45806,0,1 M,0,48901,49139,-5,400,-5,370 F,0,48901,49139,1,0 M,0,121758,121996,-5,430,-5,400 F,0,121758,121996,0,1 M,0,125092,125330,-5,400,-5,370 F,0,125092,125330,1,0 M,0,151996,152234,-5,430,-5,400 F,0,151996,152234,0,1 M,0,155568,155806,-5,400,-5,370 F,0,155568,155806,1,0
Sprite,Foreground,TopLeft,"SB12.png",320,420 M,0,49139,49377,-5,430,-5,400 F,0,49139,49377,0,1 M,0,52949,53187,-5,400,-5,370 F,0,52949,53187,1,0 M,0,125330,125568,-5,430,-5,400 F,0,125330,125568,0,1 M,0,129139,129377,-5,400,-5,370 F,0,129139,129377,1,0 M,0,155806,156044,-5,430,-5,400 F,0,155806,156044,0,1 M,0,159615,159853,-5,400,-5,370 F,0,159615,159853,1,0
Sprite,Foreground,TopLeft,"SB13.png",320,420 M,0,53187,53425,-5,430,-5,400 F,0,53187,53425,0,1 M,0,56520,56758,-5,400,-5,370 F,0,56520,56758,1,0 M,0,129377,129615,-5,430,-5,400 F,0,129377,129615,0,1 M,0,132711,132949,-5,400,-5,370 F,0,132711,132949,1,0 M,0,159853,160091,-5,430,-5,400 F,0,159853,160091,0,1 M,0,163187,163425,-5,400,-5,370 F,0,163187,163425,1,0
Sprite,Foreground,TopLeft,"SB14.png",320,420 M,0,56758,56996,-5,430,-5,400 F,0,56758,56996,0,1 M,0,58425,58663,-5,400,-5,370 F,0,58425,58663,1,0 M,0,132949,133187,-5,430,-5,400 F,0,132949,133187,0,1 M,0,134854,135092,-5,400,-5,370 F,0,134854,135092,1,0 M,0,163425,163663,-5,430,-5,400 F,0,163425,163663,0,1 M,0,165330,165568,-5,400,-5,370 F,0,165330,165568,1,0
Sprite,Foreground,TopLeft,"SB15.png",320,420 M,0,58663,58901,-5,430,-5,400 F,0,58663,58901,0,1 M,0,60568,60806,-5,400,-5,370 F,0,60568,60806,1,0 M,0,135092,135330,-5,430,-5,400 F,0,135092,135330,0,1 M,0,136282,136520,-5,400,-5,370 F,0,136282,136520,1,0 M,0,165568,165806,-5,430,-5,400 F,0,165568,165806,0,1 M,0,167235,167473,-5,400,-5,370 F,0,167235,167473,1,0
Sprite,Foreground,TopLeft,"SB16.png",320,420 M,0,75806,76044,-5,430,-5,400 F,0,75806,76044,0,1 M,0,77473,77711,-5,400,-5,370 F,0,77473,77711,1,0
Sprite,Foreground,TopLeft,"SB17.png",320,420 M,0,77711,77949,-5,430,-5,400 F,0,77711,77949,0,1 M,0,79377,79615,-5,400,-5,370 F,0,79377,79615,1,0
Sprite,Foreground,TopLeft,"SB18.png",320,420 M,0,79615,79853,-5,430,-5,400 F,0,79615,79853,0,1 M,0,81282,81520,-5,400,-5,370 F,0,81282,81520,1,0
Sprite,Foreground,TopLeft,"SB19.png",320,420 M,0,81520,81758,-5,430,-5,400 F,0,81520,81758,0,1 M,0,83187,83425,-5,400,-5,370 F,0,83187,83425,1,0
Sprite,Foreground,TopLeft,"SB20.png",320,420 M,0,83425,83663,-5,430,-5,400 F,0,83425,83663,0,1 M,0,85092,85330,-5,400,-5,370 F,0,85092,85330,1,0
Sprite,Foreground,TopLeft,"SB21.png",320,420 M,0,85330,85568,-5,430,-5,400 F,0,85330,85568,0,1 M,0,86996,87234,-5,400,-5,370 F,0,86996,87234,1,0
Sprite,Foreground,TopLeft,"SB22.png",320,420 M,0,87234,87472,-5,430,-5,400 F,0,87234,87472,0,1 M,0,88901,89139,-5,400,-5,370 F,0,88901,89139,1,0
Sprite,Foreground,TopLeft,"SB23.png",320,420 M,0,89139,89377,-5,430,-5,400 F,0,89139,89377,0,1 M,0,90806,91044,-5,400,-5,370 F,0,90806,91044,1,0
Sprite,Foreground,TopLeft,"SB24.png",320,420 M,0,91044,91282,-5,430,-5,400 F,0,91044,91282,0,1 M,0,94615,94853,-5,400,-5,370 F,0,94615,94853,1,0
Sprite,Foreground,TopLeft,"SB25.png",320,420 M,0,94853,95091,-5,430,-5,400 F,0,94853,95091,0,1 M,0,98425,98663,-5,400,-5,370 F,0,98425,98663,1,0
Sprite,Foreground,TopLeft,"SB26.png",320,420 M,0,98663,98901,-5,430,-5,400 F,0,98663,98901,0,1 M,0,102235,102473,-5,400,-5,370 F,0,102235,102473,1,0
Sprite,Foreground,TopLeft,"SB27.png",320,420 M,0,102473,102711,-5,430,-5,400 F,0,102473,102711,0,1 M,0,106282,106520,-5,400,-5,370 F,0,106282,106520,1,0
Sprite,Foreground,Centre,"SB-Kuro.jpg",320,240 F,0,-2000,7711,1,0.4394228
Sprite,Foreground,Centre,"SB701.jpg",320,240 F,0,13425,14615,0,1 F,0,14615,15330,1,0 F,0,106758,,0 F,0,106758,114377,0,1 F,0,114377,121044,1 F,0,121044,121996,1,0 F,0,181044,182472,0,1 F,0,182472,182711,1 F,0,182711,182949,1,0
Sprite,Foreground,Centre,"SB-Siro.jpg",320,240 F,0,7711,8187,1,0 F,0,106758,107711,1,0
//Storyboard Layer 4 (Overlay)
//Storyboard Sound Samples

[TimingPoints]
87,476.190476190476,4,2,1,80,1,0
15325,-133.333333333333,4,2,1,80,0,0
30563,-100,4,2,1,80,0,0
45801,-133.333333333333,4,2,1,80,0,0
61039,-100,4,2,1,90,0,1
76277,-100,4,2,1,80,0,0
91515,-200,4,2,1,80,0,0
99134,-133.333333333333,4,2,1,50,0,0
106277,-133.333333333333,4,2,1,80,0,0
114372,-133.333333333333,4,2,2,80,0,0
121991,-100,4,2,1,80,0,0
137229,-100,4,2,1,90,0,1
151991,-100,4,2,1,90,0,0
152467,-100,4,2,1,90,0,1
165801,-100,4,2,1,80,0,0
166753,-100,4,2,2,80,0,0
167706,-133.333333333333,4,2,1,80,0,0

[Colours]
Combo1 : 128,128,255
Combo2 : 255,128,255
Combo3 : 252,131,140
Combo4 : 128,0,255

[HitObjects]
256,192,87,5,2,2:2:0:0:
256,192,1039,1,2,2:2:0:0:
288,92,1277,1,0,2:2:0:0:
300,148,1515,1,0,2:2:0:0:
268,236,1753,1,0,2:2:0:0:
256,192,1991,1,2,2:2:0:0:
288,92,2706,1,0,2:2:0:0:
300,144,2944,1,2,2:2:0:0:
208,256,3420,5,0,2:2:0:0:
188,208,3658,1,0,2:2:0:0:
168,156,3896,1,2,2:2:0:0:
168,156,4848,1,2,2:2:0:0:
200,80,5086,1,0,2:2:0:0:
224,128,5325,1,0,2:2:0:0:
188,208,5563,1,0,2:2:0:0:
168,156,5801,1,2,2:2:0:0:
124,20,6515,5,0,2:2:0:0:
104,100,6753,1,2,2:2:0:0:
88,184,6991,1,0,2:2:0:0:
16,328,7229,5,0,2:2:0:0:
120,308,7467,1,0,2:2:0:0:
224,288,7705,1,6,2:2:0:0:
224,288,8658,5,2,2:2:0:0:
256,104,8896,1,0,2:2:0:0:
152,124,9134,1,0,2:2:0:0:
120,308,9372,1,0,2:2:0:0:
224,288,9610,1,2,2:2:0:0:
256,104,10325,1,0,2:2:0:0:
152,124,10563,1,2,2:2:0:0:
256,380,11039,5,0,2:2:0:0:
364,340,11277,1,0,2:2:0:0:
432,244,11515,1,2,2:2:0:0:
256,32,12229,5,0,2:2:0:0:
143,87,12467,1,2,2:2:0:0:
256,144,12706,2,0,L|312:144,3,35
322,265,13182,1,0,2:2:0:0:
190,265,13420,1,2,2:2:0:0:
208,368,15325,6,0,P|138:376|76:321,1,157.500006008148,4|8,3:1|3:1,0:0:0:0:
304,16,16277,2,0,P|374:8|436:63,1,157.500006008148,0|8,3:1|3:1,0:0:0:0:
435,321,17229,2,0,P|380:374|304:368,1,157.500006008148,0|8,3:1|3:1,0:0:0:0:
76,62,18182,2,0,P|131:9|208:16,1,157.500006008148,0|8,3:1|3:1,0:0:0:0:
208,368,19134,6,0,P|138:377|76:322,1,157.500006008148,0|8,3:3|3:1,0:0:0:0:
304,16,20086,2,0,P|373:7|435:62,1,157.500006008148,0|8,3:3|3:1,0:0:0:0:
160,288,21039,2,0,P|107:232|114:156,1,157.500006008148,0|8,3:3|3:1,0:0:0:0:
352,96,21991,2,0,P|404:151|405:207,1,118.125004506111,0|0,3:3|2:2,0:0:0:0:
402,218,22467,1,8,3:1:0:0:
402,218,22547,1,0,1:1:0:0:
188,376,22944,6,0,L|64:368,1,118.125004506111,4|0,3:1|1:1,0:0:0:0:
48,367,23420,1,8,3:1:0:0:
200,192,23658,1,0,1:1:0:0:
192,284,23896,2,0,L|68:276,1,118.125004506111,0|0,3:3|1:1,0:0:0:0:
52,275,24372,1,8,3:1:0:0:
204,100,24610,1,0,1:1:0:0:
200,192,24848,6,0,L|76:184,1,118.125004506111,0|0,3:3|1:1,0:0:0:0:
60,183,25324,1,8,3:1:0:0:
212,8,25562,1,0,1:1:0:0:
204,100,25801,2,0,L|80:92,1,118.125004506111,0|0,3:3|1:1,0:0:0:0:
64,91,26277,1,8,3:1:0:0:
212,8,26515,1,0,1:1:0:0:
308,100,26753,6,0,L|432:92,1,118.125004506111,0|0,3:3|1:1,0:0:0:0:
448,91,27229,1,8,3:1:0:0:
300,8,27467,1,0,1:1:0:0:
312,192,27706,2,0,L|436:184,1,118.125004506111,0|0,3:3|1:1,0:0:0:0:
452,183,28182,1,8,3:1:0:0:
308,100,28420,1,0,1:1:0:0:
320,284,28658,6,0,L|444:276,1,118.125004506111,0|0,3:3|1:1,0:0:0:0:
460,275,29134,1,8,3:1:0:0:
312,192,29372,1,0,1:1:0:0:
252,368,29610,1,0,3:3:0:0:
204,100,30086,5,0,1:1:0:0:
204,100,30206,1,0,1:1:0:0:
204,100,30325,1,0,1:1:0:0:
204,100,30444,1,0,1:1:0:0:
204,100,30563,6,0,L|376:96,1,157.5,4|0,3:1|1:1,0:0:0:0:
372,80,31039,2,0,P|384:128|368:196,1,105,8|0,3:1|1:1,0:0:0:0:
292,232,31515,5,0,3:3:0:0:
316,24,31753,1,0,1:1:0:0:
316,24,31872,1,0,1:1:0:0:
316,24,31991,1,8,3:1:0:0:
488,132,32229,1,0,1:1:0:0:
292,232,32467,6,0,P|256:240|184:200,1,105,0|0,3:3|1:1,0:0:0:0:
136,164,32825,1,0,1:1:0:0:
136,164,32944,2,0,L|144:43,1,105,8|0,3:1|1:1,0:0:0:0:
256,116,33420,5,0,3:3:0:0:
196,329,33658,1,0,1:1:0:0:
196,329,33777,1,0,1:1:0:0:
196,329,33896,1,8,3:1:0:0:
28,192,34134,1,0,1:1:0:0:
256,116,34372,6,0,P|328:124|376:200,1,157.5,0|0,3:3|1:1,0:0:0:0:
376,208,34848,2,0,L|384:96,1,105,8|0,3:1|1:1,0:0:0:0:
224,24,35325,5,0,3:3:0:0:
88,224,35563,1,0,1:1:0:0:
288,360,35801,1,8,3:1:0:0:
424,160,36039,1,0,1:1:0:0:
224,24,36277,6,0,P|200:68|212:132,1,105,0|0,3:3|1:1,0:0:0:0:
120,164,36634,1,0,1:1:0:0:
120,164,36753,2,0,P|146:206|207:228,1,105,8|0,3:1|1:1,0:0:0:0:
180,328,37110,1,0,1:1:0:0:
180,328,37229,2,0,P|229:326|280:280,1,105,0|0,3:3|1:1,0:0:0:0:
300,216,37586,1,8,3:1:0:0:
84,32,37944,5,0,1:1:0:0:
8,160,38182,2,0,P|76:180|160:144,1,157.5,4|0,3:1|1:1,0:0:0:0:
156,136,38658,2,0,L|168:240,1,105,8|0,3:1|1:1,0:0:0:0:
160,352,39134,5,0,3:3:0:0:
400,216,39372,1,0,1:1:0:0:
312,384,39610,1,8,3:1:0:0:
256,188,39848,1,0,1:1:0:0:
352,32,40086,6,0,P|424:40|472:128,1,157.5,0|0,3:3|1:1,0:0:0:0:
472,128,40563,1,8,3:1:0:0:
336,272,40801,1,0,1:1:0:0:
128,200,41039,2,0,P|116:144|136:100,1,105,0|0,3:3|1:1,0:0:0:0:
160,32,41396,1,0,1:1:0:0:
160,32,41515,2,0,P|87:27|41:57,1,105,8|0,3:1|1:1,0:0:0:0:
12,288,41991,6,0,P|40:352|176:336,1,210,0|8,3:3|3:1,0:0:0:0:
256,188,42706,1,0,1:1:0:0:
112,272,42944,5,0,3:3:0:0:
336,368,43182,1,0,1:1:0:0:
256,104,43420,1,8,3:1:0:0:
176,368,43658,1,0,1:1:0:0:
352,196,43896,5,0,3:3:0:0:
152,124,44134,1,0,1:1:0:0:
152,124,44253,1,0,1:1:0:0:
152,124,44372,1,8,3:1:0:0:
368,52,44610,1,0,1:1:0:0:
368,52,44729,1,0,1:1:0:0:
368,52,44848,5,0,3:3:0:0:
256,304,45086,1,0,3:1:0:0:
200,8,45325,1,0,3:3:0:0:
200,8,45801,5,12,1:1:0:0:
180,148,46039,1,0,1:1:0:0:
180,148,46158,1,0,1:1:0:0:
180,148,46277,1,8,1:1:0:0:
260,80,46515,1,0,1:1:0:0:
108,84,46753,6,0,P|88:140|112:212,1,118.125004506111,8|0,1:1|1:1,0:0:0:0:
124,224,47229,1,8,1:1:0:0:
28,40,47467,1,0,1:1:0:0:
40,264,47706,6,0,P|85:301|161:304,1,118.125004506111,8|0,1:1|1:1,0:0:0:0:
177,296,48182,1,8,1:1:0:0:
4,360,48420,1,0,1:1:0:0:
236,364,48658,6,0,P|287:333|315:263,1,118.125004506111,8|0,1:1|1:1,0:0:0:0:
312,246,49134,1,8,1:1:0:0:
164,128,49372,1,0,1:1:0:0:
312,8,49610,5,12,1:1:0:0:
332,148,49848,1,0,1:1:0:0:
332,148,49967,1,0,1:1:0:0:
332,148,50086,1,8,1:1:0:0:
252,80,50324,1,0,1:1:0:0:
404,84,50562,6,0,P|424:140|400:212,1,118.125004506111,8|0,1:1|1:1,0:0:0:0:
388,224,51038,1,8,1:1:0:0:
484,40,51276,1,0,1:1:0:0:
472,264,51515,6,0,P|426:301|350:304,1,118.125004506111,8|0,1:1|1:1,0:0:0:0:
335,296,51991,1,8,1:1:0:0:
508,360,52229,1,0,1:1:0:0:
276,364,52467,6,0,P|224:333|196:263,1,118.125004506111,8|0,1:1|1:1,0:0:0:0:
200,246,52943,1,8,1:1:0:0:
312,138,53181,1,0,1:1:0:0:
256,16,53420,5,12,1:1:0:0:
200,138,53658,1,0,1:1:0:0:
200,138,53777,1,0,1:1:0:0:
200,138,53896,1,8,1:1:0:0:
348,36,54134,1,0,1:1:0:0:
164,36,54372,6,0,P|104:34|34:78,1,118.125004506111,8|0,1:1|1:1,0:0:0:0:
36,80,54848,1,8,1:1:0:0:
280,76,55086,1,0,1:1:0:0:
124,140,55325,6,0,P|84:184|73:266,1,118.125004506111,8|0,1:1|1:1,0:0:0:0:
75,266,55801,1,8,1:1:0:0:
196,88,56039,1,0,1:1:0:0:
172,244,56277,6,0,P|180:302|235:364,1,118.125004506111,8|0,1:1|1:1,0:0:0:0:
237,362,56753,1,8,1:1:0:0:
384,232,56991,1,0,1:1:0:0:
300,68,57229,6,0,L|216:60,1,78.7500030040742,12|0,1:1|1:1,0:0:0:0:
320,372,57706,2,0,L|404:380,1,78.7500030040742,8|0,1:1|1:1,0:0:0:0:
221,60,58182,2,0,L|137:52,1,78.7500030040742,8|0,1:1|1:1,0:0:0:0:
241,364,58659,2,0,L|325:372,1,78.7500030040742,8|0,1:1|1:1,0:0:0:0:
96,124,59134,5,2,2:2:0:0:
132,212,59372,1,2,2:2:0:0:
178,136,59610,1,2,2:2:0:0:
178,136,59729,1,2,2:2:0:0:
52,200,59967,1,2,2:2:0:0:
52,200,60563,1,8,1:1:0:0:
52,200,61039,5,4,3:1:0:0:
120,368,61277,1,0,1:1:0:0:
156,364,61396,1,0,1:1:0:0:
192,360,61515,1,0,3:3:0:0:
232,120,61753,1,0,1:1:0:0:
196,124,61872,1,0,1:1:0:0:
160,128,61991,1,0,3:3:0:0:
352,128,62229,5,0,1:1:0:0:
256,296,62467,1,8,3:1:0:0:
88,56,62706,5,0,1:1:0:0:
124,52,62825,1,0,1:1:0:0:
160,48,62944,1,0,3:3:0:0:
100,324,63182,1,0,1:1:0:0:
64,328,63301,1,0,1:1:0:0:
28,332,63420,1,0,3:3:0:0:
256,192,63658,5,0,1:1:0:0:
200,384,63896,1,0,3:3:0:0:
88,56,64134,5,8,1:1:0:0:
88,56,64372,1,8,3:1:0:0:
260,304,64610,5,0,1:1:0:0:
296,308,64729,1,0,1:1:0:0:
332,312,64848,1,0,3:3:0:0:
424,56,65086,1,0,1:1:0:0:
388,52,65205,1,0,1:1:0:0:
352,48,65324,1,0,3:3:0:0:
408,368,65563,1,0,1:1:0:0:
444,372,65682,1,0,1:1:0:0:
480,376,65801,1,0,3:3:0:0:
308,188,66039,5,0,1:1:0:0:
256,384,66277,1,8,3:1:0:0:
412,212,66515,5,0,1:1:0:0:
416,176,66634,1,0,1:1:0:0:
420,140,66753,1,0,3:3:0:0:
136,312,66991,1,0,1:1:0:0:
140,348,67110,1,0,1:1:0:0:
144,384,67229,1,0,3:3:0:0:
332,268,67467,5,0,1:1:0:0:
56,192,67706,1,0,3:3:0:0:
256,24,67944,5,8,1:1:0:0:
256,24,68063,1,8,1:1:0:0:
256,24,68182,1,8,1:1:0:0:
256,24,68658,1,4,3:1:0:0:
24,124,68896,5,0,1:1:0:0:
104,152,69015,1,0,1:1:0:0:
184,124,69134,1,8,3:1:0:0:
24,232,69372,1,0,1:1:0:0:
104,260,69491,1,0,1:1:0:0:
184,232,69610,1,0,3:3:0:0:
256,24,69848,5,0,1:1:0:0:
256,360,70086,1,8,3:1:0:0:
488,260,70325,5,0,1:1:0:0:
408,232,70444,1,0,1:1:0:0:
328,260,70563,1,0,3:3:0:0:
488,152,70801,1,0,1:1:0:0:
408,124,70920,1,0,1:1:0:0:
328,152,71039,1,8,3:1:0:0:
256,24,71277,5,0,1:1:0:0:
256,360,71515,1,0,3:3:0:0:
344,44,71753,5,8,1:1:0:0:
344,44,71991,1,8,3:1:0:0:
168,340,72229,5,0,1:1:0:0:
88,368,72348,1,0,1:1:0:0:
8,340,72467,1,4,3:1:0:0:
168,256,72706,1,0,1:1:0:0:
88,284,72825,1,0,1:1:0:0:
8,256,72944,1,8,3:1:0:0:
168,172,73182,1,0,1:1:0:0:
88,200,73301,1,0,1:1:0:0:
8,172,73420,1,0,3:3:0:0:
256,24,73658,5,0,1:1:0:0:
256,360,73896,1,8,3:1:0:0:
488,260,74134,5,0,1:1:0:0:
408,232,74253,1,0,1:1:0:0:
328,260,74372,5,0,3:3:0:0:
240,192,74531,1,0,1:1:0:0:
256,80,74690,1,0,1:1:0:0:
360,36,74848,1,0,1:1:0:0:
408,232,75086,5,0,1:1:0:0:
404,260,75206,1,0,1:1:0:0:
400,288,75325,1,0,1:1:0:0:
396,316,75444,1,0,1:1:0:0:
392,344,75563,1,0,1:1:0:0:
512,296,75801,1,0,1:1:0:0:
440,36,76277,5,4,3:1:0:0:
256,108,76753,1,0,3:3:0:0:
72,36,77229,5,0,3:3:0:0:
92,192,77586,1,0,3:3:0:0:
112,348,77944,1,0,3:3:0:0:
40,272,78182,5,0,3:3:0:0:
256,332,78658,1,0,3:3:0:0:
472,272,79134,5,0,3:3:0:0:
320,228,79491,1,0,3:3:0:0:
352,384,79848,1,0,3:3:0:0:
392,296,80086,5,0,3:3:0:0:
120,296,80562,1,0,3:3:0:0:
328,96,81038,5,0,3:3:0:0:
256,236,81395,1,0,3:3:0:0:
184,96,81753,1,0,3:3:0:0:
108,172,81991,5,0,3:3:0:0:
256,368,82467,1,0,3:3:0:0:
404,172,82943,1,0,3:3:0:0:
404,172,83420,1,2,2:2:0:0:
505,251,83658,5,0,1:1:0:0:
507,271,83737,1,0,1:1:0:0:
509,292,83817,1,0,1:1:0:0:
511,312,83896,6,0,P|471:330|406:317,1,105,4|0,3:1|1:1,0:0:0:0:
336,304,84253,1,0,1:1:0:0:
260,276,84372,2,0,P|209:265|161:284,1,105,0|0,3:3|1:1,0:0:0:0:
52,380,84848,6,0,P|32:348|36:272,1,105,0|0,3:3|1:1,0:0:0:0:
232,0,85325,2,0,P|252:32|248:108,1,105,0|0,3:3|1:1,0:0:0:0:
200,172,85682,1,0,1:1:0:0:
120,168,85801,6,0,L|32:160,1,52.5,0|0,3:3|1:1,0:0:0:0:
56,72,86039,2,0,L|144:80,1,52.5,0|0,1:1|1:1,0:0:0:0:
200,172,86277,2,0,P|192:224|160:264,1,105,0|0,3:3|1:1,0:0:0:0:
364,384,86753,2,0,P|440:328|508:344,1,157.5,0|0,3:3|1:1,0:0:0:0:
512,356,87229,1,0,3:3:0:0:
252,384,87467,5,0,1:1:0:0:
252,384,87586,1,0,1:1:0:0:
252,384,87706,1,0,3:3:0:0:
336,80,87944,1,0,3:3:0:0:
432,316,88182,2,0,L|304:312,1,105,0|0,3:3|1:1,0:0:0:0:
88,232,88658,2,0,L|216:228,1,105,0|0,3:3|1:1,0:0:0:0:
212,228,89015,1,0,3:3:0:0:
40,376,89372,1,0,3:3:0:0:
16,152,89610,5,0,3:3:0:0:
52,149,89729,1,0,1:1:0:0:
88,147,89848,1,0,1:1:0:0:
124,146,89967,1,0,1:1:0:0:
160,144,90086,1,0,1:1:0:0:
328,360,90325,5,0,1:1:0:0:
292,357,90444,1,0,1:1:0:0:
256,355,90563,5,0,3:3:0:0:
196,268,90721,1,0,3:3:0:0:
256,180,90880,1,0,3:3:0:0:
352,220,91039,1,0,3:3:0:0:
429,149,91197,1,0,3:3:0:0:
399,48,91356,1,0,3:3:0:0:
284,40,91515,6,0,L|160:40,1,105,6|0,2:2|2:2,0:0:0:0:
4,88,92467,1,2,2:2:0:0:
136,104,92706,1,0,2:2:0:0:
36,172,92944,1,0,2:2:0:0:
84,24,93182,1,0,2:2:0:0:
136,104,93420,6,0,P|124:152|138:220,1,105,2|0,2:2|2:2,0:0:0:0:
172,308,94134,1,0,2:2:0:0:
376,280,94372,2,0,P|388:232|374:164,1,105,2|0,2:2|2:2,0:0:0:0:
340,76,95086,1,0,2:2:0:0:
332,364,95325,6,0,P|384:376|440:356,1,105,2|0,2:2|2:2,0:0:0:0:
512,300,96039,1,0,2:2:0:0:
256,252,96277,2,0,L|256:320,1,52.5,2|0,2:2|2:2,0:0:0:0:
512,192,96753,2,0,L|512:128,1,52.5,0|0,2:2|2:2,0:0:0:0:
308,32,97229,2,0,L|204:32,2,105,2|0|2,2:2|2:2|2:2,0:0:0:0:
400,32,98420,1,0,2:2:0:0:
492,32,98658,1,0,2:2:0:0:
16,192,99134,6,0,L|106:192,1,78.7500030040742,0|0,1:1|1:1,0:0:0:0:
176,192,99491,1,0,1:1:0:0:
132,264,99610,2,0,P|120:308|136:356,1,78.7500030040742,0|0,1:1|1:1,0:0:0:0:
200,376,99967,1,0,1:1:0:0:
256,316,100086,2,0,L|248:252,1,39.3750015020371,0|0,1:1|1:1,0:0:0:0:
324,236,100325,2,0,L|332:300,1,39.3750015020371,0|0,1:1|1:1,0:0:0:0:
340,356,100563,1,0,1:1:0:0:
176,192,100801,1,0,1:1:0:0:
312,24,101039,5,0,1:1:0:0:
312,24,101158,1,0,1:1:0:0:
312,24,101277,1,0,1:1:0:0:
494,139,101515,1,0,1:1:0:0:
457,154,101634,1,0,1:1:0:0:
417,159,101753,1,0,1:1:0:0:
378,148,101872,1,0,1:1:0:0:
348,122,101991,1,0,1:1:0:0:
164,122,102229,1,0,1:1:0:0:
134,148,102348,1,0,1:1:0:0:
95,159,102467,1,0,1:1:0:0:
28,60,102706,1,0,1:1:0:0:
200,24,102944,5,0,1:1:0:0:
200,24,103063,1,0,1:1:0:0:
200,24,103182,1,0,1:1:0:0:
256,192,103420,1,0,1:1:0:0:
312,360,103658,1,0,1:1:0:0:
312,360,103777,1,0,1:1:0:0:
312,360,103896,2,0,L|415:348,1,78.7500030040742,0|0,1:1|1:1,0:0:0:0:
472,340,104253,1,0,1:1:0:0:
348,272,104372,2,0,L|451:260,1,78.7500030040742,0|0,1:1|1:1,0:0:0:0:
200,360,104848,5,0,1:1:0:0:
344,268,105086,1,0,1:1:0:0:
168,268,105325,5,0,1:1:0:0:
140,264,105445,1,0,1:1:0:0:
112,260,105564,1,0,1:1:0:0:
84,256,105683,1,0,1:1:0:0:
56,252,105801,2,0,L|25:247,7,19.6875007510186,0|0|0|0|0|0|0|0,1:1|1:1|1:1|1:1|1:1|1:1|1:1|1:1,0:0:0:0:
19,259,106277,5,0,1:2:0:0:
108,208,106515,1,0,2:2:0:0:
200,164,106753,1,6,2:2:0:0:
200,164,107706,5,2,2:2:0:0:
252,12,107944,1,0,2:2:0:0:
344,56,108182,1,0,2:2:0:0:
292,208,108420,1,0,2:2:0:0:
200,164,108658,1,2,2:2:0:0:
252,12,109372,1,0,2:2:0:0:
344,56,109610,1,2,2:2:0:0:
256,380,110086,5,0,2:2:0:0:
232,288,110325,1,0,2:2:0:0:
208,196,110563,1,2,2:2:0:0:
208,196,111515,5,2,2:2:0:0:
228,104,111753,1,0,2:2:0:0:
208,196,111991,1,0,2:2:0:0:
148,360,112229,5,0,2:2:0:0:
124,268,112468,1,2,2:2:0:0:
180,104,113182,1,0,2:2:0:0:
208,196,113420,1,2,2:2:0:0:
232,288,113658,1,0,2:2:0:0:
256,380,113896,5,0,2:2:0:0:
280,288,114135,1,0,2:2:0:0:
304,196,114373,1,6,2:2:0:0:
304,196,115325,5,6,2:2:0:0:
284,104,115563,1,0,2:2:0:0:
304,196,115801,1,0,2:2:0:0:
364,360,116039,5,0,2:2:0:0:
388,268,116278,1,6,2:2:0:0:
332,104,116992,1,0,2:2:0:0:
304,196,117230,1,6,2:2:0:0:
256,380,117706,5,4,2:2:0:0:
388,268,117944,1,4,2:2:0:0:
208,196,118182,1,6,2:2:0:0:
256,112,118896,1,0,2:2:0:0:
432,0,119134,5,6,2:2:0:0:
416,92,119372,1,0,2:2:0:0:
400,184,119610,1,0,2:2:0:0:
384,276,119848,1,0,2:2:0:0:
368,368,120086,5,6,2:2:0:0:
47,200,120563,1,2,2:2:0:0:
353,7,121039,1,6,2:2:0:0:
353,7,121069,1,2,2:2:0:0:
36,304,121991,5,12,1:1:0:0:
188,284,122229,1,0,1:1:0:0:
188,284,122348,1,0,1:1:0:0:
188,284,122467,1,8,1:1:0:0:
112,384,122706,1,0,1:1:0:0:
68,212,122944,6,0,P|89:166|194:120,1,157.5,8|0,1:1|1:1,0:0:0:0:
204,124,123420,1,8,1:1:0:0:
92,296,123658,1,0,1:1:0:0:
0,124,123896,5,8,1:1:0:0:
0,124,124015,1,0,1:1:0:0:
0,124,124134,1,0,1:1:0:0:
168,236,124372,1,8,1:1:0:0:
168,236,124491,1,0,1:1:0:0:
344,148,124729,1,0,1:1:0:0:
344,148,124848,2,0,P|404:144|476:204,1,157.5,8|0,1:1|1:1,0:0:0:0:
484,228,125325,1,8,1:1:0:0:
400,380,125563,1,0,1:1:0:0:
204,308,125801,5,12,1:1:0:0:
404,252,126039,1,0,1:1:0:0:
404,252,126158,1,0,1:1:0:0:
404,252,126277,1,8,1:1:0:0:
304,384,126516,1,0,1:1:0:0:
216,196,126753,6,0,P|200:124|236:48,1,157.5,8|0,1:1|1:1,0:0:0:0:
256,36,127229,1,8,1:1:0:0:
128,192,127467,1,0,1:1:0:0:
368,96,127706,5,8,1:1:0:0:
368,96,127825,1,0,1:1:0:0:
368,96,127944,1,0,1:1:0:0:
144,96,128182,1,8,1:1:0:0:
144,96,128301,1,0,1:1:0:0:
256,300,128539,1,0,1:1:0:0:
256,300,128658,1,8,1:1:0:0:
256,76,128896,1,0,1:1:0:0:
256,49,129015,1,0,1:1:0:0:
256,22,129135,1,8,1:1:0:0:
64,316,129610,5,12,1:1:0:0:
148,128,129848,1,0,1:1:0:0:
256,352,130086,1,8,1:1:0:0:
364,128,130325,1,0,1:1:0:0:
448,316,130563,6,0,P|384:332|336:300,1,105,8|0,1:1|1:1,0:0:0:0:
400,236,130920,1,0,1:1:0:0:
496,231,131039,2,0,P|487:282|448:316,1,105,8|0,1:1|1:1,0:0:0:0:
104,152,131515,6,0,P|92:100|108:44,1,105,8|0,1:1|1:1,0:0:0:0:
407,50,131991,1,8,1:1:0:0:
407,50,132110,2,0,P|420:101|408:152,1,105,0|0,1:1|1:1,0:0:0:0:
352,208,132467,1,8,1:1:0:0:
256,44,132706,1,0,1:1:0:0:
256,44,132825,1,0,1:1:0:0:
256,44,132944,1,8,1:1:0:0:
512,116,133182,1,0,1:1:0:0:
360,347,133420,6,0,L|256:340,1,105,12|0,1:1|1:1,0:0:0:0:
151,36,133896,2,0,L|256:44,1,105,8|0,1:1|1:1,0:0:0:0:
424,256,134372,5,8,1:1:0:0:
88,128,134610,1,0,1:1:0:0:
344,48,134848,1,8,1:1:0:0:
168,336,135086,1,0,1:1:0:0:
168,336,136753,1,8,1:1:0:0:
256,192,137229,5,4,3:1:0:0:
512,192,137467,1,0,1:1:0:0:
508,228,137586,1,0,1:1:0:0:
504,264,137705,1,0,3:3:0:0:
344,384,137943,1,0,1:1:0:0:
348,348,138062,1,0,1:1:0:0:
352,312,138181,1,0,3:3:0:0:
376,120,138420,5,0,1:1:0:0:
424,384,138658,1,8,3:1:0:0:
188,364,138896,5,0,1:1:0:0:
184,328,139015,1,0,1:1:0:0:
180,292,139134,1,0,3:3:0:0:
376,120,139372,1,0,1:1:0:0:
380,156,139491,1,0,1:1:0:0:
384,192,139610,1,0,3:3:0:0:
128,192,139848,5,0,1:1:0:0:
256,36,140086,1,0,3:3:0:0:
256,340,140325,5,8,1:1:0:0:
256,340,140563,1,8,3:1:0:0:
32,352,140801,5,0,1:1:0:0:
28,316,140920,1,0,1:1:0:0:
24,280,141039,1,0,3:3:0:0:
208,116,141277,1,0,1:1:0:0:
212,152,141396,1,0,1:1:0:0:
216,188,141515,1,0,3:3:0:0:
52,96,141753,1,0,1:1:0:0:
48,60,141872,1,0,1:1:0:0:
44,24,141991,1,0,3:3:0:0:
196,8,142229,5,0,1:1:0:0:
100,248,142467,1,8,3:1:0:0:
312,360,142706,1,0,1:1:0:0:
348,364,142825,1,0,1:1:0:0:
384,368,142944,5,0,3:3:0:0:
372,277,143102,1,0,1:1:0:0:
360,186,143261,1,0,1:1:0:0:
348,95,143420,5,0,3:3:0:0:
494,289,143658,1,0,1:1:0:0:
256,336,143896,1,0,3:3:0:0:
500,156,144134,5,8,1:1:0:0:
500,156,144253,1,8,1:1:0:0:
500,156,144372,2,0,L|508:92,5,35,8|0|0|0|0|0,1:1|1:1|1:1|1:1|1:1|1:1,0:0:0:0:
508,92,144848,1,4,3:1:0:0:
324,24,145086,5,0,1:1:0:0:
336,108,145206,1,0,1:1:0:0:
348,192,145325,1,8,3:1:0:0:
232,24,145563,1,0,1:1:0:0:
244,108,145683,1,0,1:1:0:0:
256,192,145802,1,0,3:3:0:0:
324,24,146039,5,0,1:1:0:0:
164,192,146277,1,8,3:1:0:0:
324,360,146515,5,0,1:1:0:0:
336,276,146635,1,0,1:1:0:0:
348,192,146754,1,0,3:3:0:0:
232,360,146992,1,0,1:1:0:0:
244,276,147110,1,0,1:1:0:0:
249,235,147170,1,0,1:1:0:0:
256,192,147229,1,8,3:1:0:0:
324,360,147467,5,0,1:1:0:0:
164,192,147705,1,0,3:3:0:0:
324,24,147944,5,8,1:1:0:0:
324,24,148182,1,8,3:1:0:0:
256,192,148420,5,0,1:1:0:0:
244,108,148540,1,0,1:1:0:0:
232,24,148659,1,0,3:3:0:0:
348,192,148897,1,0,1:1:0:0:
336,108,149015,1,0,1:1:0:0:
324,24,149134,1,8,3:1:0:0:
440,192,149372,1,0,1:1:0:0:
428,108,149492,1,0,1:1:0:0:
416,24,149611,1,0,3:3:0:0:
256,192,149848,5,0,1:1:0:0:
408,360,150086,1,8,3:1:0:0:
440,192,150325,1,0,1:1:0:0:
428,108,150445,1,0,1:1:0:0:
416,24,150564,5,0,3:3:0:0:
306,6,150721,1,0,1:1:0:0:
197,33,150880,1,0,1:1:0:0:
125,119,151039,1,0,1:1:0:0:
260,340,151277,5,0,1:1:0:0:
288,344,151397,1,0,1:1:0:0:
316,348,151516,1,0,1:1:0:0:
344,352,151635,1,0,1:1:0:0:
372,356,151754,1,0,1:1:0:0:
508,332,151992,1,0,1:1:0:0:
84,384,152467,5,4,3:1:0:0:
104,144,152706,1,0,1:1:0:0:
104,144,152825,1,0,1:1:0:0:
104,144,152944,1,8,3:1:0:0:
0,324,153182,1,0,1:1:0:0:
176,352,153420,6,0,P|236:372|336:344,1,157.5,0|0,3:3|1:1,0:0:0:0:
392,312,153896,1,8,3:1:0:0:
324,64,154134,1,0,1:1:0:0:
256,288,154372,5,0,3:3:0:0:
464,232,154610,1,0,1:1:0:0:
220,192,154848,1,8,3:1:0:0:
220,192,154967,1,0,1:1:0:0:
488,128,155206,1,0,1:1:0:0:
488,128,155325,1,0,3:3:0:0:
184,96,155563,6,0,L|120:92,1,52.5,8|0,1:1|1:1,0:0:0:0:
52,88,155801,1,8,3:1:0:0:
168,308,156039,1,0,1:1:0:0:
328,96,156277,5,4,3:1:0:0:
136,177,156516,1,0,1:1:0:0:
136,177,156634,1,0,1:1:0:0:
136,177,156754,1,8,3:1:0:0:
309,299,156992,1,0,1:1:0:0:
328,96,157230,2,0,P|280:60|176:67,1,157.5,0|0,3:3|1:1,0:0:0:0:
112,92,157706,1,8,3:1:0:0:
256,192,157944,1,0,1:1:0:0:
100,364,158182,5,0,3:3:0:0:
136,177,158420,1,0,1:1:0:0:
252,308,158658,1,8,3:1:0:0:
252,308,158777,1,0,1:1:0:0:
36,280,159016,1,0,1:1:0:0:
36,280,159135,1,0,3:1:0:0:
176,24,159372,5,8,1:1:0:0:
256,8,159491,1,8,1:1:0:0:
336,24,159610,1,8,1:1:0:0:
428,384,160086,5,4,3:1:0:0:
408,144,160325,1,0,1:1:0:0:
408,144,160444,1,0,1:1:0:0:
408,144,160563,1,8,3:1:0:0:
512,324,160801,1,0,1:1:0:0:
336,352,161039,6,0,P|276:372|176:344,1,157.5,0|0,3:3|1:1,0:0:0:0:
120,312,161515,1,8,3:1:0:0:
188,64,161753,1,0,1:1:0:0:
256,280,161991,5,0,3:3:0:0:
44,192,162229,1,0,1:1:0:0:
256,124,162467,1,8,3:1:0:0:
256,124,162586,1,0,1:1:0:0:
186,351,162825,1,0,1:1:0:0:
186,351,162944,1,0,3:3:0:0:
120,140,163182,6,0,L|128:80,1,52.5,8|0,1:1|1:1,0:0:0:0:
140,8,163420,1,8,3:1:0:0:
104,232,163658,1,0,1:1:0:0:
256,36,163896,5,4,3:1:0:0:
220,260,164134,1,0,1:1:0:0:
336,124,164372,1,8,3:1:0:0:
140,8,164610,1,0,1:1:0:0:
8,308,164848,2,0,P|52:356|152:348,1,157.5,0|0,3:3|1:1,0:0:0:0:
152,348,165325,2,0,L|272:340,1,105,8|0,3:1|1:1,0:0:0:0:
468,320,165801,1,0,3:3:0:0:
468,320,166753,5,0,3:3:0:0:
364,300,166912,1,0,3:3:0:0:
364,300,166991,1,0,3:3:0:0:
392,144,167229,1,0,3:3:0:0:
392,144,167706,6,0,P|320:164|248:124,1,157.500006008148,4|8,3:1|3:1,0:0:0:0:
250,126,168658,1,0,3:3:0:0:
333,153,168896,1,0,1:1:0:0:
333,240,169134,1,8,3:1:0:0:
250,267,169372,1,0,1:1:0:0:
200,197,169610,6,0,P|196:104|240:32,1,157.500006008148,0|8,3:3|3:1,0:0:0:0:
328,12,170325,1,0,1:1:0:0:
424,64,170563,1,0,3:3:0:0:
256,344,171039,5,8,3:1:0:0:
148,368,171277,1,0,1:1:0:0:
56,304,171515,2,0,P|36:216|76:136,1,157.500006008148,0|8,3:3|3:1,0:0:0:0:
59,155,172467,5,0,3:3:0:0:
104,228,172706,1,0,1:1:0:0:
188,248,172944,1,8,3:1:0:0:
256,192,173182,1,0,1:1:0:0:
324,136,173420,2,0,P|408:104|472:124,1,157.500006008148,0|8,3:3|3:1,0:0:0:0:
504,204,174134,1,0,1:1:0:0:
356,252,174372,5,0,3:3:0:0:
412,56,174610,1,0,1:1:0:0:
412,56,174729,1,0,1:1:0:0:
412,56,174848,1,8,3:1:0:0:
448,292,175086,1,0,1:1:0:0:
232,348,175325,6,0,P|166:311|144:232,1,157.500006008148,4|8,3:1|3:1,0:0:0:0:
144,234,176277,1,0,3:3:0:0:
183,312,176515,1,0,1:1:0:0:
122,374,176753,1,8,3:1:0:0:
44,334,176991,1,0,1:1:0:0:
58,249,177229,6,0,P|120:180|202:160,1,157.500006008148,0|8,3:3|3:1,0:0:0:0:
284,176,177944,1,0,1:1:0:0:
252,272,178182,1,0,3:3:0:0:
256,96,178420,1,0,1:1:0:0:
336,248,178658,5,8,3:1:0:0:
176,248,178896,1,0,1:1:0:0:
186,45,179134,2,0,P|247:12|322:45,1,157.500006008148,0|8,3:3|3:1,0:0:0:0:
364,120,179848,1,0,1:1:0:0:
208,248,180086,5,0,3:3:0:0:
256,96,180325,1,0,1:1:0:0:
304,248,180563,1,8,3:1:0:0:
148,120,180801,1,0,1:1:0:0:
322,45,181039,1,4,3:1:0:0:
322,45,181069,1,2,2:2:0:0:
