osu file format v14

[General]
AudioFilename: audio.mp3
AudioLeadIn: 0
PreviewTime: 152467
Countdown: 0
SampleSet: Soft
StackLeniency: 0.4
Mode: 0
LetterboxInBreaks: 0
WidescreenStoryboard: 1

[Editor]
Bookmarks: 30563,106753,121991
DistanceSpacing: 1
BeatDivisor: 1
GridSize: 8
TimelineZoom: 0.8999994

[Metadata]
Title:Aimai Trip (with Momobako & miko)
TitleUnicode:曖昧トリップ (with 桃箱 & miko)
Artist:Yunomi
ArtistUnicode:Yunomi
Creator:Snow Note
Version:Easy
Source:
Tags:7odoa M3 2017 MMBK.COM Alternative ending japanese electronic きあと pop electropop tokyo jpop j-pop electro w/ future bass edm dance music
BeatmapID:3008613
BeatmapSetID:1463819

[Difficulty]
HPDrainRate:2
CircleSize:2
OverallDifficulty:1
ApproachRate:1.2
SliderMultiplier:0.899999999999999
SliderTickRate:1

[Events]
//Background and Video events
0,0,"bg.jpg",0,0
//Break Periods
2,91715,97339
2,106953,112577
//Storyboard Layer 0 (Background)
Sprite,Background,Centre,"SB801.png",320,240 M,0,14853,,316.833,332.635 S,0,14853,,1.079175 F,0,14853,15091,0,1 F,0,15091,60568,1 F,0,60568,60806,1,0 F,0,75806,76044,0,1 F,0,76044,106282,1 F,0,106282,106520,1,0 F,0,121758,121996,0,1 F,0,136282,136520,1,0 F,0,151996,152234,0,1 F,0,167234,167472,1,0
//Storyboard Layer 1 (Fail)
//Storyboard Layer 2 (Pass)
//Storyboard Layer 3 (Foreground)
Sprite,Foreground,TopLeft,"SB01.png",320,420 M,0,14853,15091,-5,430,-5,400 F,0,14853,15091,0,1 M,0,16520,16758,-5,400,-5,370 F,0,16520,16758,1,0
Sprite,Foreground,TopLeft,"SB02.png",320,420 M,0,16758,16996,-5,430,-5,400 F,0,16758,16996,0,1 M,0,18425,18663,-5,400,-5,370 F,0,18425,18663,1,0
Sprite,Foreground,TopLeft,"SB03.png",320,420 M,0,18663,18901,-5,430,-5,400 F,0,18663,18901,0,1 M,0,22235,22473,-5,400,-5,370 F,0,22235,22473,1,0
Sprite,Foreground,TopLeft,"SB04.png",320,420 M,0,22473,22711,-5,430,-5,400 F,0,22473,22711,0,1 M,0,24139,24377,-5,400,-5,370 F,0,24139,24377,1,0
Sprite,Foreground,TopLeft,"SB05.png",320,420 M,0,24377,24615,-5,430,-5,400 F,0,24377,24615,0,1 M,0,26044,26282,-5,400,-5,370 F,0,26044,26282,1,0
Sprite,Foreground,TopLeft,"SB06.png",320,420 M,0,26282,26520,-5,430,-5,400 F,0,26282,26520,0,1 M,0,29854,30092,-5,400,-5,370 F,0,29854,30092,1,0
Sprite,Foreground,TopLeft,"SB07.png",320,420 M,0,30092,30330,-5,430,-5,400 F,0,30092,30330,0,1 M,0,33663,33901,-5,400,-5,370 F,0,33663,33901,1,0
Sprite,Foreground,TopLeft,"SB08.png",320,420 M,0,33901,34139,-5,430,-5,400 F,0,33901,34139,0,1 M,0,37473,37711,-5,400,-5,370 F,0,37473,37711,1,0
Sprite,Foreground,TopLeft,"SB09.png",320,420 M,0,37711,37949,-5,430,-5,400 F,0,37711,37949,0,1 M,0,42235,42473,-5,400,-5,370 F,0,42235,42473,1,0
Sprite,Foreground,TopLeft,"SB10.png",320,420 M,0,42473,42711,-5,430,-5,400 F,0,42473,42711,0,1 M,0,45330,45568,-5,400,-5,370 F,0,45330,45568,1,0
Sprite,Foreground,TopLeft,"SB11.png",320,420 M,0,45568,45806,-5,430,-5,400 F,0,45568,45806,0,1 M,0,48901,49139,-5,400,-5,370 F,0,48901,49139,1,0 M,0,121758,121996,-5,430,-5,400 F,0,121758,121996,0,1 M,0,125092,125330,-5,400,-5,370 F,0,125092,125330,1,0 M,0,151996,152234,-5,430,-5,400 F,0,151996,152234,0,1 M,0,155568,155806,-5,400,-5,370 F,0,155568,155806,1,0
Sprite,Foreground,TopLeft,"SB12.png",320,420 M,0,49139,49377,-5,430,-5,400 F,0,49139,49377,0,1 M,0,52949,53187,-5,400,-5,370 F,0,52949,53187,1,0 M,0,125330,125568,-5,430,-5,400 F,0,125330,125568,0,1 M,0,129139,129377,-5,400,-5,370 F,0,129139,129377,1,0 M,0,155806,156044,-5,430,-5,400 F,0,155806,156044,0,1 M,0,159615,159853,-5,400,-5,370 F,0,159615,159853,1,0
Sprite,Foreground,TopLeft,"SB13.png",320,420 M,0,53187,53425,-5,430,-5,400 F,0,53187,53425,0,1 M,0,56520,56758,-5,400,-5,370 F,0,56520,56758,1,0 M,0,129377,129615,-5,430,-5,400 F,0,129377,129615,0,1 M,0,132711,132949,-5,400,-5,370 F,0,132711,132949,1,0 M,0,159853,160091,-5,430,-5,400 F,0,159853,160091,0,1 M,0,163187,163425,-5,400,-5,370 F,0,163187,163425,1,0
Sprite,Foreground,TopLeft,"SB14.png",320,420 M,0,56758,56996,-5,430,-5,400 F,0,56758,56996,0,1 M,0,58425,58663,-5,400,-5,370 F,0,58425,58663,1,0 M,0,132949,133187,-5,430,-5,400 F,0,132949,133187,0,1 M,0,134854,135092,-5,400,-5,370 F,0,134854,135092,1,0 M,0,163425,163663,-5,430,-5,400 F,0,163425,163663,0,1 M,0,165330,165568,-5,400,-5,370 F,0,165330,165568,1,0
Sprite,Foreground,TopLeft,"SB15.png",320,420 M,0,58663,58901,-5,430,-5,400 F,0,58663,58901,0,1 M,0,60568,60806,-5,400,-5,370 F,0,60568,60806,1,0 M,0,135092,135330,-5,430,-5,400 F,0,135092,135330,0,1 M,0,136282,136520,-5,400,-5,370 F,0,136282,136520,1,0 M,0,165568,165806,-5,430,-5,400 F,0,165568,165806,0,1 M,0,167235,167473,-5,400,-5,370 F,0,167235,167473,1,0
Sprite,Foreground,TopLeft,"SB16.png",320,420 M,0,75806,76044,-5,430,-5,400 F,0,75806,76044,0,1 M,0,77473,77711,-5,400,-5,370 F,0,77473,77711,1,0
Sprite,Foreground,TopLeft,"SB17.png",320,420 M,0,77711,77949,-5,430,-5,400 F,0,77711,77949,0,1 M,0,79377,79615,-5,400,-5,370 F,0,79377,79615,1,0
Sprite,Foreground,TopLeft,"SB18.png",320,420 M,0,79615,79853,-5,430,-5,400 F,0,79615,79853,0,1 M,0,81282,81520,-5,400,-5,370 F,0,81282,81520,1,0
Sprite,Foreground,TopLeft,"SB19.png",320,420 M,0,81520,81758,-5,430,-5,400 F,0,81520,81758,0,1 M,0,83187,83425,-5,400,-5,370 F,0,83187,83425,1,0
Sprite,Foreground,TopLeft,"SB20.png",320,420 M,0,83425,83663,-5,430,-5,400 F,0,83425,83663,0,1 M,0,85092,85330,-5,400,-5,370 F,0,85092,85330,1,0
Sprite,Foreground,TopLeft,"SB21.png",320,420 M,0,85330,85568,-5,430,-5,400 F,0,85330,85568,0,1 M,0,86996,87234,-5,400,-5,370 F,0,86996,87234,1,0
Sprite,Foreground,TopLeft,"SB22.png",320,420 M,0,87234,87472,-5,430,-5,400 F,0,87234,87472,0,1 M,0,88901,89139,-5,400,-5,370 F,0,88901,89139,1,0
Sprite,Foreground,TopLeft,"SB23.png",320,420 M,0,89139,89377,-5,430,-5,400 F,0,89139,89377,0,1 M,0,90806,91044,-5,400,-5,370 F,0,90806,91044,1,0
Sprite,Foreground,TopLeft,"SB24.png",320,420 M,0,91044,91282,-5,430,-5,400 F,0,91044,91282,0,1 M,0,94615,94853,-5,400,-5,370 F,0,94615,94853,1,0
Sprite,Foreground,TopLeft,"SB25.png",320,420 M,0,94853,95091,-5,430,-5,400 F,0,94853,95091,0,1 M,0,98425,98663,-5,400,-5,370 F,0,98425,98663,1,0
Sprite,Foreground,TopLeft,"SB26.png",320,420 M,0,98663,98901,-5,430,-5,400 F,0,98663,98901,0,1 M,0,102235,102473,-5,400,-5,370 F,0,102235,102473,1,0
Sprite,Foreground,TopLeft,"SB27.png",320,420 M,0,102473,102711,-5,430,-5,400 F,0,102473,102711,0,1 M,0,106282,106520,-5,400,-5,370 F,0,106282,106520,1,0
Sprite,Foreground,Centre,"SB-Kuro.jpg",320,240 F,0,-2000,7711,1,0.4394228
Sprite,Foreground,Centre,"SB701.jpg",320,240 F,0,13425,14615,0,1 F,0,14615,15330,1,0 F,0,106758,,0 F,0,106758,114377,0,1 F,0,114377,121044,1 F,0,121044,121996,1,0 F,0,181044,182472,0,1 F,0,182472,182711,1 F,0,182711,182949,1,0
Sprite,Foreground,Centre,"SB-Siro.jpg",320,240 F,0,7711,8187,1,0 F,0,106758,107711,1,0
//Storyboard Layer 4 (Overlay)
//Storyboard Sound Samples

[TimingPoints]
87,476.190476190476,4,2,1,80,1,0
15325,-100,4,2,1,80,0,0
30563,-100,4,2,1,80,0,0
45801,-100,4,2,1,80,0,0
61039,-100,4,2,1,90,0,1
76277,-100,4,2,1,80,0,0
91515,-100,4,2,1,80,0,0
99134,-100,4,2,1,50,0,0
106277,-100,4,2,1,80,0,0
114372,-100,4,2,2,80,0,0
121991,-100,4,2,1,80,0,0
137229,-100,4,2,1,90,0,1
151991,-100,4,2,1,90,0,0
152467,-100,4,2,1,90,0,1
165801,-100,4,2,1,80,0,0
166753,-100,4,2,2,80,0,0
167706,-100,4,2,1,80,0,0

[Colours]
Combo1 : 128,128,255
Combo2 : 255,128,255
Combo3 : 252,131,140
Combo4 : 128,0,255

[HitObjects]
128,192,15325,6,0,P|112:280|176:352,1,180,4|0,3:1|3:3,0:0:0:0:
347,346,17229,2,0,P|400:277|384:192,1,180,0|0,3:3|3:3,0:0:0:0:
256,64,19134,2,0,P|200:40|80:72,2,180,0|0|0,3:3|3:3|3:3,0:0:0:0:
256,248,21991,1,0,3:3:0:0:
128,368,22944,6,0,P|48:336|32:224,1,180,4|0,3:1|3:3,0:0:0:0:
24,160,24372,1,8,3:1:0:0:
24,70,24848,2,0,P|96:38|200:56,1,180,0|0,3:3|3:3,0:0:0:0:
176,232,26753,6,0,P|257:267|336:232,1,180,0|0,3:3|3:3,0:0:0:0:
319,52,28658,1,0,3:3:0:0:
472,144,29610,1,0,3:3:0:0:
344,264,30563,6,0,P|255:282|168:264,2,180,4|0|0,3:1|3:3|3:3,0:0:0:0:
256,104,33420,1,0,3:3:0:0:
168,264,34372,6,0,P|257:282|344:264,2,180,0|0|0,3:3|3:3|3:3,0:0:0:0:
94,211,36753,1,8,3:1:0:0:
59,127,37229,1,0,3:3:0:0:
208,24,38182,6,0,L|208:312,1,270,4|8,3:1|3:1,0:0:0:0:
304,296,40086,2,0,L|304:26,1,270,0|8,3:3|3:1,0:0:0:0:
208,24,41991,5,0,3:3:0:0:
160,200,42944,1,0,3:3:0:0:
352,200,43896,1,0,3:3:0:0:
0,316,45801,5,12,1:1:0:0:
168,372,46753,1,8,1:1:0:0:
344,324,47706,1,8,1:1:0:0:
512,380,48658,1,8,1:1:0:0:
512,208,49610,5,12,1:1:0:0:
344,152,50562,1,8,1:1:0:0:
168,200,51515,1,8,1:1:0:0:
0,145,52467,1,8,1:1:0:0:
128,24,53420,6,0,P|216:32|272:128,1,180,12|8,1:1|1:1,0:0:0:0:
256,192,54848,1,8,1:1:0:0:
243,283,55325,2,0,P|296:352|384:360,1,180,8|8,1:1|1:1,0:0:0:0:
256,192,57229,12,2,59134,2:2:0:0:
40,88,61039,6,0,L|40:312,1,180,4|0,3:1|3:3,0:0:0:0:
128,296,62467,1,8,3:1:0:0:
128,205,62944,2,0,L|128:13,1,180,0|0,3:3|3:3,0:0:0:0:
256,152,64848,6,0,L|256:360,1,180,0|0,3:3|3:3,0:0:0:0:
344,360,66277,1,8,3:1:0:0:
344,269,66754,2,0,L|344:77,1,180,0|0,3:3|3:3,0:0:0:0:
176,24,68658,5,4,3:1:0:0:
128,104,69134,1,8,3:1:0:0:
160,192,69610,1,0,3:3:0:0:
352,192,70563,5,0,3:3:0:0:
384,280,71039,1,8,3:1:0:0:
336,360,71515,1,0,3:3:0:0:
160,368,72467,5,4,3:1:0:0:
112,288,72944,1,8,3:1:0:0:
64,368,73420,1,0,3:3:0:0:
0,208,74372,2,0,P|16:120|96:72,1,180,0|0,3:3|1:1,0:0:0:0:
256,16,76277,5,4,3:1:0:0:
304,192,77229,1,0,3:3:0:0:
256,368,78182,1,0,3:3:0:0:
166,368,78658,1,0,3:3:0:0:
76,368,79134,1,0,3:3:0:0:
40,192,80086,5,0,3:3:0:0:
200,120,81039,1,0,3:3:0:0:
312,264,81991,1,0,3:3:0:0:
401,264,82467,1,0,3:3:0:0:
491,264,82944,1,0,3:3:0:0:
336,168,83896,5,4,3:1:0:0:
256,328,84848,1,0,3:3:0:0:
176,168,85801,1,0,3:3:0:0:
216,88,86277,1,0,3:3:0:0:
256,8,86753,1,0,3:3:0:0:
336,216,87706,5,0,3:3:0:0:
296,296,88182,1,0,3:3:0:0:
256,376,88658,1,0,3:3:0:0:
76,376,89610,6,0,B|48:312|48:312|72:96,1,270,0|0,3:3|3:3,0:0:0:0:
88,24,91515,1,6,2:2:0:0:
208,224,99134,6,0,P|168:272|200:376,1,180,0|0,1:1|1:1,0:0:0:0:
256,304,100563,1,0,1:1:0:0:
312,375,101039,2,0,P|349:297|304:224,1,180,0|0,1:1|1:1,0:0:0:0:
128,192,102944,5,0,1:1:0:0:
256,320,103896,1,0,1:1:0:0:
384,192,104848,2,0,P|376:96|224:48,1,270,0|0,1:1|1:2,0:0:0:0:
160,104,106753,1,6,2:2:0:0:
131,243,114372,5,6,2:2:0:0:
307,316,115325,1,6,2:2:0:0:
380,140,116277,1,6,2:2:0:0:
204,67,117230,1,6,2:2:0:0:
256,144,117706,1,4,2:2:0:0:
307,67,118182,5,6,2:2:0:0:
131,140,119134,1,6,2:2:0:0:
204,316,120086,1,6,2:2:0:0:
380,243,121039,1,6,2:2:0:0:
208,160,121991,6,0,P|168:112|200:8,1,180,12|8,1:1|1:1,0:0:0:0:
256,80,123420,1,8,1:1:0:0:
312,9,123896,2,0,P|349:87|304:160,1,180,8|8,1:1|1:1,0:0:0:0:
312,344,125801,6,0,P|399:357|481:299,1,180,12|8,1:1|1:1,0:0:0:0:
200,344,127706,2,0,P|113:357|31:299,1,180,8|8,1:1|1:1,0:0:0:0:
0,104,129610,5,12,1:1:0:0:
168,32,130563,1,8,1:1:0:0:
336,96,131515,1,8,1:1:0:0:
421,64,131991,1,8,1:1:0:0:
504,24,132468,1,8,1:1:0:0:
488,200,133420,6,0,P|448:312|296:352,1,270,12|8,1:1|1:1,0:0:0:0:
504,64,137229,6,0,P|448:32|304:56,1,180,4|0,3:1|3:3,0:0:0:0:
256,80,138658,1,8,3:1:0:0:
176,37,139134,2,0,P|88:26|8:64,1,180,0|0,3:3|3:3,0:0:0:0:
8,248,141039,6,0,P|64:216|208:240,1,180,0|0,3:3|3:3,0:0:0:0:
256,264,142468,1,8,3:1:0:0:
335,221,142944,2,0,P|423:209|503:247,1,180,0|0,3:3|3:3,0:0:0:0:
384,380,144848,5,4,3:1:0:0:
296,372,145325,1,8,3:1:0:0:
256,292,145801,1,0,3:3:0:0:
352,144,146753,5,0,3:3:0:0:
440,152,147230,1,8,3:1:0:0:
480,232,147706,1,0,3:3:0:0:
312,296,148658,5,0,3:3:0:0:
256,224,149134,1,8,3:1:0:0:
200,296,149611,1,0,3:3:0:0:
170,96,150563,2,0,P|256:72|341:96,1,180,0|0,3:3|1:1,0:0:0:0:
341,287,152467,6,0,P|256:311|170:287,1,180,4|0,3:1|3:3,0:0:0:0:
16,192,154372,1,0,3:3:0:0:
16,104,154848,1,8,3:1:0:0:
16,16,155325,1,0,3:3:0:0:
168,104,156277,6,0,L|168:296,1,180,4|0,3:1|3:3,0:0:0:0:
320,381,158182,1,0,3:3:0:0:
368,301,158658,1,8,3:1:0:0:
320,221,159134,1,0,3:1:0:0:
256,56,160086,6,0,P|320:24|432:56,1,180,4|0,3:1|3:3,0:0:0:0:
464,128,161515,1,8,3:1:0:0:
440,216,161991,2,0,P|376:248|264:216,1,180,0|0,3:3|3:3,0:0:0:0:
256,192,163896,12,0,165801,3:1:0:0:
344,16,167706,6,0,P|288:16|192:104,1,180,4|0,3:1|3:3,0:0:0:0:
365,153,169610,2,0,P|421:153|517:241,1,180,0|0,3:3|3:3,0:0:0:0:
424,376,171515,6,0,P|368:376|312:272,1,180,0|0,3:3|3:3,0:0:0:0:
256,208,172944,1,8,3:1:0:0:
201,278,173420,2,0,P|172:359|88:376,1,180,0|0,3:3|3:3,0:0:0:0:
0,216,175325,5,4,3:1:0:0:
24,40,176277,1,0,3:3:0:0:
88,104,176753,1,8,3:1:0:0:
112,16,177229,1,0,3:3:0:0:
256,120,178182,1,0,3:3:0:0:
168,280,179134,6,0,P|216:352|336:344,1,180,0|0,3:3|3:3,0:0:0:0:
392,336,180563,1,8,3:1:0:0:
447,265,181039,1,4,3:1:0:0:
