osu file format v14

[General]
AudioFilename: audio.mp3
AudioLeadIn: 0
PreviewTime: 106585
Countdown: 0
SampleSet: Soft
StackLeniency: 0.7
Mode: 3
LetterboxInBreaks: 0
SpecialStyle: 0
WidescreenStoryboard: 0

[Editor]
DistanceSpacing: 1
BeatDivisor: 4
GridSize: 32
TimelineZoom: 1

[Metadata]
Title:Robotic Girl (Srav3R Remix)
TitleUnicode:ロボティックガール (Srav3R Remix)
Artist:Yunomi [feat. nicamoq]
ArtistUnicode:Yunomi [feat. nicamoq]
Creator:LeiN-
Version:Invulnerable Heart
Source:
Tags:UK Hardcore きあと Kiato Pop Future Kawaii Mipha- electronic japanese 守崎二花 Nagisa Kitahara 北原凪紗 Morisaki Fuuka 守崎風花 ゆのみ mwc21 mania world cup 2021 mwc 2021 Yunomoq ゆのもきゅ MRCD-001 Miraicha Records 未来茶レコード miphather robotikku gaaru tkrism jumpstream js
BeatmapID:3253211
BeatmapSetID:1592860

[Difficulty]
HPDrainRate:8.5
CircleSize:4
OverallDifficulty:8
ApproachRate:5
SliderMultiplier:1.4
SliderTickRate:1

[Events]
//Background and Video events
0,0,"bg.jpg",0,0
//Break Periods
2,130126,134193
//Storyboard Layer 0 (Background)
//Storyboard Layer 1 (Fail)
//Storyboard Layer 2 (Pass)
//Storyboard Layer 3 (Foreground)
//Storyboard Layer 4 (Overlay)
//Storyboard Sound Samples
Sample,136632,0,"soft-hitwhistle.wav",66
Sample,139455,0,"soft-hitwhistle.wav",66
Sample,140867,0,"soft-hitwhistle.wav",66
Sample,142279,0,"soft-hitwhistle.wav",66
Sample,147926,0,"soft-hitwhistle.wav",66
Sample,152161,0,"soft-hitwhistle.wav",66

[TimingPoints]
44,352.941176470588,4,2,1,66,1,0

[HitObjects]
192,192,44,5,0,0:0:0:0:
192,192,749,1,0,0:0:0:0:
192,192,1455,1,0,0:0:0:0:
192,192,2161,1,0,0:0:0:0:
192,192,2867,1,0,0:0:0:0:
192,192,3220,1,0,0:0:0:0:
192,192,3573,1,0,0:0:0:0:
448,192,3617,1,0,0:0:0:0:
64,192,3714,1,0,0:0:0:0:
320,192,3785,1,0,0:0:0:0:
192,192,3926,1,0,0:0:0:0:
320,192,4014,1,0,0:0:0:0:
192,192,4279,1,0,0:0:0:0:
320,192,4338,1,0,0:0:0:0:
448,192,4396,1,0,0:0:0:0:
192,192,4455,1,0,0:0:0:0:
320,192,4491,1,0,0:0:0:0:
64,192,4561,1,0,0:0:0:0:
192,192,4632,1,0,0:0:0:0:
448,192,4676,1,0,0:0:0:0:
192,192,4808,1,0,0:0:0:0:
192,192,4985,1,0,0:0:0:0:
192,192,5161,1,0,0:0:0:0:
448,192,5338,1,2,0:0:0:0:
64,192,5338,1,8,0:0:0:0:
320,192,5338,1,0,0:0:0:0:
320,192,5691,1,2,0:0:0:0:
64,192,5691,1,4,0:0:0:0:
448,192,5691,1,0,0:0:0:0:
192,192,5867,1,0,0:0:0:0:
320,192,5867,1,0,0:0:0:0:
448,192,6043,1,2,0:0:0:0:
64,192,6043,1,0,0:0:0:0:
192,192,6132,1,0,0:0:0:0:
320,192,6132,1,0,0:0:0:0:
64,192,6308,1,0,0:0:0:0:
192,192,6308,1,0,0:0:0:0:
320,192,6396,1,2,0:0:0:0:
448,192,6396,1,0,0:0:0:0:
64,192,6573,1,0,0:0:0:0:
320,192,6573,1,0,0:0:0:0:
192,192,6749,1,2,0:0:0:0:
64,192,6749,1,0,0:0:0:0:
192,192,6926,1,0,0:0:0:0:
448,192,6926,1,0,0:0:0:0:
64,192,7102,1,2,0:0:0:0:
320,192,7102,1,0,0:0:0:0:
320,192,7279,1,0,0:0:0:0:
192,192,7279,1,0,0:0:0:0:
64,192,7455,1,2,0:0:0:0:
448,192,7455,1,0,0:0:0:0:
192,192,7543,1,0,0:0:0:0:
320,192,7543,1,0,0:0:0:0:
192,192,7720,1,0,0:0:0:0:
64,192,7720,1,0,0:0:0:0:
448,192,7808,1,2,0:0:0:0:
320,192,7808,1,0,0:0:0:0:
64,192,7985,1,0,0:0:0:0:
320,192,7985,1,0,0:0:0:0:
64,192,8161,1,2,0:0:0:0:
192,192,8161,1,0,0:0:0:0:
192,192,8338,1,0,0:0:0:0:
448,192,8338,1,0,0:0:0:0:
64,192,8514,1,2,0:0:0:0:
320,192,8514,1,0,0:0:0:0:
192,192,8691,1,0,0:0:0:0:
320,192,8691,1,0,0:0:0:0:
64,192,8867,1,2,0:0:0:0:
448,192,8867,1,0,0:0:0:0:
192,192,8955,1,0,0:0:0:0:
320,192,8955,1,0,0:0:0:0:
64,192,9132,1,0,0:0:0:0:
192,192,9132,1,0,0:0:0:0:
320,192,9220,1,2,0:0:0:0:
448,192,9220,1,0,0:0:0:0:
64,192,9396,1,0,0:0:0:0:
192,192,9396,1,0,0:0:0:0:
448,192,9485,1,0,0:0:0:0:
320,192,9573,1,2,0:0:0:0:
192,192,9573,1,0,0:0:0:0:
64,192,9749,1,0,0:0:0:0:
448,192,9749,1,0,0:0:0:0:
192,192,9838,1,0,0:0:0:0:
64,192,9926,1,2,0:0:0:0:
320,192,9926,1,0,0:0:0:0:
192,192,10102,1,0,0:0:0:0:
320,192,10102,1,0,0:0:0:0:
64,192,10279,1,2,0:0:0:0:
448,192,10279,1,0,0:0:0:0:
64,192,10455,1,0,0:0:0:0:
192,192,10455,1,0,0:0:0:0:
448,192,10543,1,0,0:0:0:0:
192,192,10632,1,2,0:0:0:0:
320,192,10632,1,0,0:0:0:0:
64,192,10720,1,0,0:0:0:0:
448,192,10720,1,0,0:0:0:0:
320,192,10808,1,0,0:0:0:0:
64,192,10985,1,2,0:0:0:0:
192,192,10985,1,0,0:0:0:0:
192,192,11161,1,0,0:0:0:0:
448,192,11161,1,0,0:0:0:0:
64,192,11338,1,2,0:0:0:0:
320,192,11338,1,4,0:0:0:0:
448,192,11338,1,0,0:0:0:0:
192,192,11514,1,0,0:0:0:0:
320,192,11514,1,0,0:0:0:0:
448,192,11691,1,2,0:0:0:0:
64,192,11691,1,0,0:0:0:0:
192,192,11779,1,0,0:0:0:0:
320,192,11779,1,0,0:0:0:0:
64,192,11955,1,0,0:0:0:0:
192,192,11955,1,0,0:0:0:0:
320,192,12043,1,2,0:0:0:0:
448,192,12043,1,0,0:0:0:0:
64,192,12220,1,0,0:0:0:0:
320,192,12220,1,0,0:0:0:0:
64,192,12396,1,2,0:0:0:0:
192,192,12396,1,0,0:0:0:0:
192,192,12573,1,0,0:0:0:0:
448,192,12573,1,0,0:0:0:0:
64,192,12749,1,2,0:0:0:0:
320,192,12749,1,0,0:0:0:0:
320,192,12926,1,0,0:0:0:0:
192,192,12926,1,0,0:0:0:0:
64,192,13102,1,2,0:0:0:0:
448,192,13102,1,0,0:0:0:0:
320,192,13191,1,0,0:0:0:0:
192,192,13191,1,0,0:0:0:0:
192,192,13367,1,0,0:0:0:0:
64,192,13367,1,0,0:0:0:0:
320,192,13455,1,2,0:0:0:0:
448,192,13455,1,0,0:0:0:0:
64,192,13632,1,0,0:0:0:0:
320,192,13632,1,0,0:0:0:0:
192,192,13808,1,2,0:0:0:0:
64,192,13808,1,0,0:0:0:0:
192,192,13985,1,0,0:0:0:0:
448,192,13985,1,0,0:0:0:0:
64,192,14161,1,2,0:0:0:0:
320,192,14161,1,0,0:0:0:0:
320,192,14338,1,0,0:0:0:0:
192,192,14338,1,0,0:0:0:0:
448,192,14514,1,2,0:0:0:0:
64,192,14514,1,0,0:0:0:0:
192,192,14602,1,0,0:0:0:0:
320,192,14602,1,0,0:0:0:0:
64,192,14779,1,0,0:0:0:0:
192,192,14779,1,0,0:0:0:0:
320,192,14867,1,2,0:0:0:0:
448,192,14867,1,0,0:0:0:0:
192,192,15043,1,0,0:0:0:0:
64,192,15043,1,0,0:0:0:0:
448,192,15132,1,0,0:0:0:0:
320,192,15220,1,2,0:0:0:0:
192,192,15220,1,0,0:0:0:0:
448,192,15396,1,0,0:0:0:0:
64,192,15396,1,0,0:0:0:0:
192,192,15485,1,0,0:0:0:0:
64,192,15573,1,2,0:0:0:0:
320,192,15573,1,0,0:0:0:0:
320,192,15749,1,0,0:0:0:0:
192,192,15749,1,0,0:0:0:0:
448,192,15926,1,2,0:0:0:0:
64,192,15926,1,0,0:0:0:0:
192,192,16102,1,0,0:0:0:0:
320,192,16102,1,0,0:0:0:0:
448,192,16191,1,0,0:0:0:0:
192,192,16279,1,2,0:0:0:0:
64,192,16279,1,0,0:0:0:0:
448,192,16455,1,0,0:0:0:0:
64,192,16455,1,0,0:0:0:0:
192,192,16632,1,0,0:0:0:0:
320,192,16632,1,8,0:0:0:0:
448,192,16632,1,0,0:0:0:0:
320,192,16808,1,0,0:0:0:0:
64,192,16808,1,0,0:0:0:0:
64,192,16985,1,2,0:0:0:0:
192,192,16985,1,4,0:0:0:0:
448,192,16985,1,0,0:0:0:0:
320,192,17161,1,0,0:0:0:0:
192,192,17161,1,0,0:0:0:0:
64,192,17338,1,2,0:0:0:0:
448,192,17338,1,0,0:0:0:0:
320,192,17426,1,0,0:0:0:0:
192,192,17426,1,0,0:0:0:0:
320,192,17602,1,0,0:0:0:0:
448,192,17602,1,0,0:0:0:0:
192,192,17691,1,2,0:0:0:0:
64,192,17691,1,0,0:0:0:0:
448,192,17867,1,0,0:0:0:0:
192,192,17867,1,0,0:0:0:0:
448,192,18043,1,2,0:0:0:0:
320,192,18043,1,0,0:0:0:0:
320,192,18220,1,0,0:0:0:0:
64,192,18220,1,0,0:0:0:0:
448,192,18396,1,2,0:0:0:0:
192,192,18396,1,0,0:0:0:0:
192,192,18573,1,0,0:0:0:0:
320,192,18573,1,0,0:0:0:0:
448,192,18749,1,2,0:0:0:0:
64,192,18749,1,0,0:0:0:0:
192,192,18838,1,0,0:0:0:0:
320,192,18838,1,0,0:0:0:0:
448,192,19014,1,0,0:0:0:0:
320,192,19014,1,0,0:0:0:0:
64,192,19102,1,2,0:0:0:0:
192,192,19102,1,0,0:0:0:0:
448,192,19279,1,0,0:0:0:0:
192,192,19279,1,0,0:0:0:0:
448,192,19455,1,2,0:0:0:0:
320,192,19455,1,0,0:0:0:0:
320,192,19632,1,0,0:0:0:0:
64,192,19632,1,0,0:0:0:0:
448,192,19808,1,2,0:0:0:0:
192,192,19808,1,4,0:0:0:0:
64,192,19808,1,0,0:0:0:0:
320,192,19985,1,0,0:0:0:0:
192,192,19985,1,0,0:0:0:0:
64,192,20161,1,2,0:0:0:0:
448,192,20161,1,0,0:0:0:0:
320,192,20249,1,0,0:0:0:0:
192,192,20249,1,0,0:0:0:0:
320,192,20426,1,0,0:0:0:0:
448,192,20426,1,0,0:0:0:0:
192,192,20514,1,2,0:0:0:0:
64,192,20514,1,0,0:0:0:0:
448,192,20691,1,0,0:0:0:0:
320,192,20691,1,0,0:0:0:0:
64,192,20779,1,0,0:0:0:0:
192,192,20867,1,2,0:0:0:0:
320,192,20867,1,0,0:0:0:0:
64,192,21043,1,0,0:0:0:0:
448,192,21043,1,0,0:0:0:0:
320,192,21132,1,0,0:0:0:0:
448,192,21220,1,2,0:0:0:0:
192,192,21220,1,0,0:0:0:0:
192,192,21396,1,0,0:0:0:0:
320,192,21396,1,0,0:0:0:0:
64,192,21573,1,2,0:0:0:0:
448,192,21573,1,0,0:0:0:0:
448,192,21749,1,0,0:0:0:0:
320,192,21749,1,0,0:0:0:0:
64,192,21838,1,0,0:0:0:0:
192,192,21926,1,2,0:0:0:0:
320,192,21926,1,0,0:0:0:0:
448,192,22014,1,0,0:0:0:0:
64,192,22014,1,0,0:0:0:0:
192,192,22102,1,0,0:0:0:0:
320,192,22279,1,2,0:0:0:0:
448,192,22279,1,0,0:0:0:0:
64,192,22455,1,0,0:0:0:0:
320,192,22455,1,0,0:0:0:0:
448,192,22632,1,2,0:0:0:0:
192,192,22632,1,4,0:0:0:0:
64,192,22632,1,0,0:0:0:0:
192,192,22808,1,0,0:0:0:0:
320,192,22808,1,0,0:0:0:0:
64,192,22985,1,2,0:0:0:0:
448,192,22985,1,0,0:0:0:0:
320,192,23073,1,0,0:0:0:0:
192,192,23073,1,0,0:0:0:0:
448,192,23249,1,0,0:0:0:0:
320,192,23249,1,0,0:0:0:0:
192,192,23338,1,2,0:0:0:0:
64,192,23338,1,0,0:0:0:0:
448,192,23514,1,0,0:0:0:0:
192,192,23514,1,0,0:0:0:0:
448,192,23691,1,2,0:0:0:0:
320,192,23691,1,0,0:0:0:0:
320,192,23867,1,0,0:0:0:0:
64,192,23867,1,0,0:0:0:0:
448,192,24043,1,2,0:0:0:0:
192,192,24043,1,4,0:0:0:0:
64,192,24043,1,0,0:0:0:0:
320,192,24220,1,0,0:0:0:0:
192,192,24220,1,0,0:0:0:0:
448,192,24396,1,2,0:0:0:0:
64,192,24396,1,0,0:0:0:0:
320,192,24485,1,0,0:0:0:0:
192,192,24485,1,0,0:0:0:0:
320,192,24661,1,0,0:0:0:0:
448,192,24661,1,0,0:0:0:0:
192,192,24749,1,2,0:0:0:0:
64,192,24749,1,0,0:0:0:0:
448,192,24926,1,0,0:0:0:0:
192,192,24926,1,0,0:0:0:0:
448,192,25102,1,2,0:0:0:0:
320,192,25102,1,0,0:0:0:0:
320,192,25279,1,0,0:0:0:0:
64,192,25279,1,0,0:0:0:0:
448,192,25455,1,4,0:0:0:0:
192,192,25455,1,2,0:0:0:0:
64,192,25455,1,0,0:0:0:0:
192,192,25632,1,0,0:0:0:0:
320,192,25632,1,0,0:0:0:0:
64,192,25808,1,2,0:0:0:0:
448,192,25808,1,0,0:0:0:0:
320,192,25896,1,0,0:0:0:0:
192,192,25896,1,0,0:0:0:0:
320,192,26073,1,0,0:0:0:0:
192,192,26161,1,2,0:0:0:0:
64,192,26161,1,4,0:0:0:0:
448,192,26161,1,0,0:0:0:0:
64,192,26338,1,0,0:0:0:0:
448,192,26426,1,0,0:0:0:0:
192,192,26514,1,2,0:0:0:0:
320,192,26514,1,0,0:0:0:0:
320,192,26691,1,0,0:0:0:0:
64,192,26691,1,0,0:0:0:0:
448,192,26867,1,0,0:0:0:0:
192,192,26867,1,4,0:0:0:0:
64,192,26955,1,0,0:0:0:0:
192,192,27043,1,0,0:0:0:0:
448,192,27132,1,0,0:0:0:0:
64,192,27220,1,0,0:0:0:0:
192,192,27291,1,0,0:0:0:0:
448,192,27361,1,0,0:0:0:0:
320,192,27432,1,0,0:0:0:0:
64,192,27502,1,0,0:0:0:0:
192,192,27573,1,0,0:0:0:0:
320,192,27661,1,0,0:0:0:0:
192,192,27749,1,0,0:0:0:0:
320,192,27838,1,0,0:0:0:0:
64,192,28102,1,0,0:0:0:0:
448,192,28138,1,0,0:0:0:0:
192,192,28208,1,0,0:0:0:0:
64,192,28279,1,2,0:0:0:0:
320,192,28279,1,4,0:0:0:0:
448,192,28279,1,0,0:0:0:0:
192,192,28367,1,0,0:0:0:0:
320,192,28455,1,0,0:0:0:0:
448,192,28455,1,0,0:0:0:0:
64,192,28543,1,0,0:0:0:0:
192,192,28632,1,2,0:0:0:0:
320,192,28632,1,0,0:0:0:0:
448,192,28720,1,0,0:0:0:0:
64,192,28808,1,0,0:0:0:0:
320,192,28808,1,0,0:0:0:0:
448,192,28896,1,0,0:0:0:0:
64,192,28985,1,2,0:0:0:0:
192,192,28985,1,0,0:0:0:0:
320,192,29073,1,0,0:0:0:0:
192,192,29161,1,0,0:0:0:0:
448,192,29249,1,0,0:0:0:0:
64,192,29249,1,0,0:0:0:0:
320,192,29338,1,2,0:0:0:0:
192,192,29426,1,0,0:0:0:0:
448,192,29514,1,0,0:0:0:0:
320,192,29514,1,0,0:0:0:0:
192,192,29602,1,0,0:0:0:0:
448,192,29691,1,2,0:0:0:0:
64,192,29691,1,0,0:0:0:0:
192,192,29779,1,0,0:0:0:0:
320,192,29867,1,0,0:0:0:0:
448,192,29867,1,0,0:0:0:0:
64,192,29955,1,0,0:0:0:0:
192,192,30043,1,2,0:0:0:0:
320,192,30043,1,0,0:0:0:0:
448,192,30132,1,0,0:0:0:0:
64,192,30220,1,0,0:0:0:0:
320,192,30220,1,0,0:0:0:0:
448,192,30308,1,0,0:0:0:0:
64,192,30396,1,2,0:0:0:0:
192,192,30396,1,0,0:0:0:0:
320,192,30485,1,0,0:0:0:0:
64,192,30573,1,0,0:0:0:0:
448,192,30661,1,0,0:0:0:0:
192,192,30661,1,0,0:0:0:0:
320,192,30749,1,2,0:0:0:0:
192,192,30838,1,0,0:0:0:0:
320,192,30926,1,0,0:0:0:0:
64,192,30926,1,0,0:0:0:0:
448,192,31014,1,0,0:0:0:0:
192,192,31102,1,2,0:0:0:0:
64,192,31102,1,0,0:0:0:0:
320,192,31191,1,0,0:0:0:0:
192,192,31279,1,0,0:0:0:0:
64,192,31279,1,0,0:0:0:0:
448,192,31367,1,0,0:0:0:0:
320,192,31455,1,2,0:0:0:0:
192,192,31455,1,0,0:0:0:0:
64,192,31543,1,0,0:0:0:0:
448,192,31632,1,0,0:0:0:0:
192,192,31632,1,0,0:0:0:0:
64,192,31720,1,0,0:0:0:0:
448,192,31808,1,2,0:0:0:0:
320,192,31808,1,0,0:0:0:0:
192,192,31896,1,0,0:0:0:0:
320,192,31985,1,0,0:0:0:0:
448,192,32073,1,0,0:0:0:0:
64,192,32073,1,0,0:0:0:0:
192,192,32161,1,2,0:0:0:0:
320,192,32249,1,0,0:0:0:0:
64,192,32338,1,0,0:0:0:0:
192,192,32338,1,0,0:0:0:0:
448,192,32426,1,0,0:0:0:0:
320,192,32514,1,2,0:0:0:0:
64,192,32514,1,0,0:0:0:0:
448,192,32602,1,0,0:0:0:0:
192,192,32691,1,0,0:0:0:0:
64,192,32691,1,0,0:0:0:0:
320,192,32779,1,0,0:0:0:0:
448,192,32867,1,2,0:0:0:0:
192,192,32867,1,0,0:0:0:0:
64,192,32955,1,0,0:0:0:0:
320,192,33043,1,0,0:0:0:0:
192,192,33043,1,0,0:0:0:0:
64,192,33132,1,0,0:0:0:0:
448,192,33220,1,2,0:0:0:0:
320,192,33220,1,0,0:0:0:0:
192,192,33308,1,0,0:0:0:0:
448,192,33396,1,0,0:0:0:0:
320,192,33485,1,0,0:0:0:0:
64,192,33485,1,0,0:0:0:0:
448,192,33573,1,2,0:0:0:0:
192,192,33573,1,0,0:0:0:0:
64,192,33749,1,0,0:0:0:0:
320,192,33749,1,0,0:0:0:0:
192,192,33926,1,2,0:0:0:0:
320,192,33926,1,4,0:0:0:0:
448,192,33926,1,0,0:0:0:0:
64,192,34014,1,0,0:0:0:0:
320,192,34102,1,0,0:0:0:0:
448,192,34102,1,0,0:0:0:0:
192,192,34191,1,0,0:0:0:0:
64,192,34279,1,2,0:0:0:0:
448,192,34279,1,0,0:0:0:0:
320,192,34367,1,0,0:0:0:0:
192,192,34455,1,0,0:0:0:0:
448,192,34455,1,0,0:0:0:0:
320,192,34543,1,0,0:0:0:0:
64,192,34632,1,2,0:0:0:0:
192,192,34632,1,0,0:0:0:0:
448,192,34720,1,0,0:0:0:0:
64,192,34808,1,0,0:0:0:0:
192,192,34896,1,0,0:0:0:0:
320,192,34896,1,0,0:0:0:0:
448,192,34985,1,2,0:0:0:0:
64,192,35073,1,0,0:0:0:0:
448,192,35161,1,0,0:0:0:0:
320,192,35161,1,0,0:0:0:0:
192,192,35249,1,0,0:0:0:0:
64,192,35338,1,2,0:0:0:0:
320,192,35338,1,0,0:0:0:0:
192,192,35426,1,0,0:0:0:0:
320,192,35514,1,0,0:0:0:0:
448,192,35514,1,0,0:0:0:0:
64,192,35602,1,0,0:0:0:0:
192,192,35691,1,2,0:0:0:0:
448,192,35691,1,0,0:0:0:0:
320,192,35779,1,0,0:0:0:0:
64,192,35867,1,0,0:0:0:0:
448,192,35867,1,0,0:0:0:0:
320,192,35955,1,0,0:0:0:0:
64,192,36043,1,2,0:0:0:0:
192,192,36043,1,0,0:0:0:0:
448,192,36132,1,0,0:0:0:0:
192,192,36220,1,0,0:0:0:0:
64,192,36308,1,0,0:0:0:0:
320,192,36396,1,2,0:0:0:0:
448,192,36396,1,0,0:0:0:0:
64,192,36485,1,0,0:0:0:0:
448,192,36573,1,0,0:0:0:0:
192,192,36573,1,0,0:0:0:0:
320,192,36661,1,0,0:0:0:0:
192,192,36749,1,2,0:0:0:0:
64,192,36749,1,0,0:0:0:0:
448,192,36838,1,0,0:0:0:0:
192,192,36926,1,0,0:0:0:0:
64,192,36926,1,0,0:0:0:0:
320,192,37014,1,0,0:0:0:0:
448,192,37102,1,2,0:0:0:0:
64,192,37102,1,0,0:0:0:0:
192,192,37191,1,0,0:0:0:0:
320,192,37279,1,0,0:0:0:0:
64,192,37279,1,0,0:0:0:0:
192,192,37367,1,0,0:0:0:0:
448,192,37455,1,2,0:0:0:0:
320,192,37455,1,0,0:0:0:0:
192,192,37543,1,0,0:0:0:0:
320,192,37632,1,0,0:0:0:0:
64,192,37720,1,0,0:0:0:0:
448,192,37808,1,2,0:0:0:0:
192,192,37808,1,0,0:0:0:0:
320,192,37896,1,0,0:0:0:0:
64,192,37985,1,0,0:0:0:0:
192,192,37985,1,0,0:0:0:0:
320,192,38073,1,0,0:0:0:0:
448,192,38161,1,2,0:0:0:0:
64,192,38161,1,0,0:0:0:0:
192,192,38249,1,0,0:0:0:0:
320,192,38338,1,0,0:0:0:0:
448,192,38338,1,0,0:0:0:0:
64,192,38426,1,0,0:0:0:0:
192,192,38514,1,2,0:0:0:0:
320,192,38514,1,0,0:0:0:0:
64,192,38602,1,0,0:0:0:0:
448,192,38691,1,0,0:0:0:0:
320,192,38691,1,0,0:0:0:0:
192,192,38779,1,0,0:0:0:0:
64,192,38867,1,2,0:0:0:0:
448,192,38867,1,0,0:0:0:0:
192,192,38955,1,0,0:0:0:0:
448,192,39043,1,0,0:0:0:0:
320,192,39043,1,0,0:0:0:0:
192,192,39132,1,0,0:0:0:0:
448,192,39220,1,0,0:0:0:0:
64,192,39220,1,8,0:0:0:0:
320,192,39220,1,0,0:0:0:0:
64,192,39573,1,2,0:0:0:0:
320,192,39573,1,4,0:0:0:0:
448,192,39573,1,0,0:0:0:0:
192,192,39661,1,0,0:0:0:0:
320,192,39749,1,0,0:0:0:0:
448,192,39749,1,0,0:0:0:0:
64,192,39838,1,0,0:0:0:0:
192,192,39926,1,2,0:0:0:0:
320,192,39926,1,0,0:0:0:0:
448,192,40014,1,0,0:0:0:0:
64,192,40102,1,0,0:0:0:0:
320,192,40102,1,0,0:0:0:0:
448,192,40191,1,0,0:0:0:0:
64,192,40279,1,2,0:0:0:0:
192,192,40279,1,0,0:0:0:0:
320,192,40367,1,0,0:0:0:0:
192,192,40455,1,0,0:0:0:0:
64,192,40543,1,0,0:0:0:0:
448,192,40543,1,0,0:0:0:0:
320,192,40632,1,2,0:0:0:0:
192,192,40720,1,0,0:0:0:0:
448,192,40808,1,0,0:0:0:0:
320,192,40808,1,0,0:0:0:0:
192,192,40896,1,0,0:0:0:0:
64,192,40985,1,2,0:0:0:0:
448,192,40985,1,0,0:0:0:0:
192,192,41073,1,0,0:0:0:0:
320,192,41161,1,0,0:0:0:0:
448,192,41161,1,0,0:0:0:0:
64,192,41249,1,0,0:0:0:0:
192,192,41338,1,2,0:0:0:0:
320,192,41338,1,0,0:0:0:0:
448,192,41426,1,0,0:0:0:0:
64,192,41514,1,0,0:0:0:0:
320,192,41514,1,0,0:0:0:0:
448,192,41602,1,0,0:0:0:0:
64,192,41691,1,2,0:0:0:0:
192,192,41691,1,0,0:0:0:0:
320,192,41779,1,0,0:0:0:0:
64,192,41867,1,0,0:0:0:0:
448,192,41955,1,0,0:0:0:0:
192,192,41955,1,0,0:0:0:0:
320,192,42043,1,2,0:0:0:0:
192,192,42132,1,0,0:0:0:0:
64,192,42220,1,0,0:0:0:0:
448,192,42220,1,0,0:0:0:0:
320,192,42308,1,0,0:0:0:0:
192,192,42396,1,2,0:0:0:0:
64,192,42396,1,4,0:0:0:0:
448,192,42396,1,0,0:0:0:0:
320,192,42485,1,0,0:0:0:0:
192,192,42573,1,0,0:0:0:0:
64,192,42573,1,0,0:0:0:0:
448,192,42661,1,0,0:0:0:0:
320,192,42749,1,2,0:0:0:0:
192,192,42749,1,0,0:0:0:0:
64,192,42838,1,0,0:0:0:0:
448,192,42926,1,0,0:0:0:0:
192,192,42926,1,0,0:0:0:0:
64,192,43014,1,0,0:0:0:0:
448,192,43102,1,2,0:0:0:0:
320,192,43102,1,0,0:0:0:0:
192,192,43191,1,0,0:0:0:0:
320,192,43279,1,0,0:0:0:0:
448,192,43367,1,0,0:0:0:0:
64,192,43367,1,0,0:0:0:0:
192,192,43455,1,2,0:0:0:0:
320,192,43543,1,0,0:0:0:0:
64,192,43632,1,0,0:0:0:0:
192,192,43632,1,0,0:0:0:0:
448,192,43720,1,0,0:0:0:0:
320,192,43808,1,2,0:0:0:0:
64,192,43808,1,0,0:0:0:0:
448,192,43896,1,0,0:0:0:0:
192,192,43985,1,0,0:0:0:0:
64,192,43985,1,0,0:0:0:0:
320,192,44073,1,0,0:0:0:0:
448,192,44161,1,2,0:0:0:0:
192,192,44161,1,0,0:0:0:0:
64,192,44249,1,0,0:0:0:0:
320,192,44338,1,0,0:0:0:0:
192,192,44338,1,0,0:0:0:0:
64,192,44426,1,0,0:0:0:0:
448,192,44514,1,2,0:0:0:0:
320,192,44514,1,0,0:0:0:0:
192,192,44602,1,0,0:0:0:0:
448,192,44691,1,0,0:0:0:0:
320,192,44779,1,0,0:0:0:0:
64,192,44779,1,0,0:0:0:0:
192,192,44867,1,2,0:0:0:0:
448,192,44867,1,0,0:0:0:0:
320,192,45043,1,0,0:0:0:0:
64,192,45043,1,0,0:0:0:0:
192,192,45220,1,2,0:0:0:0:
320,192,45220,1,4,0:0:0:0:
448,192,45220,1,0,0:0:0:0:
64,192,45308,1,0,0:0:0:0:
320,192,45396,1,0,0:0:0:0:
448,192,45396,1,0,0:0:0:0:
192,192,45485,1,0,0:0:0:0:
64,192,45573,1,2,0:0:0:0:
448,192,45573,1,0,0:0:0:0:
320,192,45661,1,0,0:0:0:0:
192,192,45749,1,0,0:0:0:0:
448,192,45749,1,0,0:0:0:0:
320,192,45838,1,0,0:0:0:0:
64,192,45926,1,2,0:0:0:0:
192,192,45926,1,0,0:0:0:0:
448,192,46014,1,0,0:0:0:0:
64,192,46102,1,0,0:0:0:0:
192,192,46191,1,0,0:0:0:0:
320,192,46191,1,0,0:0:0:0:
448,192,46279,1,2,0:0:0:0:
192,192,46367,1,0,0:0:0:0:
64,192,46455,1,0,0:0:0:0:
320,192,46455,1,0,0:0:0:0:
192,192,46543,1,0,0:0:0:0:
448,192,46632,1,2,0:0:0:0:
64,192,46632,1,4,0:0:0:0:
320,192,46632,1,0,0:0:0:0:
192,192,46720,1,0,0:0:0:0:
320,192,46808,1,0,0:0:0:0:
448,192,46808,1,0,0:0:0:0:
64,192,46896,1,0,0:0:0:0:
192,192,46985,1,2,0:0:0:0:
448,192,46985,1,0,0:0:0:0:
320,192,47073,1,0,0:0:0:0:
64,192,47161,1,0,0:0:0:0:
448,192,47161,1,0,0:0:0:0:
320,192,47249,1,0,0:0:0:0:
64,192,47338,1,2,0:0:0:0:
192,192,47338,1,0,0:0:0:0:
448,192,47426,1,0,0:0:0:0:
192,192,47514,1,0,0:0:0:0:
64,192,47602,1,0,0:0:0:0:
448,192,47691,1,2,0:0:0:0:
320,192,47691,1,0,0:0:0:0:
64,192,47779,1,0,0:0:0:0:
192,192,47867,1,0,0:0:0:0:
320,192,47867,1,0,0:0:0:0:
448,192,47955,1,0,0:0:0:0:
192,192,48043,1,2,0:0:0:0:
64,192,48043,1,4,0:0:0:0:
320,192,48043,1,0,0:0:0:0:
448,192,48132,1,0,0:0:0:0:
192,192,48220,1,0,0:0:0:0:
64,192,48220,1,0,0:0:0:0:
320,192,48308,1,0,0:0:0:0:
448,192,48396,1,2,0:0:0:0:
64,192,48396,1,0,0:0:0:0:
192,192,48485,1,0,0:0:0:0:
448,192,48573,1,0,0:0:0:0:
320,192,48573,1,0,0:0:0:0:
192,192,48661,1,0,0:0:0:0:
448,192,48749,1,2,0:0:0:0:
320,192,48749,1,0,0:0:0:0:
64,192,48749,1,4,0:0:0:0:
192,192,48838,1,0,0:0:0:0:
320,192,48926,1,0,0:0:0:0:
64,192,49014,1,0,0:0:0:0:
448,192,49102,1,2,0:0:0:0:
192,192,49102,1,0,0:0:0:0:
320,192,49191,1,0,0:0:0:0:
64,192,49279,1,0,0:0:0:0:
192,192,49279,1,0,0:0:0:0:
320,192,49367,1,0,0:0:0:0:
448,192,49455,1,4,0:0:0:0:
64,192,49455,1,0,0:0:0:0:
192,192,49455,1,0,0:0:0:0:
320,192,49632,1,0,0:0:0:0:
448,192,49632,1,0,0:0:0:0:
192,192,49808,1,0,0:0:0:0:
320,192,49808,1,0,0:0:0:0:
64,192,49896,1,0,0:0:0:0:
448,192,49985,1,0,0:0:0:0:
320,192,49985,1,0,0:0:0:0:
192,192,50073,1,0,0:0:0:0:
64,192,50161,1,0,0:0:0:0:
448,192,50161,1,0,0:0:0:0:
448,192,50338,1,0,0:0:0:0:
320,192,50338,1,0,0:0:0:0:
192,192,50514,1,0,0:0:0:0:
320,192,50514,1,0,0:0:0:0:
320,192,50691,1,0,0:0:0:0:
64,192,50691,1,0,0:0:0:0:
64,192,50867,1,2,0:0:0:0:
192,192,50867,1,0,0:0:0:0:
448,192,50867,1,0,0:0:0:0:
320,192,51043,1,0,0:0:0:0:
192,192,51132,1,0,0:0:0:0:
448,192,51220,1,0,0:0:0:0:
192,192,51396,1,0,0:0:0:0:
320,192,51485,1,0,0:0:0:0:
448,192,51573,1,0,0:0:0:0:
64,192,51661,1,0,0:0:0:0:
320,192,51749,1,0,0:0:0:0:
448,192,51838,1,0,0:0:0:0:
64,192,52102,1,0,0:0:0:0:
320,192,52279,1,0,0:0:0:0:
448,192,52455,1,0,0:0:0:0:
64,192,52543,1,0,0:0:0:0:
320,192,52632,1,0,0:0:0:0:
192,192,52808,1,0,0:0:0:0:
448,192,52985,1,0,0:0:0:0:
64,192,53073,1,0,0:0:0:0:
192,192,53161,1,0,0:0:0:0:
320,192,53338,1,0,0:0:0:0:
64,192,53514,1,0,0:0:0:0:
192,192,53691,1,0,0:0:0:0:
320,192,53867,1,0,0:0:0:0:
192,192,53955,1,0,0:0:0:0:
448,192,54043,1,0,0:0:0:0:
192,192,54220,1,0,0:0:0:0:
320,192,54308,1,0,0:0:0:0:
448,192,54396,1,0,0:0:0:0:
64,192,54485,1,0,0:0:0:0:
320,192,54573,1,0,0:0:0:0:
448,192,54661,1,0,0:0:0:0:
64,192,54926,1,0,0:0:0:0:
192,192,55102,1,0,0:0:0:0:
192,192,55279,1,0,0:0:0:0:
64,192,55367,1,0,0:0:0:0:
320,192,55455,1,0,0:0:0:0:
320,192,55632,1,0,0:0:0:0:
448,192,55808,1,0,0:0:0:0:
192,192,55896,1,0,0:0:0:0:
320,192,55985,1,0,0:0:0:0:
64,192,56073,1,0,0:0:0:0:
64,192,56338,1,0,0:0:0:0:
192,192,56514,1,0,0:0:0:0:
320,192,56691,1,0,0:0:0:0:
192,192,56779,1,0,0:0:0:0:
448,192,56867,1,0,0:0:0:0:
192,192,57043,1,0,0:0:0:0:
320,192,57132,1,0,0:0:0:0:
448,192,57220,1,0,0:0:0:0:
64,192,57308,1,0,0:0:0:0:
320,192,57396,1,0,0:0:0:0:
448,192,57485,1,0,0:0:0:0:
64,192,57749,1,0,0:0:0:0:
320,192,57926,1,0,0:0:0:0:
448,192,58102,1,0,0:0:0:0:
64,192,58191,1,0,0:0:0:0:
320,192,58279,1,0,0:0:0:0:
192,192,58455,1,0,0:0:0:0:
448,192,58632,1,0,0:0:0:0:
64,192,58720,1,0,0:0:0:0:
192,192,58808,1,0,0:0:0:0:
320,192,58985,1,0,0:0:0:0:
64,192,59161,1,0,0:0:0:0:
192,192,59338,1,0,0:0:0:0:
320,192,59514,1,0,0:0:0:0:
192,192,59602,1,0,0:0:0:0:
448,192,59691,1,0,0:0:0:0:
192,192,59867,1,0,0:0:0:0:
320,192,59955,1,0,0:0:0:0:
448,192,60043,1,0,0:0:0:0:
64,192,60132,1,0,0:0:0:0:
320,192,60220,1,0,0:0:0:0:
448,192,60308,1,0,0:0:0:0:
64,192,60573,1,0,0:0:0:0:
192,192,60749,1,0,0:0:0:0:
192,192,60926,1,0,0:0:0:0:
448,192,61014,1,0,0:0:0:0:
192,192,61102,1,0,0:0:0:0:
192,192,61279,1,0,0:0:0:0:
320,192,61279,1,0,0:0:0:0:
192,192,61455,1,0,0:0:0:0:
448,192,61543,1,0,0:0:0:0:
64,192,61632,1,0,0:0:0:0:
320,192,61808,1,0,0:0:0:0:
64,192,61985,1,0,0:0:0:0:
192,192,61985,1,0,0:0:0:0:
192,192,62161,1,0,0:0:0:0:
448,192,62161,1,0,0:0:0:0:
320,192,62338,1,0,0:0:0:0:
192,192,62426,1,0,0:0:0:0:
448,192,62514,1,0,0:0:0:0:
192,192,62691,1,0,0:0:0:0:
64,192,62691,1,0,0:0:0:0:
320,192,62779,1,0,0:0:0:0:
448,192,62867,1,0,0:0:0:0:
64,192,62955,1,0,0:0:0:0:
320,192,63043,1,0,0:0:0:0:
448,192,63132,1,0,0:0:0:0:
64,192,63396,1,0,0:0:0:0:
192,192,63396,1,0,0:0:0:0:
320,192,63573,1,0,0:0:0:0:
448,192,63573,1,0,0:0:0:0:
320,192,63749,1,0,0:0:0:0:
192,192,63749,1,0,0:0:0:0:
64,192,63838,1,0,0:0:0:0:
320,192,63926,1,0,0:0:0:0:
448,192,63926,1,0,0:0:0:0:
192,192,64102,1,0,0:0:0:0:
320,192,64102,1,0,0:0:0:0:
448,192,64279,1,0,0:0:0:0:
64,192,64367,1,0,0:0:0:0:
192,192,64455,1,0,0:0:0:0:
320,192,64455,1,0,0:0:0:0:
320,192,64632,1,0,0:0:0:0:
64,192,64808,1,0,0:0:0:0:
192,192,64808,1,0,0:0:0:0:
192,192,64985,1,0,0:0:0:0:
448,192,64985,1,0,0:0:0:0:
320,192,65161,1,0,0:0:0:0:
192,192,65249,1,0,0:0:0:0:
448,192,65338,1,0,0:0:0:0:
64,192,65338,1,0,0:0:0:0:
192,192,65514,1,0,0:0:0:0:
320,192,65602,1,0,0:0:0:0:
448,192,65691,1,0,0:0:0:0:
192,192,65691,1,0,0:0:0:0:
64,192,65779,1,0,0:0:0:0:
320,192,65867,1,0,0:0:0:0:
448,192,65955,1,0,0:0:0:0:
64,192,66043,1,0,0:0:0:0:
192,192,66043,1,0,0:0:0:0:
64,192,66220,1,0,0:0:0:0:
320,192,66220,1,0,0:0:0:0:
192,192,66396,1,0,0:0:0:0:
64,192,66396,1,0,0:0:0:0:
192,192,66573,1,0,0:0:0:0:
64,192,66661,1,0,0:0:0:0:
320,192,66749,1,0,0:0:0:0:
320,192,66926,1,0,0:0:0:0:
64,192,66926,1,0,0:0:0:0:
448,192,67102,1,0,0:0:0:0:
192,192,67191,1,0,0:0:0:0:
320,192,67279,1,0,0:0:0:0:
64,192,67367,1,0,0:0:0:0:
64,192,67632,1,0,0:0:0:0:
192,192,67808,1,0,0:0:0:0:
448,192,67808,1,0,0:0:0:0:
320,192,67985,1,0,0:0:0:0:
192,192,68073,1,0,0:0:0:0:
448,192,68161,1,0,0:0:0:0:
192,192,68338,1,0,0:0:0:0:
64,192,68338,1,0,0:0:0:0:
320,192,68426,1,0,0:0:0:0:
448,192,68514,1,0,0:0:0:0:
64,192,68602,1,0,0:0:0:0:
320,192,68691,1,0,0:0:0:0:
448,192,68779,1,0,0:0:0:0:
64,192,69043,1,0,0:0:0:0:
320,192,69043,1,0,0:0:0:0:
320,192,69220,1,0,0:0:0:0:
448,192,69220,1,0,0:0:0:0:
448,192,69396,1,0,0:0:0:0:
192,192,69396,1,0,0:0:0:0:
64,192,69485,1,0,0:0:0:0:
320,192,69573,1,0,0:0:0:0:
448,192,69573,1,0,0:0:0:0:
192,192,69749,1,0,0:0:0:0:
448,192,69749,1,0,0:0:0:0:
320,192,69926,1,0,0:0:0:0:
64,192,70014,1,0,0:0:0:0:
320,192,70102,1,0,0:0:0:0:
448,192,70102,1,0,0:0:0:0:
192,192,70279,1,0,0:0:0:0:
64,192,70455,1,0,0:0:0:0:
320,192,70455,1,0,0:0:0:0:
192,192,70632,1,0,0:0:0:0:
64,192,70632,1,0,0:0:0:0:
320,192,70808,1,0,0:0:0:0:
192,192,70896,1,0,0:0:0:0:
448,192,70985,1,0,0:0:0:0:
64,192,70985,1,0,0:0:0:0:
192,192,71161,1,0,0:0:0:0:
320,192,71249,1,0,0:0:0:0:
448,192,71338,1,0,0:0:0:0:
192,192,71338,1,0,0:0:0:0:
64,192,71426,1,0,0:0:0:0:
320,192,71514,1,0,0:0:0:0:
448,192,71602,1,0,0:0:0:0:
64,192,71691,1,0,0:0:0:0:
192,192,71691,1,0,0:0:0:0:
192,192,71867,1,0,0:0:0:0:
320,192,71867,1,0,0:0:0:0:
64,192,72043,1,0,0:0:0:0:
64,192,72220,1,0,0:0:0:0:
448,192,72308,1,0,0:0:0:0:
64,192,72396,1,0,0:0:0:0:
64,192,72573,1,0,0:0:0:0:
320,192,72573,1,0,0:0:0:0:
64,192,72749,1,0,0:0:0:0:
448,192,72838,1,0,0:0:0:0:
192,192,72926,1,0,0:0:0:0:
64,192,73102,1,0,0:0:0:0:
320,192,73161,1,0,0:0:0:0:
448,192,73220,1,0,0:0:0:0:
64,192,73279,1,0,0:0:0:0:
192,192,73279,1,2,0:0:0:0:
320,192,73367,1,2,0:0:0:0:
192,192,73455,1,2,0:0:0:0:
448,192,73455,1,8,0:0:0:0:
64,192,73455,1,0,0:0:0:0:
448,192,73632,1,0,0:0:0:0:
64,192,73808,1,2,0:0:0:0:
192,192,73808,1,0,0:0:0:0:
448,192,73808,1,0,0:0:0:0:
448,192,73985,1,0,0:0:0:0:
64,192,74161,1,2,0:0:0:0:
192,192,74161,1,0,0:0:0:0:
320,192,74161,1,0,0:0:0:0:
320,192,74338,1,0,0:0:0:0:
64,192,74514,1,2,0:0:0:0:
192,192,74514,1,0,0:0:0:0:
320,192,74514,1,0,0:0:0:0:
320,192,74691,1,0,0:0:0:0:
64,192,74867,1,2,0:0:0:0:
192,192,74867,1,0,0:0:0:0:
448,192,74867,1,0,0:0:0:0:
192,192,75043,1,0,0:0:0:0:
192,192,75220,1,2,0:0:0:0:
64,192,75220,1,0,0:0:0:0:
448,192,75220,1,0,0:0:0:0:
192,192,75396,1,0,0:0:0:0:
64,192,75573,1,2,0:0:0:0:
320,192,75573,1,0,0:0:0:0:
448,192,75573,1,0,0:0:0:0:
64,192,75749,1,0,0:0:0:0:
64,192,75926,1,2,0:0:0:0:
320,192,75926,1,0,0:0:0:0:
448,192,75926,1,0,0:0:0:0:
64,192,76102,1,2,0:0:0:0:
320,192,76102,1,0,0:0:0:0:
192,192,76102,1,0,0:0:0:0:
320,192,76279,1,2,0:0:0:0:
448,192,76279,1,4,0:0:0:0:
192,192,76279,1,0,0:0:0:0:
448,192,76455,1,0,0:0:0:0:
448,192,76632,1,2,0:0:0:0:
320,192,76632,1,0,0:0:0:0:
64,192,76632,1,0,0:0:0:0:
448,192,76808,1,0,0:0:0:0:
320,192,76985,1,2,0:0:0:0:
192,192,76985,1,0,0:0:0:0:
64,192,76985,1,0,0:0:0:0:
320,192,77161,1,0,0:0:0:0:
320,192,77338,1,2,0:0:0:0:
192,192,77338,1,0,0:0:0:0:
64,192,77338,1,0,0:0:0:0:
320,192,77514,1,0,0:0:0:0:
448,192,77691,1,2,0:0:0:0:
192,192,77691,1,0,0:0:0:0:
64,192,77691,1,0,0:0:0:0:
192,192,77867,1,0,0:0:0:0:
192,192,78043,1,2,0:0:0:0:
448,192,78043,1,0,0:0:0:0:
64,192,78043,1,0,0:0:0:0:
192,192,78220,1,0,0:0:0:0:
448,192,78396,1,2,0:0:0:0:
320,192,78396,1,0,0:0:0:0:
64,192,78396,1,0,0:0:0:0:
64,192,78573,1,0,0:0:0:0:
448,192,78661,1,0,0:0:0:0:
320,192,78661,1,2,0:0:0:0:
64,192,78749,1,2,0:0:0:0:
192,192,78749,1,0,0:0:0:0:
448,192,78838,1,2,0:0:0:0:
320,192,78926,1,2,0:0:0:0:
64,192,78985,1,2,0:0:0:0:
448,192,79032,1,2,0:0:0:0:
192,192,79102,1,4,0:0:0:0:
320,192,79102,1,2,0:0:0:0:
64,192,79102,1,0,0:0:0:0:
64,192,79279,1,2,0:0:0:0:
448,192,79279,1,0,0:0:0:0:
192,192,79455,1,2,0:0:0:0:
320,192,79455,1,0,0:0:0:0:
448,192,79455,1,0,0:0:0:0:
192,192,79632,1,2,0:0:0:0:
64,192,79632,1,0,0:0:0:0:
64,192,79808,1,2,0:0:0:0:
320,192,79808,1,0,0:0:0:0:
448,192,79808,1,0,0:0:0:0:
192,192,79985,1,2,0:0:0:0:
320,192,79985,1,0,0:0:0:0:
64,192,80161,1,2,0:0:0:0:
192,192,80161,1,0,0:0:0:0:
448,192,80161,1,0,0:0:0:0:
448,192,80338,1,2,0:0:0:0:
320,192,80338,1,0,0:0:0:0:
192,192,80426,1,2,0:0:0:0:
320,192,80514,1,2,0:0:0:0:
64,192,80514,1,4,0:0:0:0:
448,192,80514,1,0,0:0:0:0:
64,192,80691,1,2,0:0:0:0:
320,192,80691,1,0,0:0:0:0:
192,192,80867,1,2,0:0:0:0:
320,192,80867,1,0,0:0:0:0:
448,192,80867,1,0,0:0:0:0:
64,192,81043,1,2,0:0:0:0:
192,192,81043,1,0,0:0:0:0:
64,192,81220,1,2,0:0:0:0:
448,192,81220,1,0,0:0:0:0:
320,192,81220,1,0,0:0:0:0:
320,192,81396,1,2,0:0:0:0:
192,192,81396,1,0,0:0:0:0:
192,192,81573,1,2,0:0:0:0:
448,192,81573,1,0,0:0:0:0:
320,192,81632,1,2,0:0:0:0:
64,192,81691,1,2,0:0:0:0:
448,192,81749,1,2,0:0:0:0:
192,192,81838,1,2,0:0:0:0:
64,192,81926,1,2,0:0:0:0:
320,192,81926,1,4,0:0:0:0:
448,192,81926,1,0,0:0:0:0:
192,192,82014,1,2,0:0:0:0:
64,192,82102,1,2,0:0:0:0:
320,192,82102,1,0,0:0:0:0:
448,192,82191,1,2,0:0:0:0:
192,192,82279,1,2,0:0:0:0:
320,192,82279,1,0,0:0:0:0:
64,192,82367,1,2,0:0:0:0:
192,192,82455,1,2,0:0:0:0:
448,192,82455,1,0,0:0:0:0:
320,192,82543,1,2,0:0:0:0:
64,192,82632,1,4,0:0:0:0:
448,192,82632,1,2,0:0:0:0:
192,192,82720,1,2,0:0:0:0:
320,192,82808,1,2,0:0:0:0:
64,192,82808,1,0,0:0:0:0:
192,192,82896,1,2,0:0:0:0:
448,192,82985,1,2,0:0:0:0:
64,192,82985,1,0,0:0:0:0:
320,192,83073,1,2,0:0:0:0:
448,192,83161,1,2,0:0:0:0:
192,192,83161,1,0,0:0:0:0:
320,192,83249,1,2,0:0:0:0:
64,192,83338,1,4,0:0:0:0:
448,192,83338,1,0,0:0:0:0:
192,192,83426,1,0,0:0:0:0:
64,192,83514,1,0,0:0:0:0:
320,192,83602,1,0,0:0:0:0:
192,192,83691,1,0,0:0:0:0:
64,192,83761,1,0,0:0:0:0:
320,192,83832,1,0,0:0:0:0:
448,192,83902,1,0,0:0:0:0:
192,192,83973,1,0,0:0:0:0:
64,192,84043,1,0,0:0:0:0:
448,192,84132,1,0,0:0:0:0:
64,192,84220,1,0,0:0:0:0:
448,192,84308,1,0,0:0:0:0:
192,192,84573,1,0,0:0:0:0:
448,192,84608,1,0,0:0:0:0:
64,192,84679,1,0,0:0:0:0:
192,192,84749,1,2,0:0:0:0:
320,192,84749,1,4,0:0:0:0:
448,192,84749,1,0,0:0:0:0:
64,192,84838,1,0,0:0:0:0:
320,192,84926,1,0,0:0:0:0:
448,192,85014,1,0,0:0:0:0:
192,192,85014,1,0,0:0:0:0:
64,192,85102,1,2,0:0:0:0:
320,192,85191,1,0,0:0:0:0:
64,192,85279,1,0,0:0:0:0:
192,192,85279,1,0,0:0:0:0:
448,192,85367,1,0,0:0:0:0:
320,192,85367,1,0,0:0:0:0:
64,192,85455,1,2,0:0:0:0:
192,192,85455,1,0,0:0:0:0:
448,192,85543,1,0,0:0:0:0:
192,192,85632,1,0,0:0:0:0:
320,192,85720,1,0,0:0:0:0:
64,192,85720,1,0,0:0:0:0:
448,192,85808,1,2,0:0:0:0:
320,192,85896,1,0,0:0:0:0:
192,192,85985,1,0,0:0:0:0:
64,192,85985,1,0,0:0:0:0:
448,192,86073,1,0,0:0:0:0:
64,192,86161,1,2,0:0:0:0:
192,192,86161,1,0,0:0:0:0:
320,192,86249,1,0,0:0:0:0:
192,192,86338,1,0,0:0:0:0:
448,192,86338,1,0,0:0:0:0:
320,192,86426,1,0,0:0:0:0:
64,192,86514,1,2,0:0:0:0:
192,192,86514,1,0,0:0:0:0:
448,192,86602,1,0,0:0:0:0:
320,192,86691,1,0,0:0:0:0:
64,192,86691,1,0,0:0:0:0:
448,192,86779,1,0,0:0:0:0:
64,192,86867,1,2,0:0:0:0:
192,192,86867,1,0,0:0:0:0:
320,192,86955,1,0,0:0:0:0:
448,192,87043,1,0,0:0:0:0:
64,192,87132,1,0,0:0:0:0:
192,192,87220,1,2,0:0:0:0:
320,192,87220,1,0,0:0:0:0:
448,192,87308,1,0,0:0:0:0:
320,192,87396,1,0,0:0:0:0:
64,192,87396,1,0,0:0:0:0:
448,192,87485,1,0,0:0:0:0:
192,192,87573,1,2,0:0:0:0:
64,192,87573,1,0,0:0:0:0:
448,192,87661,1,0,0:0:0:0:
192,192,87749,1,0,0:0:0:0:
64,192,87838,1,0,0:0:0:0:
320,192,87838,1,0,0:0:0:0:
448,192,87926,1,2,0:0:0:0:
192,192,88014,1,0,0:0:0:0:
448,192,88102,1,0,0:0:0:0:
320,192,88102,1,0,0:0:0:0:
64,192,88191,1,0,0:0:0:0:
192,192,88191,1,0,0:0:0:0:
448,192,88279,1,2,0:0:0:0:
320,192,88279,1,0,0:0:0:0:
64,192,88367,1,0,0:0:0:0:
320,192,88455,1,0,0:0:0:0:
192,192,88543,1,0,0:0:0:0:
448,192,88543,1,0,0:0:0:0:
64,192,88632,1,2,0:0:0:0:
192,192,88720,1,0,0:0:0:0:
320,192,88808,1,0,0:0:0:0:
448,192,88808,1,0,0:0:0:0:
64,192,88896,1,0,0:0:0:0:
448,192,88985,1,2,0:0:0:0:
320,192,88985,1,0,0:0:0:0:
192,192,89073,1,0,0:0:0:0:
448,192,89161,1,0,0:0:0:0:
64,192,89161,1,0,0:0:0:0:
192,192,89249,1,0,0:0:0:0:
448,192,89338,1,2,0:0:0:0:
320,192,89338,1,0,0:0:0:0:
64,192,89426,1,0,0:0:0:0:
192,192,89514,1,0,0:0:0:0:
320,192,89514,1,0,0:0:0:0:
64,192,89602,1,0,0:0:0:0:
320,192,89691,1,2,0:0:0:0:
448,192,89691,1,0,0:0:0:0:
192,192,89779,1,0,0:0:0:0:
64,192,89867,1,0,0:0:0:0:
448,192,89867,1,0,0:0:0:0:
192,192,89955,1,0,0:0:0:0:
448,192,90043,1,2,0:0:0:0:
64,192,90043,1,0,0:0:0:0:
192,192,90220,1,0,0:0:0:0:
320,192,90220,1,0,0:0:0:0:
448,192,90396,1,2,0:0:0:0:
64,192,90396,1,4,0:0:0:0:
320,192,90396,1,0,0:0:0:0:
192,192,90485,1,0,0:0:0:0:
448,192,90573,1,0,0:0:0:0:
320,192,90661,1,0,0:0:0:0:
64,192,90661,1,0,0:0:0:0:
192,192,90749,1,2,0:0:0:0:
448,192,90838,1,0,0:0:0:0:
64,192,90926,1,0,0:0:0:0:
192,192,90926,1,0,0:0:0:0:
448,192,91014,1,0,0:0:0:0:
320,192,91014,1,0,0:0:0:0:
64,192,91102,1,2,0:0:0:0:
192,192,91102,1,0,0:0:0:0:
320,192,91191,1,0,0:0:0:0:
64,192,91279,1,0,0:0:0:0:
448,192,91367,1,0,0:0:0:0:
192,192,91367,1,0,0:0:0:0:
320,192,91455,1,2,0:0:0:0:
448,192,91543,1,0,0:0:0:0:
64,192,91632,1,0,0:0:0:0:
192,192,91632,1,0,0:0:0:0:
320,192,91720,1,0,0:0:0:0:
64,192,91808,1,2,0:0:0:0:
192,192,91808,1,0,0:0:0:0:
448,192,91896,1,0,0:0:0:0:
192,192,91985,1,0,0:0:0:0:
320,192,91985,1,0,0:0:0:0:
448,192,92073,1,0,0:0:0:0:
64,192,92161,1,2,0:0:0:0:
192,192,92161,1,0,0:0:0:0:
320,192,92249,1,0,0:0:0:0:
448,192,92338,1,0,0:0:0:0:
64,192,92338,1,0,0:0:0:0:
320,192,92426,1,0,0:0:0:0:
64,192,92514,1,2,0:0:0:0:
192,192,92514,1,0,0:0:0:0:
448,192,92602,1,0,0:0:0:0:
320,192,92691,1,0,0:0:0:0:
192,192,92779,1,0,0:0:0:0:
64,192,92867,1,2,0:0:0:0:
448,192,92867,1,0,0:0:0:0:
320,192,92955,1,0,0:0:0:0:
448,192,93043,1,0,0:0:0:0:
192,192,93043,1,0,0:0:0:0:
320,192,93132,1,0,0:0:0:0:
192,192,93220,1,2,0:0:0:0:
64,192,93220,1,0,0:0:0:0:
320,192,93308,1,0,0:0:0:0:
64,192,93396,1,0,0:0:0:0:
192,192,93485,1,0,0:0:0:0:
448,192,93485,1,0,0:0:0:0:
320,192,93573,1,2,0:0:0:0:
64,192,93661,1,0,0:0:0:0:
448,192,93749,1,0,0:0:0:0:
320,192,93749,1,0,0:0:0:0:
64,192,93838,1,0,0:0:0:0:
192,192,93838,1,0,0:0:0:0:
448,192,93926,1,2,0:0:0:0:
320,192,93926,1,0,0:0:0:0:
192,192,94014,1,0,0:0:0:0:
448,192,94102,1,0,0:0:0:0:
64,192,94191,1,0,0:0:0:0:
320,192,94191,1,0,0:0:0:0:
192,192,94279,1,2,0:0:0:0:
64,192,94367,1,0,0:0:0:0:
448,192,94455,1,0,0:0:0:0:
320,192,94455,1,0,0:0:0:0:
192,192,94543,1,0,0:0:0:0:
448,192,94632,1,2,0:0:0:0:
64,192,94632,1,0,0:0:0:0:
192,192,94720,1,0,0:0:0:0:
448,192,94808,1,0,0:0:0:0:
320,192,94808,1,0,0:0:0:0:
64,192,94896,1,0,0:0:0:0:
192,192,94985,1,2,0:0:0:0:
320,192,94985,1,0,0:0:0:0:
64,192,95073,1,0,0:0:0:0:
448,192,95161,1,0,0:0:0:0:
320,192,95161,1,0,0:0:0:0:
192,192,95249,1,0,0:0:0:0:
64,192,95338,1,2,0:0:0:0:
448,192,95338,1,0,0:0:0:0:
192,192,95426,1,0,0:0:0:0:
448,192,95514,1,0,0:0:0:0:
320,192,95514,1,0,0:0:0:0:
64,192,95602,1,0,0:0:0:0:
192,192,95691,1,0,0:0:0:0:
448,192,95691,1,8,0:0:0:0:
320,192,95691,1,0,0:0:0:0:
448,192,96043,1,4,0:0:0:0:
320,192,96043,1,2,0:0:0:0:
192,192,96043,1,0,0:0:0:0:
64,192,96132,1,0,0:0:0:0:
320,192,96220,1,0,0:0:0:0:
192,192,96308,1,0,0:0:0:0:
448,192,96308,1,0,0:0:0:0:
64,192,96396,1,2,0:0:0:0:
320,192,96485,1,0,0:0:0:0:
192,192,96573,1,0,0:0:0:0:
64,192,96573,1,0,0:0:0:0:
320,192,96661,1,0,0:0:0:0:
448,192,96661,1,0,0:0:0:0:
192,192,96749,1,2,0:0:0:0:
64,192,96749,1,0,0:0:0:0:
448,192,96838,1,0,0:0:0:0:
192,192,96926,1,0,0:0:0:0:
64,192,97014,1,0,0:0:0:0:
320,192,97014,1,0,0:0:0:0:
448,192,97102,1,2,0:0:0:0:
320,192,97191,1,0,0:0:0:0:
64,192,97279,1,0,0:0:0:0:
192,192,97279,1,0,0:0:0:0:
448,192,97367,1,0,0:0:0:0:
192,192,97455,1,2,0:0:0:0:
64,192,97455,1,0,0:0:0:0:
320,192,97543,1,0,0:0:0:0:
448,192,97632,1,0,0:0:0:0:
192,192,97632,1,0,0:0:0:0:
320,192,97720,1,0,0:0:0:0:
192,192,97808,1,2,0:0:0:0:
64,192,97808,1,0,0:0:0:0:
448,192,97896,1,0,0:0:0:0:
64,192,97985,1,0,0:0:0:0:
320,192,97985,1,0,0:0:0:0:
448,192,98073,1,0,0:0:0:0:
192,192,98161,1,2,0:0:0:0:
64,192,98161,1,0,0:0:0:0:
320,192,98249,1,0,0:0:0:0:
448,192,98338,1,0,0:0:0:0:
64,192,98426,1,0,0:0:0:0:
320,192,98514,1,2,0:0:0:0:
192,192,98514,1,0,0:0:0:0:
448,192,98602,1,0,0:0:0:0:
64,192,98691,1,0,0:0:0:0:
192,192,98691,1,0,0:0:0:0:
320,192,98779,1,0,0:0:0:0:
448,192,98867,1,2,0:0:0:0:
64,192,98867,1,4,0:0:0:0:
192,192,98867,1,0,0:0:0:0:
320,192,98955,1,0,0:0:0:0:
192,192,99043,1,0,0:0:0:0:
320,192,99132,1,0,0:0:0:0:
448,192,99220,1,2,0:0:0:0:
192,192,99308,1,0,0:0:0:0:
320,192,99396,1,0,0:0:0:0:
192,192,99485,1,0,0:0:0:0:
320,192,99573,1,2,0:0:0:0:
64,192,99661,1,0,0:0:0:0:
448,192,99749,1,0,0:0:0:0:
192,192,99749,1,0,0:0:0:0:
320,192,99838,1,0,0:0:0:0:
192,192,99926,1,2,0:0:0:0:
64,192,99926,1,0,0:0:0:0:
448,192,100014,1,0,0:0:0:0:
192,192,100102,1,0,0:0:0:0:
320,192,100102,1,0,0:0:0:0:
64,192,100191,1,0,0:0:0:0:
320,192,100279,1,2,0:0:0:0:
448,192,100279,1,0,0:0:0:0:
192,192,100367,1,0,0:0:0:0:
64,192,100455,1,0,0:0:0:0:
448,192,100455,1,0,0:0:0:0:
192,192,100543,1,0,0:0:0:0:
320,192,100632,1,2,0:0:0:0:
64,192,100720,1,0,0:0:0:0:
448,192,100808,1,0,0:0:0:0:
192,192,100808,1,0,0:0:0:0:
64,192,100896,1,0,0:0:0:0:
320,192,100985,1,2,0:0:0:0:
192,192,101073,1,0,0:0:0:0:
64,192,101161,1,0,0:0:0:0:
448,192,101161,1,0,0:0:0:0:
320,192,101249,1,0,0:0:0:0:
64,192,101338,1,2,0:0:0:0:
192,192,101338,1,0,0:0:0:0:
448,192,101426,1,0,0:0:0:0:
320,192,101514,1,0,0:0:0:0:
192,192,101514,1,0,0:0:0:0:
64,192,101602,1,0,0:0:0:0:
320,192,101691,1,2,0:0:0:0:
448,192,101691,1,4,0:0:0:0:
192,192,101691,1,0,0:0:0:0:
64,192,101779,1,0,0:0:0:0:
320,192,101867,1,0,0:0:0:0:
448,192,101867,1,0,0:0:0:0:
192,192,101955,1,0,0:0:0:0:
64,192,101955,1,0,0:0:0:0:
448,192,102043,1,2,0:0:0:0:
320,192,102132,1,0,0:0:0:0:
192,192,102220,1,0,0:0:0:0:
64,192,102220,1,0,0:0:0:0:
448,192,102308,1,0,0:0:0:0:
320,192,102308,1,0,0:0:0:0:
192,192,102396,1,2,0:0:0:0:
64,192,102396,1,0,0:0:0:0:
448,192,102485,1,0,0:0:0:0:
192,192,102573,1,0,0:0:0:0:
64,192,102661,1,0,0:0:0:0:
320,192,102749,1,2,0:0:0:0:
448,192,102749,1,0,0:0:0:0:
192,192,102838,1,0,0:0:0:0:
64,192,102926,1,0,0:0:0:0:
320,192,102926,1,0,0:0:0:0:
448,192,103014,1,0,0:0:0:0:
192,192,103102,1,4,0:0:0:0:
64,192,103102,1,2,0:0:0:0:
320,192,103191,1,0,0:0:0:0:
192,192,103279,1,0,0:0:0:0:
448,192,103279,1,0,0:0:0:0:
320,192,103367,1,0,0:0:0:0:
64,192,103455,1,2,0:0:0:0:
448,192,103543,1,0,0:0:0:0:
192,192,103632,1,0,0:0:0:0:
320,192,103632,1,0,0:0:0:0:
448,192,103720,1,0,0:0:0:0:
192,192,103808,1,2,0:0:0:0:
64,192,103808,1,0,0:0:0:0:
320,192,103896,1,0,0:0:0:0:
448,192,103985,1,0,0:0:0:0:
64,192,104073,1,0,0:0:0:0:
320,192,104161,1,2,0:0:0:0:
192,192,104161,1,0,0:0:0:0:
448,192,104249,1,0,0:0:0:0:
64,192,104338,1,0,0:0:0:0:
320,192,104338,1,0,0:0:0:0:
448,192,104426,1,0,0:0:0:0:
64,192,104514,1,2,0:0:0:0:
192,192,104514,1,4,0:0:0:0:
320,192,104602,1,0,0:0:0:0:
192,192,104691,1,0,0:0:0:0:
320,192,104779,1,0,0:0:0:0:
448,192,104867,1,2,0:0:0:0:
192,192,104955,1,0,0:0:0:0:
320,192,105043,1,0,0:0:0:0:
448,192,105043,1,0,0:0:0:0:
192,192,105132,1,0,0:0:0:0:
64,192,105132,1,0,0:0:0:0:
320,192,105220,1,2,0:0:0:0:
448,192,105220,1,4,0:0:0:0:
64,192,105308,1,0,0:0:0:0:
320,192,105396,1,0,0:0:0:0:
64,192,105485,1,0,0:0:0:0:
192,192,105573,1,2,0:0:0:0:
448,192,105661,1,0,0:0:0:0:
64,192,105749,1,0,0:0:0:0:
192,192,105749,1,0,0:0:0:0:
320,192,105838,1,0,0:0:0:0:
64,192,105926,1,4,0:0:0:0:
448,192,105926,1,0,0:0:0:0:
192,192,106014,1,0,0:0:0:0:
64,192,106102,1,0,0:0:0:0:
448,192,106191,1,0,0:0:0:0:
192,192,106279,1,0,0:0:0:0:
64,192,106349,1,0,0:0:0:0:
320,192,106420,1,0,0:0:0:0:
448,192,106491,1,0,0:0:0:0:
192,192,106561,1,0,0:0:0:0:
64,192,106632,1,0,0:0:0:0:
320,192,106720,1,0,0:0:0:0:
64,192,106808,1,0,0:0:0:0:
320,192,106896,1,0,0:0:0:0:
64,192,107161,1,0,0:0:0:0:
448,192,107196,1,0,0:0:0:0:
192,192,107267,1,0,0:0:0:0:
64,192,107338,1,4,0:0:0:0:
320,192,107338,1,2,0:0:0:0:
448,192,107338,1,0,0:0:0:0:
192,192,107426,1,0,0:0:0:0:
320,192,107514,1,0,0:0:0:0:
448,192,107514,1,0,0:0:0:0:
192,192,107602,1,0,0:0:0:0:
64,192,107691,1,2,0:0:0:0:
320,192,107691,1,0,0:0:0:0:
448,192,107779,1,0,0:0:0:0:
64,192,107867,1,0,0:0:0:0:
192,192,107867,1,0,0:0:0:0:
448,192,107955,1,0,0:0:0:0:
320,192,108043,1,2,0:0:0:0:
192,192,108043,1,0,0:0:0:0:
64,192,108132,1,0,0:0:0:0:
448,192,108220,1,0,0:0:0:0:
192,192,108220,1,0,0:0:0:0:
64,192,108308,1,0,0:0:0:0:
320,192,108396,1,2,0:0:0:0:
448,192,108396,1,0,0:0:0:0:
192,192,108485,1,0,0:0:0:0:
64,192,108573,1,0,0:0:0:0:
320,192,108573,1,0,0:0:0:0:
448,192,108661,1,0,0:0:0:0:
192,192,108749,1,2,0:0:0:0:
448,192,108838,1,0,0:0:0:0:
64,192,108926,1,0,0:0:0:0:
192,192,108926,1,0,0:0:0:0:
320,192,109014,1,0,0:0:0:0:
64,192,109102,1,2,0:0:0:0:
192,192,109102,1,0,0:0:0:0:
320,192,109191,1,0,0:0:0:0:
64,192,109279,1,0,0:0:0:0:
448,192,109279,1,0,0:0:0:0:
320,192,109367,1,0,0:0:0:0:
192,192,109367,1,0,0:0:0:0:
448,192,109455,1,2,0:0:0:0:
64,192,109543,1,0,0:0:0:0:
192,192,109632,1,0,0:0:0:0:
448,192,109720,1,0,0:0:0:0:
320,192,109808,1,2,0:0:0:0:
64,192,109808,1,0,0:0:0:0:
192,192,109896,1,0,0:0:0:0:
448,192,109985,1,0,0:0:0:0:
320,192,109985,1,0,0:0:0:0:
64,192,110073,1,0,0:0:0:0:
320,192,110161,1,2,0:0:0:0:
192,192,110161,1,0,0:0:0:0:
448,192,110249,1,0,0:0:0:0:
64,192,110338,1,0,0:0:0:0:
448,192,110426,1,0,0:0:0:0:
320,192,110514,1,2,0:0:0:0:
64,192,110514,1,0,0:0:0:0:
192,192,110602,1,0,0:0:0:0:
448,192,110691,1,0,0:0:0:0:
320,192,110691,1,0,0:0:0:0:
64,192,110779,1,0,0:0:0:0:
192,192,110867,1,2,0:0:0:0:
320,192,110867,1,0,0:0:0:0:
448,192,110955,1,0,0:0:0:0:
64,192,111043,1,0,0:0:0:0:
448,192,111132,1,0,0:0:0:0:
320,192,111220,1,2,0:0:0:0:
64,192,111220,1,0,0:0:0:0:
192,192,111308,1,0,0:0:0:0:
64,192,111396,1,0,0:0:0:0:
448,192,111396,1,0,0:0:0:0:
192,192,111485,1,0,0:0:0:0:
448,192,111573,1,2,0:0:0:0:
320,192,111573,1,0,0:0:0:0:
64,192,111661,1,0,0:0:0:0:
192,192,111749,1,0,0:0:0:0:
320,192,111749,1,0,0:0:0:0:
64,192,111838,1,0,0:0:0:0:
320,192,111926,1,2,0:0:0:0:
448,192,111926,1,0,0:0:0:0:
192,192,112014,1,0,0:0:0:0:
64,192,112102,1,0,0:0:0:0:
448,192,112102,1,0,0:0:0:0:
192,192,112191,1,0,0:0:0:0:
320,192,112279,1,2,0:0:0:0:
448,192,112279,1,0,0:0:0:0:
64,192,112367,1,0,0:0:0:0:
192,192,112455,1,0,0:0:0:0:
320,192,112543,1,0,0:0:0:0:
448,192,112543,1,0,0:0:0:0:
64,192,112632,1,2,0:0:0:0:
192,192,112632,1,0,0:0:0:0:
448,192,112808,1,0,0:0:0:0:
320,192,112808,1,0,0:0:0:0:
448,192,112985,1,2,0:0:0:0:
192,192,112985,1,4,0:0:0:0:
64,192,112985,1,0,0:0:0:0:
320,192,113073,1,0,0:0:0:0:
192,192,113161,1,0,0:0:0:0:
64,192,113161,1,0,0:0:0:0:
320,192,113249,1,0,0:0:0:0:
448,192,113338,1,2,0:0:0:0:
192,192,113338,1,0,0:0:0:0:
64,192,113426,1,0,0:0:0:0:
448,192,113514,1,0,0:0:0:0:
320,192,113514,1,0,0:0:0:0:
64,192,113602,1,0,0:0:0:0:
320,192,113691,1,2,0:0:0:0:
192,192,113691,1,0,0:0:0:0:
448,192,113779,1,0,0:0:0:0:
320,192,113867,1,0,0:0:0:0:
64,192,113867,1,0,0:0:0:0:
448,192,113955,1,0,0:0:0:0:
192,192,114043,1,2,0:0:0:0:
64,192,114043,1,0,0:0:0:0:
320,192,114132,1,0,0:0:0:0:
448,192,114220,1,0,0:0:0:0:
192,192,114220,1,0,0:0:0:0:
64,192,114308,1,0,0:0:0:0:
320,192,114396,1,2,0:0:0:0:
64,192,114485,1,0,0:0:0:0:
320,192,114573,1,0,0:0:0:0:
448,192,114573,1,0,0:0:0:0:
192,192,114661,1,0,0:0:0:0:
448,192,114749,1,2,0:0:0:0:
320,192,114749,1,0,0:0:0:0:
192,192,114838,1,0,0:0:0:0:
64,192,114926,1,0,0:0:0:0:
448,192,114926,1,0,0:0:0:0:
192,192,115014,1,0,0:0:0:0:
320,192,115014,1,0,0:0:0:0:
64,192,115102,1,2,0:0:0:0:
320,192,115191,1,0,0:0:0:0:
448,192,115279,1,0,0:0:0:0:
64,192,115367,1,0,0:0:0:0:
320,192,115455,1,2,0:0:0:0:
192,192,115455,1,0,0:0:0:0:
448,192,115543,1,0,0:0:0:0:
192,192,115632,1,0,0:0:0:0:
64,192,115632,1,0,0:0:0:0:
320,192,115720,1,0,0:0:0:0:
448,192,115808,1,2,0:0:0:0:
192,192,115808,1,0,0:0:0:0:
64,192,115896,1,0,0:0:0:0:
448,192,115985,1,0,0:0:0:0:
64,192,116073,5,0,0:0:0:0:
192,192,116161,1,2,0:0:0:0:
320,192,116161,1,0,0:0:0:0:
448,192,116249,1,0,0:0:0:0:
320,192,116338,1,0,0:0:0:0:
64,192,116426,1,0,0:0:0:0:
448,192,116514,1,2,0:0:0:0:
192,192,116514,1,0,0:0:0:0:
320,192,116602,1,0,0:0:0:0:
192,192,116691,1,0,0:0:0:0:
320,192,116779,1,0,0:0:0:0:
448,192,116867,1,2,0:0:0:0:
64,192,116867,1,0,0:0:0:0:
192,192,116955,1,0,0:0:0:0:
64,192,117043,1,0,0:0:0:0:
320,192,117132,1,0,0:0:0:0:
448,192,117220,1,2,0:0:0:0:
192,192,117220,1,0,0:0:0:0:
64,192,117308,1,0,0:0:0:0:
320,192,117396,1,0,0:0:0:0:
448,192,117396,1,0,0:0:0:0:
192,192,117485,1,0,0:0:0:0:
64,192,117573,1,2,0:0:0:0:
320,192,117573,1,0,0:0:0:0:
192,192,117661,1,0,0:0:0:0:
448,192,117749,1,0,0:0:0:0:
320,192,117749,1,0,0:0:0:0:
64,192,117838,1,0,0:0:0:0:
192,192,117926,1,2,0:0:0:0:
448,192,117926,1,0,0:0:0:0:
64,192,118014,1,0,0:0:0:0:
448,192,118102,1,0,0:0:0:0:
320,192,118102,1,0,0:0:0:0:
64,192,118191,1,0,0:0:0:0:
448,192,118279,1,8,0:0:0:0:
192,192,118279,1,0,0:0:0:0:
320,192,118279,1,0,0:0:0:0:
64,192,118632,1,2,0:0:0:0:
320,192,118632,1,4,0:0:0:0:
448,192,118632,1,0,0:0:0:0:
192,192,118720,1,0,0:0:0:0:
320,192,118808,1,0,0:0:0:0:
448,192,118808,1,0,0:0:0:0:
192,192,118896,1,0,0:0:0:0:
64,192,118985,1,2,0:0:0:0:
320,192,118985,1,0,0:0:0:0:
448,192,119073,1,0,0:0:0:0:
64,192,119161,1,0,0:0:0:0:
192,192,119161,1,0,0:0:0:0:
448,192,119249,1,0,0:0:0:0:
320,192,119338,1,2,0:0:0:0:
192,192,119338,1,0,0:0:0:0:
64,192,119426,1,0,0:0:0:0:
448,192,119514,1,0,0:0:0:0:
192,192,119514,1,0,0:0:0:0:
64,192,119602,1,0,0:0:0:0:
320,192,119691,1,2,0:0:0:0:
448,192,119691,1,0,0:0:0:0:
192,192,119779,1,0,0:0:0:0:
64,192,119867,1,0,0:0:0:0:
320,192,119867,1,0,0:0:0:0:
448,192,119955,1,0,0:0:0:0:
192,192,120043,1,2,0:0:0:0:
448,192,120132,1,0,0:0:0:0:
192,192,120220,1,0,0:0:0:0:
64,192,120220,1,0,0:0:0:0:
320,192,120308,1,0,0:0:0:0:
64,192,120396,1,2,0:0:0:0:
192,192,120396,1,0,0:0:0:0:
320,192,120485,1,0,0:0:0:0:
64,192,120573,1,0,0:0:0:0:
448,192,120573,1,0,0:0:0:0:
320,192,120661,1,0,0:0:0:0:
192,192,120661,1,0,0:0:0:0:
448,192,120749,1,2,0:0:0:0:
64,192,120838,1,0,0:0:0:0:
192,192,120926,1,0,0:0:0:0:
448,192,121014,1,0,0:0:0:0:
320,192,121102,1,2,0:0:0:0:
64,192,121102,1,0,0:0:0:0:
192,192,121191,1,0,0:0:0:0:
448,192,121279,1,0,0:0:0:0:
320,192,121279,1,0,0:0:0:0:
64,192,121367,1,0,0:0:0:0:
320,192,121455,1,4,0:0:0:0:
192,192,121455,1,2,0:0:0:0:
448,192,121543,1,0,0:0:0:0:
64,192,121632,1,0,0:0:0:0:
448,192,121720,1,0,0:0:0:0:
320,192,121808,1,2,0:0:0:0:
64,192,121808,1,0,0:0:0:0:
192,192,121896,1,0,0:0:0:0:
448,192,121985,1,0,0:0:0:0:
320,192,121985,1,0,0:0:0:0:
64,192,122073,1,0,0:0:0:0:
192,192,122161,1,2,0:0:0:0:
320,192,122161,1,0,0:0:0:0:
448,192,122249,1,0,0:0:0:0:
192,192,122338,1,0,0:0:0:0:
64,192,122338,1,0,0:0:0:0:
448,192,122426,1,0,0:0:0:0:
320,192,122426,1,0,0:0:0:0:
192,192,122514,1,2,0:0:0:0:
64,192,122514,1,0,0:0:0:0:
448,192,122602,1,0,0:0:0:0:
64,192,122691,1,0,0:0:0:0:
320,192,122691,1,0,0:0:0:0:
192,192,122779,1,0,0:0:0:0:
320,192,122867,1,2,0:0:0:0:
448,192,122867,1,0,0:0:0:0:
64,192,122955,1,0,0:0:0:0:
192,192,123043,1,0,0:0:0:0:
448,192,123043,1,0,0:0:0:0:
64,192,123132,1,0,0:0:0:0:
448,192,123220,1,2,0:0:0:0:
192,192,123220,1,0,0:0:0:0:
320,192,123308,1,0,0:0:0:0:
64,192,123396,1,0,0:0:0:0:
192,192,123396,1,0,0:0:0:0:
320,192,123485,1,0,0:0:0:0:
448,192,123485,1,0,0:0:0:0:
64,192,123573,1,2,0:0:0:0:
192,192,123573,1,0,0:0:0:0:
448,192,123661,1,0,0:0:0:0:
320,192,123749,1,0,0:0:0:0:
64,192,123749,1,0,0:0:0:0:
192,192,123838,1,0,0:0:0:0:
448,192,123926,1,2,0:0:0:0:
320,192,123926,1,0,0:0:0:0:
192,192,124102,1,0,0:0:0:0:
320,192,124102,1,0,0:0:0:0:
448,192,124279,1,2,0:0:0:0:
192,192,124279,1,4,0:0:0:0:
64,192,124279,1,0,0:0:0:0:
320,192,124367,1,0,0:0:0:0:
192,192,124455,1,0,0:0:0:0:
64,192,124455,1,0,0:0:0:0:
320,192,124543,1,0,0:0:0:0:
448,192,124632,1,2,0:0:0:0:
192,192,124632,1,0,0:0:0:0:
64,192,124720,1,0,0:0:0:0:
448,192,124808,1,0,0:0:0:0:
320,192,124808,1,0,0:0:0:0:
64,192,124896,1,0,0:0:0:0:
320,192,124985,1,2,0:0:0:0:
192,192,124985,1,0,0:0:0:0:
448,192,125073,1,0,0:0:0:0:
320,192,125161,1,0,0:0:0:0:
64,192,125161,1,0,0:0:0:0:
448,192,125249,1,0,0:0:0:0:
192,192,125338,1,2,0:0:0:0:
64,192,125338,1,0,0:0:0:0:
320,192,125426,1,0,0:0:0:0:
192,192,125514,1,0,0:0:0:0:
448,192,125514,1,0,0:0:0:0:
64,192,125602,1,0,0:0:0:0:
448,192,125691,1,2,0:0:0:0:
320,192,125691,1,4,0:0:0:0:
64,192,125779,1,0,0:0:0:0:
192,192,125867,1,0,0:0:0:0:
448,192,125867,1,0,0:0:0:0:
320,192,125955,1,0,0:0:0:0:
64,192,126043,1,2,0:0:0:0:
192,192,126043,1,0,0:0:0:0:
320,192,126132,1,0,0:0:0:0:
448,192,126132,1,0,0:0:0:0:
64,192,126220,1,0,0:0:0:0:
192,192,126220,1,0,0:0:0:0:
448,192,126308,1,0,0:0:0:0:
64,192,126396,1,2,0:0:0:0:
320,192,126396,1,0,0:0:0:0:
192,192,126485,1,0,0:0:0:0:
320,192,126573,1,0,0:0:0:0:
448,192,126573,1,0,0:0:0:0:
64,192,126661,1,0,0:0:0:0:
320,192,126749,1,2,0:0:0:0:
192,192,126749,1,0,0:0:0:0:
448,192,126838,1,0,0:0:0:0:
192,192,126926,1,0,0:0:0:0:
64,192,126926,1,0,0:0:0:0:
320,192,127014,1,0,0:0:0:0:
448,192,127102,1,2,0:0:0:0:
64,192,127102,1,4,0:0:0:0:
192,192,127191,1,0,0:0:0:0:
320,192,127279,1,0,0:0:0:0:
64,192,127367,1,0,0:0:0:0:
448,192,127455,1,2,0:0:0:0:
192,192,127455,1,0,0:0:0:0:
320,192,127543,1,0,0:0:0:0:
64,192,127632,1,0,0:0:0:0:
192,192,127632,1,0,0:0:0:0:
448,192,127720,1,0,0:0:0:0:
320,192,127720,1,0,0:0:0:0:
192,192,127808,1,4,0:0:0:0:
64,192,127808,1,2,0:0:0:0:
448,192,127896,1,0,0:0:0:0:
64,192,127985,1,0,0:0:0:0:
320,192,127985,1,0,0:0:0:0:
192,192,128073,1,0,0:0:0:0:
448,192,128161,1,2,0:0:0:0:
320,192,128161,1,0,0:0:0:0:
192,192,128249,1,0,0:0:0:0:
64,192,128338,1,0,0:0:0:0:
448,192,128338,1,0,0:0:0:0:
320,192,128426,1,0,0:0:0:0:
192,192,128426,1,0,0:0:0:0:
64,192,128514,1,4,0:0:0:0:
64,192,128691,1,0,0:0:0:0:
320,192,128867,1,0,0:0:0:0:
192,192,128955,1,0,0:0:0:0:
64,192,129043,1,0,0:0:0:0:
320,192,129132,1,0,0:0:0:0:
192,192,129220,1,0,0:0:0:0:
448,192,129220,1,0,0:0:0:0:
448,192,129396,1,0,0:0:0:0:
320,192,129396,1,0,0:0:0:0:
320,192,129573,1,0,0:0:0:0:
64,192,129573,1,0,0:0:0:0:
192,192,129749,1,0,0:0:0:0:
64,192,129926,1,2,0:0:0:0:
448,192,129926,1,4,0:0:0:0:
320,192,129926,1,0,0:0:0:0:
64,192,135396,5,0,0:0:0:0:
192,192,135396,1,0,0:0:0:0:
192,192,135573,1,2,0:0:0:0:
448,192,135573,1,0,0:0:0:0:
320,192,135749,1,0,0:0:0:0:
192,192,135838,1,0,0:0:0:0:
448,192,135926,1,2,0:0:0:0:
64,192,135926,1,0,0:0:0:0:
192,192,136102,1,0,0:0:0:0:
320,192,136191,1,0,0:0:0:0:
448,192,136279,1,2,0:0:0:0:
192,192,136279,1,0,0:0:0:0:
64,192,136367,1,0,0:0:0:0:
320,192,136455,1,0,0:0:0:0:
448,192,136543,1,0,0:0:0:0:
64,192,136543,1,0,0:0:0:0:
64,192,136808,1,0,0:0:0:0:
192,192,136808,1,0,0:0:0:0:
320,192,136985,1,2,0:0:0:0:
448,192,137161,1,0,0:0:0:0:
192,192,137161,1,0,0:0:0:0:
64,192,137249,1,0,0:0:0:0:
320,192,137338,1,2,0:0:0:0:
448,192,137338,1,0,0:0:0:0:
192,192,137514,1,0,0:0:0:0:
448,192,137514,1,0,0:0:0:0:
448,192,137691,1,2,0:0:0:0:
320,192,137691,1,0,0:0:0:0:
64,192,137779,1,0,0:0:0:0:
192,192,137867,1,0,0:0:0:0:
320,192,138043,1,2,0:0:0:0:
64,192,138220,1,0,0:0:0:0:
192,192,138396,1,2,0:0:0:0:
448,192,138396,1,0,0:0:0:0:
320,192,138573,1,0,0:0:0:0:
64,192,138661,1,0,0:0:0:0:
448,192,138749,1,2,0:0:0:0:
192,192,138749,1,0,0:0:0:0:
192,192,138926,1,0,0:0:0:0:
64,192,138926,1,0,0:0:0:0:
320,192,139014,1,0,0:0:0:0:
448,192,139102,1,2,0:0:0:0:
192,192,139102,1,0,0:0:0:0:
64,192,139191,1,0,0:0:0:0:
320,192,139279,1,0,0:0:0:0:
448,192,139367,1,0,0:0:0:0:
192,192,139367,1,0,0:0:0:0:
64,192,139632,1,0,0:0:0:0:
448,192,139632,1,0,0:0:0:0:
192,192,139808,1,2,0:0:0:0:
192,192,139985,1,0,0:0:0:0:
448,192,139985,1,0,0:0:0:0:
64,192,140073,1,0,0:0:0:0:
320,192,140161,1,2,0:0:0:0:
448,192,140161,1,0,0:0:0:0:
320,192,140338,1,0,0:0:0:0:
192,192,140338,1,0,0:0:0:0:
448,192,140514,1,2,0:0:0:0:
64,192,140514,1,0,0:0:0:0:
192,192,140602,1,0,0:0:0:0:
320,192,140691,1,0,0:0:0:0:
64,192,140779,1,0,0:0:0:0:
64,192,141043,1,0,0:0:0:0:
192,192,141220,1,2,0:0:0:0:
448,192,141220,1,0,0:0:0:0:
320,192,141396,1,0,0:0:0:0:
192,192,141485,1,0,0:0:0:0:
448,192,141573,1,2,0:0:0:0:
64,192,141573,1,0,0:0:0:0:
192,192,141749,1,0,0:0:0:0:
320,192,141838,1,0,0:0:0:0:
448,192,141926,1,2,0:0:0:0:
192,192,141926,1,0,0:0:0:0:
64,192,142014,1,0,0:0:0:0:
320,192,142102,1,0,0:0:0:0:
448,192,142191,1,0,0:0:0:0:
64,192,142191,1,0,0:0:0:0:
64,192,142455,1,0,0:0:0:0:
192,192,142455,1,0,0:0:0:0:
320,192,142632,1,2,0:0:0:0:
448,192,142808,1,0,0:0:0:0:
192,192,142808,1,0,0:0:0:0:
64,192,142896,1,0,0:0:0:0:
320,192,142985,1,2,0:0:0:0:
448,192,142985,1,0,0:0:0:0:
192,192,143161,1,0,0:0:0:0:
448,192,143161,1,0,0:0:0:0:
448,192,143338,1,2,0:0:0:0:
320,192,143338,1,0,0:0:0:0:
64,192,143426,1,0,0:0:0:0:
192,192,143514,1,0,0:0:0:0:
320,192,143691,1,2,0:0:0:0:
448,192,143691,1,0,0:0:0:0:
64,192,143867,1,0,0:0:0:0:
192,192,143867,1,0,0:0:0:0:
192,192,144043,1,2,0:0:0:0:
448,192,144043,1,0,0:0:0:0:
320,192,144220,1,0,0:0:0:0:
192,192,144308,1,0,0:0:0:0:
448,192,144396,1,2,0:0:0:0:
320,192,144396,1,0,0:0:0:0:
192,192,144573,1,0,0:0:0:0:
64,192,144573,1,0,0:0:0:0:
320,192,144661,1,0,0:0:0:0:
448,192,144749,1,2,0:0:0:0:
192,192,144749,1,0,0:0:0:0:
64,192,144838,1,0,0:0:0:0:
320,192,144926,1,0,0:0:0:0:
448,192,145014,1,0,0:0:0:0:
64,192,145102,1,2,0:0:0:0:
192,192,145102,1,0,0:0:0:0:
64,192,145279,1,0,0:0:0:0:
448,192,145279,1,0,0:0:0:0:
192,192,145455,1,2,0:0:0:0:
320,192,145455,1,0,0:0:0:0:
192,192,145632,1,0,0:0:0:0:
64,192,145632,1,0,0:0:0:0:
448,192,145720,1,0,0:0:0:0:
192,192,145808,1,2,0:0:0:0:
320,192,145808,1,0,0:0:0:0:
192,192,145985,1,0,0:0:0:0:
64,192,145985,1,0,0:0:0:0:
192,192,146161,1,2,0:0:0:0:
448,192,146161,1,0,0:0:0:0:
320,192,146249,1,0,0:0:0:0:
64,192,146338,1,0,0:0:0:0:
320,192,146514,1,2,0:0:0:0:
192,192,146514,1,0,0:0:0:0:
320,192,146691,1,0,0:0:0:0:
192,192,146867,1,2,0:0:0:0:
448,192,146867,1,4,0:0:0:0:
64,192,146867,1,0,0:0:0:0:
320,192,147043,1,0,0:0:0:0:
192,192,147132,1,0,0:0:0:0:
448,192,147220,1,2,0:0:0:0:
192,192,147396,1,0,0:0:0:0:
64,192,147396,1,0,0:0:0:0:
320,192,147485,1,0,0:0:0:0:
448,192,147573,1,2,0:0:0:0:
64,192,147661,1,0,0:0:0:0:
320,192,147749,1,0,0:0:0:0:
448,192,147838,1,0,0:0:0:0:
64,192,148102,1,0,0:0:0:0:
192,192,148102,1,0,0:0:0:0:
320,192,148279,1,2,0:0:0:0:
448,192,148279,1,0,0:0:0:0:
448,192,148455,1,0,0:0:0:0:
192,192,148455,1,0,0:0:0:0:
64,192,148543,1,0,0:0:0:0:
320,192,148632,1,2,0:0:0:0:
448,192,148632,1,0,0:0:0:0:
192,192,148808,1,0,0:0:0:0:
448,192,148808,1,0,0:0:0:0:
320,192,148985,1,2,0:0:0:0:
64,192,149073,1,0,0:0:0:0:
192,192,149161,1,0,0:0:0:0:
448,192,149161,1,0,0:0:0:0:
320,192,149338,1,2,0:0:0:0:
64,192,149514,1,0,0:0:0:0:
192,192,149514,1,0,0:0:0:0:
192,192,149691,1,2,0:0:0:0:
448,192,149691,1,0,0:0:0:0:
320,192,149867,1,0,0:0:0:0:
192,192,149955,1,0,0:0:0:0:
448,192,150043,1,2,0:0:0:0:
64,192,150043,1,0,0:0:0:0:
192,192,150220,1,0,0:0:0:0:
320,192,150308,1,0,0:0:0:0:
448,192,150396,1,2,0:0:0:0:
192,192,150396,1,0,0:0:0:0:
64,192,150485,1,0,0:0:0:0:
320,192,150573,1,0,0:0:0:0:
448,192,150661,1,0,0:0:0:0:
64,192,150749,1,2,0:0:0:0:
192,192,150749,1,0,0:0:0:0:
64,192,150926,1,0,0:0:0:0:
320,192,150926,1,0,0:0:0:0:
192,192,151102,1,2,0:0:0:0:
64,192,151102,1,0,0:0:0:0:
192,192,151279,1,0,0:0:0:0:
64,192,151367,1,0,0:0:0:0:
320,192,151455,1,2,0:0:0:0:
320,192,151632,1,0,0:0:0:0:
192,192,151632,1,0,0:0:0:0:
448,192,151808,1,2,0:0:0:0:
192,192,151896,1,0,0:0:0:0:
320,192,151985,1,0,0:0:0:0:
64,192,152073,1,0,0:0:0:0:
64,192,152338,1,0,0:0:0:0:
192,192,152514,1,2,0:0:0:0:
448,192,152514,1,0,0:0:0:0:
320,192,152691,1,0,0:0:0:0:
192,192,152779,1,0,0:0:0:0:
448,192,152867,1,2,0:0:0:0:
64,192,152867,1,0,0:0:0:0:
192,192,153043,1,0,0:0:0:0:
320,192,153132,1,0,0:0:0:0:
448,192,153220,1,2,0:0:0:0:
192,192,153220,1,0,0:0:0:0:
64,192,153308,1,0,0:0:0:0:
320,192,153396,1,0,0:0:0:0:
448,192,153485,1,0,0:0:0:0:
64,192,153573,1,2,0:0:0:0:
192,192,153573,1,0,0:0:0:0:
64,192,153749,1,0,0:0:0:0:
448,192,153749,1,0,0:0:0:0:
320,192,153926,1,2,0:0:0:0:
192,192,153926,1,0,0:0:0:0:
448,192,154102,1,0,0:0:0:0:
64,192,154191,1,0,0:0:0:0:
320,192,154279,1,2,0:0:0:0:
192,192,154455,1,0,0:0:0:0:
64,192,154455,1,0,0:0:0:0:
448,192,154632,1,2,0:0:0:0:
64,192,154720,1,0,0:0:0:0:
192,192,154808,1,0,0:0:0:0:
320,192,154808,1,0,0:0:0:0:
320,192,154985,1,2,0:0:0:0:
64,192,155161,1,0,0:0:0:0:
192,192,155338,1,2,0:0:0:0:
448,192,155338,1,0,0:0:0:0:
320,192,155514,1,0,0:0:0:0:
192,192,155602,1,0,0:0:0:0:
448,192,155691,1,2,0:0:0:0:
64,192,155691,1,0,0:0:0:0:
192,192,155867,1,0,0:0:0:0:
320,192,155955,1,0,0:0:0:0:
448,192,156043,1,2,0:0:0:0:
192,192,156043,1,0,0:0:0:0:
64,192,156132,1,0,0:0:0:0:
320,192,156220,1,0,0:0:0:0:
448,192,156308,1,0,0:0:0:0:
192,192,156396,1,2,0:0:0:0:
64,192,156396,1,0,0:0:0:0:
64,192,156573,1,0,0:0:0:0:
320,192,156573,1,0,0:0:0:0:
192,192,156749,1,2,0:0:0:0:
448,192,156749,1,0,0:0:0:0:
192,192,156926,1,0,0:0:0:0:
448,192,157014,1,0,0:0:0:0:
192,192,157102,1,2,0:0:0:0:
192,192,157279,1,0,0:0:0:0:
320,192,157279,1,0,0:0:0:0:
192,192,157455,1,2,0:0:0:0:
448,192,157543,1,0,0:0:0:0:
64,192,157632,1,0,0:0:0:0:
320,192,157632,1,0,0:0:0:0:
320,192,157808,1,0,0:0:0:0:
192,192,157808,1,8,0:0:0:0:
448,192,157808,1,0,0:0:0:0:
64,192,158161,128,2,158867:0:0:0:0:
192,192,158161,128,8,158867:0:0:0:0:
320,192,158161,128,4,158867:0:0:0:0:
64,192,159396,128,2,159926:0:0:0:0:
320,192,159396,128,8,159926:0:0:0:0:
448,192,159396,128,4,159926:0:0:0:0:
192,192,160102,128,8,160808:0:0:0:0:
320,192,160102,128,4,160808:0:0:0:0:
448,192,160102,128,2,160808:0:0:0:0:
64,192,160985,128,2,161691:0:0:0:0:
192,192,160985,128,8,161691:0:0:0:0:
320,192,160985,128,4,161691:0:0:0:0:
64,192,162220,128,2,162749:0:0:0:0:
192,192,162220,128,8,162749:0:0:0:0:
448,192,162220,128,4,162749:0:0:0:0:
192,192,162926,128,4,163367:0:0:0:0:
320,192,162926,128,2,163367:0:0:0:0:
448,192,162926,128,8,163367:0:0:0:0:
64,192,163455,128,8,163720:0:0:0:0:
320,192,163455,128,4,163720:0:0:0:0:
448,192,163455,128,2,163720:0:0:0:0:
64,192,163808,128,2,164514:0:0:0:0:
192,192,163808,128,8,164514:0:0:0:0:
320,192,163808,128,4,164514:0:0:0:0:
64,192,165043,128,2,165573:0:0:0:0:
320,192,165043,128,8,165573:0:0:0:0:
448,192,165043,128,4,165573:0:0:0:0:
192,192,165749,128,4,166455:0:0:0:0:
320,192,165749,128,8,166455:0:0:0:0:
448,192,165749,128,2,166455:0:0:0:0:
64,192,166632,128,4,167338:0:0:0:0:
192,192,166632,128,8,167338:0:0:0:0:
320,192,166632,128,2,167338:0:0:0:0:
64,192,167867,128,2,168396:0:0:0:0:
192,192,167867,128,8,168396:0:0:0:0:
448,192,167867,128,4,168396:0:0:0:0:
192,192,168573,128,4,169014:0:0:0:0:
320,192,168573,128,2,169014:0:0:0:0:
448,192,168573,128,8,169014:0:0:0:0:
448,192,169102,1,10,0:0:0:0:
320,192,169102,1,4,0:0:0:0:
64,192,169161,1,2,0:0:0:0:
192,192,169220,1,2,0:0:0:0:
448,192,169279,1,2,0:0:0:0:
64,192,169367,1,2,0:0:0:0:
192,192,169455,1,4,0:0:0:0:
448,192,169455,1,2,0:0:0:0:
320,192,169455,1,8,0:0:0:0:
192,192,169632,1,0,0:0:0:0:
320,192,169808,1,2,0:0:0:0:
448,192,169808,1,0,0:0:0:0:
64,192,169808,1,0,0:0:0:0:
448,192,169985,1,0,0:0:0:0:
320,192,170161,1,2,0:0:0:0:
192,192,170161,1,0,0:0:0:0:
64,192,170161,1,0,0:0:0:0:
64,192,170338,1,0,0:0:0:0:
448,192,170514,1,2,0:0:0:0:
192,192,170514,1,0,0:0:0:0:
320,192,170514,1,0,0:0:0:0:
320,192,170691,1,0,0:0:0:0:
448,192,170867,1,2,0:0:0:0:
192,192,170867,1,0,0:0:0:0:
64,192,170867,1,0,0:0:0:0:
448,192,171043,1,0,0:0:0:0:
320,192,171220,1,2,0:0:0:0:
64,192,171220,1,0,0:0:0:0:
192,192,171220,1,0,0:0:0:0:
192,192,171396,1,0,0:0:0:0:
448,192,171573,1,2,0:0:0:0:
320,192,171573,1,0,0:0:0:0:
64,192,171573,1,0,0:0:0:0:
64,192,171749,1,0,0:0:0:0:
448,192,171926,1,2,0:0:0:0:
192,192,171926,1,0,0:0:0:0:
320,192,171926,1,0,0:0:0:0:
448,192,172102,1,2,0:0:0:0:
320,192,172102,1,0,0:0:0:0:
64,192,172102,1,0,0:0:0:0:
64,192,172279,1,4,0:0:0:0:
192,192,172279,1,2,0:0:0:0:
320,192,172279,1,0,0:0:0:0:
192,192,172455,1,0,0:0:0:0:
64,192,172632,1,2,0:0:0:0:
320,192,172632,1,0,0:0:0:0:
448,192,172632,1,0,0:0:0:0:
448,192,172808,1,0,0:0:0:0:
64,192,172985,1,2,0:0:0:0:
192,192,172985,1,0,0:0:0:0:
320,192,172985,1,0,0:0:0:0:
64,192,173161,1,0,0:0:0:0:
448,192,173338,1,2,0:0:0:0:
192,192,173338,1,0,0:0:0:0:
320,192,173338,1,0,0:0:0:0:
320,192,173514,1,0,0:0:0:0:
64,192,173691,1,2,0:0:0:0:
192,192,173691,1,0,0:0:0:0:
448,192,173691,1,0,0:0:0:0:
64,192,173867,1,0,0:0:0:0:
448,192,174043,1,2,0:0:0:0:
320,192,174043,1,0,0:0:0:0:
192,192,174043,1,0,0:0:0:0:
320,192,174220,1,0,0:0:0:0:
448,192,174396,1,2,0:0:0:0:
192,192,174396,1,0,0:0:0:0:
64,192,174396,1,0,0:0:0:0:
448,192,174573,1,0,0:0:0:0:
192,192,174661,1,2,0:0:0:0:
64,192,174661,1,0,0:0:0:0:
320,192,174749,1,2,0:0:0:0:
448,192,174749,1,0,0:0:0:0:
64,192,174838,1,2,0:0:0:0:
192,192,174926,1,2,0:0:0:0:
448,192,174985,1,2,0:0:0:0:
64,192,175043,1,2,0:0:0:0:
448,192,175102,1,2,0:0:0:0:
192,192,175102,1,4,0:0:0:0:
320,192,175102,1,0,0:0:0:0:
64,192,175279,1,2,0:0:0:0:
448,192,175279,1,0,0:0:0:0:
64,192,175455,1,2,0:0:0:0:
192,192,175455,1,0,0:0:0:0:
320,192,175455,1,0,0:0:0:0:
448,192,175632,1,2,0:0:0:0:
320,192,175632,1,0,0:0:0:0:
64,192,175808,1,2,0:0:0:0:
192,192,175808,1,0,0:0:0:0:
448,192,175808,1,0,0:0:0:0:
192,192,175985,1,2,0:0:0:0:
320,192,175985,1,0,0:0:0:0:
64,192,176161,1,2,0:0:0:0:
320,192,176161,1,0,0:0:0:0:
448,192,176161,1,0,0:0:0:0:
192,192,176338,1,2,0:0:0:0:
64,192,176338,1,0,0:0:0:0:
320,192,176426,1,2,0:0:0:0:
64,192,176514,1,2,0:0:0:0:
448,192,176514,1,4,0:0:0:0:
192,192,176514,1,0,0:0:0:0:
192,192,176691,1,2,0:0:0:0:
448,192,176691,1,0,0:0:0:0:
64,192,176867,1,2,0:0:0:0:
192,192,176867,1,0,0:0:0:0:
320,192,176867,1,0,0:0:0:0:
320,192,177043,1,2,0:0:0:0:
448,192,177043,1,0,0:0:0:0:
192,192,177220,1,2,0:0:0:0:
64,192,177220,1,0,0:0:0:0:
448,192,177220,1,0,0:0:0:0:
320,192,177396,1,2,0:0:0:0:
192,192,177396,1,0,0:0:0:0:
64,192,177573,1,2,0:0:0:0:
320,192,177573,1,0,0:0:0:0:
192,192,177632,1,2,0:0:0:0:
448,192,177691,1,2,0:0:0:0:
64,192,177749,1,2,0:0:0:0:
320,192,177838,1,2,0:0:0:0:
64,192,177926,1,4,0:0:0:0:
192,192,177926,1,2,0:0:0:0:
448,192,177926,1,0,0:0:0:0:
320,192,178014,1,2,0:0:0:0:
192,192,178102,1,2,0:0:0:0:
448,192,178102,1,0,0:0:0:0:
64,192,178191,1,2,0:0:0:0:
192,192,178279,1,2,0:0:0:0:
320,192,178279,1,0,0:0:0:0:
448,192,178367,1,2,0:0:0:0:
64,192,178455,1,2,0:0:0:0:
320,192,178455,1,0,0:0:0:0:
192,192,178543,1,2,0:0:0:0:
64,192,178632,1,4,0:0:0:0:
448,192,178632,1,2,0:0:0:0:
320,192,178720,1,2,0:0:0:0:
448,192,178808,1,2,0:0:0:0:
192,192,178808,1,0,0:0:0:0:
320,192,178896,1,2,0:0:0:0:
448,192,178985,1,2,0:0:0:0:
64,192,178985,1,0,0:0:0:0:
192,192,179073,1,2,0:0:0:0:
320,192,179161,1,2,0:0:0:0:
64,192,179161,1,0,0:0:0:0:
192,192,179249,1,2,0:0:0:0:
64,192,179338,1,4,0:0:0:0:
448,192,179338,1,0,0:0:0:0:
320,192,179426,1,0,0:0:0:0:
448,192,179514,1,0,0:0:0:0:
192,192,179602,1,0,0:0:0:0:
320,192,179691,1,0,0:0:0:0:
448,192,179761,1,0,0:0:0:0:
192,192,179832,1,0,0:0:0:0:
64,192,179902,1,0,0:0:0:0:
448,192,179973,1,0,0:0:0:0:
320,192,180043,1,0,0:0:0:0:
192,192,180132,1,0,0:0:0:0:
320,192,180220,1,0,0:0:0:0:
192,192,180308,1,0,0:0:0:0:
64,192,180573,1,0,0:0:0:0:
320,192,180608,1,0,0:0:0:0:
192,192,180679,1,0,0:0:0:0:
64,192,180749,1,4,0:0:0:0:
320,192,180749,1,2,0:0:0:0:
448,192,180749,1,0,0:0:0:0:
192,192,180838,1,0,0:0:0:0:
320,192,180926,1,0,0:0:0:0:
448,192,180926,1,0,0:0:0:0:
192,192,181014,1,0,0:0:0:0:
64,192,181102,1,2,0:0:0:0:
448,192,181102,1,0,0:0:0:0:
320,192,181191,1,0,0:0:0:0:
64,192,181279,1,0,0:0:0:0:
192,192,181279,1,0,0:0:0:0:
320,192,181367,1,0,0:0:0:0:
448,192,181455,1,2,0:0:0:0:
192,192,181455,1,0,0:0:0:0:
64,192,181543,1,0,0:0:0:0:
320,192,181632,1,0,0:0:0:0:
192,192,181632,1,0,0:0:0:0:
64,192,181720,1,0,0:0:0:0:
320,192,181808,1,2,0:0:0:0:
448,192,181808,1,0,0:0:0:0:
64,192,181896,1,0,0:0:0:0:
192,192,181985,1,0,0:0:0:0:
448,192,181985,1,0,0:0:0:0:
320,192,182073,1,0,0:0:0:0:
64,192,182161,1,2,0:0:0:0:
320,192,182249,1,0,0:0:0:0:
64,192,182338,1,0,0:0:0:0:
192,192,182338,1,0,0:0:0:0:
448,192,182426,1,0,0:0:0:0:
64,192,182514,1,2,0:0:0:0:
192,192,182514,1,0,0:0:0:0:
320,192,182602,1,0,0:0:0:0:
192,192,182691,1,0,0:0:0:0:
448,192,182691,1,0,0:0:0:0:
320,192,182779,1,0,0:0:0:0:
64,192,182779,1,0,0:0:0:0:
448,192,182867,1,2,0:0:0:0:
192,192,182955,1,0,0:0:0:0:
64,192,183043,1,0,0:0:0:0:
320,192,183132,1,0,0:0:0:0:
448,192,183220,1,2,0:0:0:0:
64,192,183220,1,0,0:0:0:0:
192,192,183308,1,0,0:0:0:0:
448,192,183396,1,0,0:0:0:0:
320,192,183396,1,0,0:0:0:0:
64,192,183485,1,0,0:0:0:0:
448,192,183573,1,2,0:0:0:0:
192,192,183573,1,0,0:0:0:0:
320,192,183661,1,0,0:0:0:0:
64,192,183749,1,0,0:0:0:0:
320,192,183838,1,0,0:0:0:0:
448,192,183926,1,2,0:0:0:0:
64,192,183926,1,0,0:0:0:0:
192,192,184014,1,0,0:0:0:0:
448,192,184102,1,0,0:0:0:0:
320,192,184102,1,0,0:0:0:0:
64,192,184191,1,0,0:0:0:0:
192,192,184279,1,2,0:0:0:0:
448,192,184279,1,0,0:0:0:0:
320,192,184367,1,0,0:0:0:0:
64,192,184455,1,0,0:0:0:0:
320,192,184543,1,0,0:0:0:0:
448,192,184632,1,2,0:0:0:0:
64,192,184632,1,0,0:0:0:0:
192,192,184720,1,0,0:0:0:0:
64,192,184808,1,0,0:0:0:0:
320,192,184808,1,0,0:0:0:0:
192,192,184896,1,0,0:0:0:0:
448,192,184985,1,2,0:0:0:0:
320,192,184985,1,0,0:0:0:0:
64,192,185073,1,0,0:0:0:0:
192,192,185161,1,0,0:0:0:0:
448,192,185161,1,0,0:0:0:0:
64,192,185249,1,0,0:0:0:0:
320,192,185338,1,2,0:0:0:0:
448,192,185338,1,0,0:0:0:0:
192,192,185426,1,0,0:0:0:0:
64,192,185514,1,0,0:0:0:0:
320,192,185514,1,0,0:0:0:0:
192,192,185602,1,0,0:0:0:0:
320,192,185691,1,2,0:0:0:0:
448,192,185691,1,0,0:0:0:0:
64,192,185779,1,0,0:0:0:0:
192,192,185867,1,0,0:0:0:0:
320,192,185955,1,0,0:0:0:0:
448,192,185955,1,0,0:0:0:0:
64,192,186043,1,2,0:0:0:0:
192,192,186043,1,0,0:0:0:0:
448,192,186220,1,0,0:0:0:0:
320,192,186220,1,0,0:0:0:0:
448,192,186396,1,4,0:0:0:0:
192,192,186396,1,2,0:0:0:0:
64,192,186396,1,0,0:0:0:0:
320,192,186485,1,0,0:0:0:0:
192,192,186573,1,0,0:0:0:0:
64,192,186573,1,0,0:0:0:0:
320,192,186661,1,0,0:0:0:0:
448,192,186749,1,2,0:0:0:0:
64,192,186749,1,0,0:0:0:0:
192,192,186838,1,0,0:0:0:0:
448,192,186926,1,0,0:0:0:0:
320,192,186926,1,0,0:0:0:0:
192,192,187014,1,0,0:0:0:0:
320,192,187102,1,2,0:0:0:0:
64,192,187102,1,0,0:0:0:0:
448,192,187191,1,0,0:0:0:0:
320,192,187279,1,0,0:0:0:0:
192,192,187279,1,0,0:0:0:0:
448,192,187367,1,0,0:0:0:0:
192,192,187455,1,2,0:0:0:0:
64,192,187455,1,0,0:0:0:0:
448,192,187543,1,0,0:0:0:0:
320,192,187632,1,0,0:0:0:0:
64,192,187632,1,0,0:0:0:0:
192,192,187720,1,0,0:0:0:0:
448,192,187808,1,2,0:0:0:0:
192,192,187896,1,0,0:0:0:0:
320,192,187985,1,0,0:0:0:0:
448,192,187985,1,0,0:0:0:0:
64,192,188073,1,0,0:0:0:0:
448,192,188161,1,2,0:0:0:0:
320,192,188161,1,0,0:0:0:0:
192,192,188249,1,0,0:0:0:0:
64,192,188338,1,0,0:0:0:0:
320,192,188338,1,0,0:0:0:0:
192,192,188426,1,0,0:0:0:0:
448,192,188426,1,0,0:0:0:0:
64,192,188514,1,2,0:0:0:0:
320,192,188602,1,0,0:0:0:0:
448,192,188691,1,0,0:0:0:0:
64,192,188779,1,0,0:0:0:0:
320,192,188867,1,2,0:0:0:0:
192,192,188867,1,0,0:0:0:0:
448,192,188955,1,0,0:0:0:0:
192,192,189043,1,0,0:0:0:0:
64,192,189043,1,0,0:0:0:0:
320,192,189132,1,0,0:0:0:0:
448,192,189220,1,2,0:0:0:0:
192,192,189220,1,0,0:0:0:0:
64,192,189308,1,0,0:0:0:0:
448,192,189396,1,0,0:0:0:0:
64,192,189485,5,0,0:0:0:0:
192,192,189573,1,2,0:0:0:0:
320,192,189573,1,0,0:0:0:0:
448,192,189661,1,0,0:0:0:0:
320,192,189749,1,0,0:0:0:0:
64,192,189838,1,0,0:0:0:0:
448,192,189926,1,2,0:0:0:0:
192,192,189926,1,0,0:0:0:0:
320,192,190014,1,0,0:0:0:0:
192,192,190102,1,0,0:0:0:0:
320,192,190191,1,0,0:0:0:0:
448,192,190279,1,2,0:0:0:0:
64,192,190279,1,0,0:0:0:0:
192,192,190367,1,0,0:0:0:0:
64,192,190455,1,0,0:0:0:0:
320,192,190543,1,0,0:0:0:0:
448,192,190632,1,2,0:0:0:0:
192,192,190632,1,0,0:0:0:0:
64,192,190720,1,0,0:0:0:0:
320,192,190808,1,0,0:0:0:0:
448,192,190808,1,0,0:0:0:0:
192,192,190896,1,0,0:0:0:0:
64,192,190985,1,2,0:0:0:0:
320,192,190985,1,0,0:0:0:0:
192,192,191073,1,0,0:0:0:0:
448,192,191161,1,0,0:0:0:0:
320,192,191161,1,0,0:0:0:0:
64,192,191249,1,0,0:0:0:0:
192,192,191338,1,2,0:0:0:0:
448,192,191338,1,0,0:0:0:0:
64,192,191426,1,0,0:0:0:0:
448,192,191514,1,0,0:0:0:0:
320,192,191514,1,0,0:0:0:0:
64,192,191602,1,0,0:0:0:0:
448,192,191691,1,8,0:0:0:0:
192,192,191691,1,0,0:0:0:0:
320,192,191691,1,0,0:0:0:0:
64,192,192043,1,4,0:0:0:0:
320,192,192043,1,2,0:0:0:0:
448,192,192043,1,0,0:0:0:0:
192,192,192132,1,0,0:0:0:0:
320,192,192220,1,0,0:0:0:0:
448,192,192220,1,0,0:0:0:0:
192,192,192308,1,0,0:0:0:0:
64,192,192396,1,2,0:0:0:0:
448,192,192396,1,0,0:0:0:0:
320,192,192485,1,0,0:0:0:0:
64,192,192573,1,0,0:0:0:0:
192,192,192573,1,0,0:0:0:0:
320,192,192661,1,0,0:0:0:0:
448,192,192749,1,2,0:0:0:0:
192,192,192749,1,0,0:0:0:0:
64,192,192838,1,0,0:0:0:0:
320,192,192926,1,0,0:0:0:0:
192,192,192926,1,0,0:0:0:0:
64,192,193014,1,0,0:0:0:0:
320,192,193102,1,2,0:0:0:0:
448,192,193102,1,0,0:0:0:0:
64,192,193191,1,0,0:0:0:0:
192,192,193279,1,0,0:0:0:0:
448,192,193279,1,0,0:0:0:0:
320,192,193367,1,0,0:0:0:0:
64,192,193455,1,2,0:0:0:0:
320,192,193543,1,0,0:0:0:0:
192,192,193632,1,0,0:0:0:0:
64,192,193632,1,0,0:0:0:0:
448,192,193720,1,0,0:0:0:0:
64,192,193808,1,2,0:0:0:0:
192,192,193808,1,0,0:0:0:0:
320,192,193896,1,0,0:0:0:0:
192,192,193985,1,0,0:0:0:0:
448,192,193985,1,0,0:0:0:0:
320,192,194073,1,0,0:0:0:0:
64,192,194073,1,0,0:0:0:0:
448,192,194161,1,2,0:0:0:0:
192,192,194249,1,0,0:0:0:0:
64,192,194338,1,0,0:0:0:0:
320,192,194426,1,0,0:0:0:0:
64,192,194514,1,2,0:0:0:0:
448,192,194514,1,0,0:0:0:0:
192,192,194602,1,0,0:0:0:0:
448,192,194691,1,0,0:0:0:0:
320,192,194691,1,0,0:0:0:0:
64,192,194779,1,0,0:0:0:0:
448,192,194867,1,4,0:0:0:0:
192,192,194867,1,2,0:0:0:0:
320,192,194955,1,0,0:0:0:0:
192,192,195043,1,0,0:0:0:0:
320,192,195132,1,0,0:0:0:0:
192,192,195220,1,2,0:0:0:0:
448,192,195308,1,0,0:0:0:0:
192,192,195396,1,0,0:0:0:0:
448,192,195485,1,0,0:0:0:0:
192,192,195573,1,2,0:0:0:0:
320,192,195661,1,0,0:0:0:0:
448,192,195749,1,0,0:0:0:0:
64,192,195749,1,0,0:0:0:0:
320,192,195838,1,0,0:0:0:0:
192,192,195926,1,2,0:0:0:0:
64,192,195926,1,0,0:0:0:0:
448,192,196014,1,0,0:0:0:0:
64,192,196102,1,0,0:0:0:0:
320,192,196102,1,0,0:0:0:0:
192,192,196191,1,0,0:0:0:0:
320,192,196279,1,2,0:0:0:0:
448,192,196279,1,0,0:0:0:0:
64,192,196367,1,0,0:0:0:0:
192,192,196455,1,0,0:0:0:0:
448,192,196455,1,0,0:0:0:0:
64,192,196543,1,0,0:0:0:0:
320,192,196632,1,2,0:0:0:0:
448,192,196720,1,0,0:0:0:0:
64,192,196808,1,0,0:0:0:0:
192,192,196808,1,0,0:0:0:0:
320,192,196896,1,0,0:0:0:0:
192,192,196985,1,2,0:0:0:0:
448,192,197073,1,0,0:0:0:0:
320,192,197161,1,0,0:0:0:0:
64,192,197161,1,0,0:0:0:0:
192,192,197249,1,0,0:0:0:0:
448,192,197338,1,2,0:0:0:0:
320,192,197338,1,0,0:0:0:0:
192,192,197514,1,0,0:0:0:0:
320,192,197514,1,0,0:0:0:0:
448,192,197691,1,2,0:0:0:0:
192,192,197691,1,4,0:0:0:0:
64,192,197691,1,0,0:0:0:0:
320,192,197779,1,0,0:0:0:0:
192,192,197867,1,0,0:0:0:0:
64,192,197867,1,0,0:0:0:0:
320,192,197955,1,0,0:0:0:0:
448,192,197955,1,0,0:0:0:0:
64,192,198043,1,2,0:0:0:0:
448,192,198132,1,0,0:0:0:0:
320,192,198220,1,0,0:0:0:0:
192,192,198220,1,0,0:0:0:0:
64,192,198308,1,0,0:0:0:0:
192,192,198396,1,2,0:0:0:0:
448,192,198396,1,0,0:0:0:0:
320,192,198485,1,0,0:0:0:0:
64,192,198573,1,0,0:0:0:0:
448,192,198661,1,0,0:0:0:0:
320,192,198749,1,2,0:0:0:0:
192,192,198749,1,0,0:0:0:0:
448,192,198838,1,0,0:0:0:0:
192,192,198926,1,0,0:0:0:0:
64,192,198926,1,0,0:0:0:0:
320,192,199014,1,0,0:0:0:0:
448,192,199102,1,4,0:0:0:0:
64,192,199102,1,2,0:0:0:0:
192,192,199191,1,0,0:0:0:0:
448,192,199279,1,0,0:0:0:0:
320,192,199279,1,0,0:0:0:0:
64,192,199367,1,0,0:0:0:0:
448,192,199455,1,2,0:0:0:0:
192,192,199543,1,0,0:0:0:0:
320,192,199632,1,0,0:0:0:0:
64,192,199632,1,0,0:0:0:0:
448,192,199720,1,0,0:0:0:0:
192,192,199720,1,0,0:0:0:0:
64,192,199808,1,2,0:0:0:0:
320,192,199896,1,0,0:0:0:0:
448,192,199985,1,0,0:0:0:0:
64,192,200073,1,0,0:0:0:0:
320,192,200161,1,2,0:0:0:0:
192,192,200161,1,0,0:0:0:0:
64,192,200249,1,0,0:0:0:0:
320,192,200338,1,0,0:0:0:0:
448,192,200338,1,0,0:0:0:0:
192,192,200426,1,0,0:0:0:0:
448,192,200514,1,2,0:0:0:0:
64,192,200514,1,4,0:0:0:0:
192,192,200602,1,0,0:0:0:0:
320,192,200691,1,0,0:0:0:0:
64,192,200779,1,0,0:0:0:0:
192,192,200867,1,2,0:0:0:0:
448,192,200867,1,0,0:0:0:0:
320,192,200955,1,0,0:0:0:0:
192,192,201043,1,0,0:0:0:0:
64,192,201043,1,0,0:0:0:0:
448,192,201132,1,0,0:0:0:0:
320,192,201132,1,0,0:0:0:0:
64,192,201220,1,4,0:0:0:0:
192,192,201220,1,2,0:0:0:0:
448,192,201308,1,0,0:0:0:0:
320,192,201396,1,0,0:0:0:0:
64,192,201396,1,0,0:0:0:0:
192,192,201485,1,0,0:0:0:0:
320,192,201573,1,2,0:0:0:0:
448,192,201573,1,0,0:0:0:0:
192,192,201661,1,0,0:0:0:0:
64,192,201749,1,0,0:0:0:0:
448,192,201749,1,0,0:0:0:0:
320,192,201838,1,0,0:0:0:0:
192,192,201838,1,0,0:0:0:0:
64,192,201926,1,4,0:0:0:0:
64,192,202102,1,0,0:0:0:0:
64,192,202279,1,0,0:0:0:0:
64,192,202455,1,0,0:0:0:0:
448,192,202632,1,0,0:0:0:0:
192,192,202720,1,0,0:0:0:0:
448,192,202808,1,0,0:0:0:0:
192,192,202896,1,0,0:0:0:0:
192,192,203161,1,0,0:0:0:0:
320,192,203196,1,0,0:0:0:0:
64,192,203267,1,0,0:0:0:0:
192,192,203338,1,2,0:0:0:0:
320,192,203338,1,4,0:0:0:0:
448,192,203338,1,0,0:0:0:0:
64,192,203426,1,0,0:0:0:0:
320,192,203514,1,0,0:0:0:0:
448,192,203514,1,0,0:0:0:0:
64,192,203602,1,0,0:0:0:0:
192,192,203691,1,2,0:0:0:0:
448,192,203691,1,0,0:0:0:0:
320,192,203779,1,0,0:0:0:0:
64,192,203867,1,0,0:0:0:0:
192,192,203867,1,0,0:0:0:0:
320,192,203955,1,0,0:0:0:0:
448,192,204043,1,2,0:0:0:0:
64,192,204043,1,0,0:0:0:0:
192,192,204132,1,0,0:0:0:0:
320,192,204220,1,0,0:0:0:0:
64,192,204220,1,0,0:0:0:0:
192,192,204308,1,0,0:0:0:0:
320,192,204396,1,2,0:0:0:0:
448,192,204396,1,0,0:0:0:0:
192,192,204485,1,0,0:0:0:0:
64,192,204573,1,0,0:0:0:0:
448,192,204573,1,0,0:0:0:0:
320,192,204661,1,0,0:0:0:0:
192,192,204749,1,2,0:0:0:0:
320,192,204838,1,0,0:0:0:0:
64,192,204926,1,0,0:0:0:0:
192,192,204926,1,0,0:0:0:0:
448,192,205014,1,0,0:0:0:0:
64,192,205102,1,2,0:0:0:0:
192,192,205102,1,0,0:0:0:0:
320,192,205191,1,0,0:0:0:0:
64,192,205279,1,0,0:0:0:0:
448,192,205279,1,0,0:0:0:0:
320,192,205367,1,0,0:0:0:0:
192,192,205367,1,0,0:0:0:0:
448,192,205455,1,2,0:0:0:0:
192,192,205543,1,0,0:0:0:0:
64,192,205632,1,0,0:0:0:0:
320,192,205720,1,0,0:0:0:0:
448,192,205808,1,2,0:0:0:0:
192,192,205808,1,0,0:0:0:0:
64,192,205896,1,0,0:0:0:0:
448,192,205985,1,0,0:0:0:0:
320,192,205985,1,0,0:0:0:0:
192,192,206073,1,0,0:0:0:0:
448,192,206161,1,2,0:0:0:0:
64,192,206161,1,0,0:0:0:0:
320,192,206249,1,0,0:0:0:0:
192,192,206338,1,0,0:0:0:0:
320,192,206426,1,0,0:0:0:0:
448,192,206514,1,2,0:0:0:0:
192,192,206514,1,0,0:0:0:0:
64,192,206602,1,0,0:0:0:0:
448,192,206691,1,0,0:0:0:0:
320,192,206691,1,0,0:0:0:0:
192,192,206779,1,0,0:0:0:0:
64,192,206867,1,2,0:0:0:0:
448,192,206867,1,0,0:0:0:0:
320,192,206955,1,0,0:0:0:0:
192,192,207043,1,0,0:0:0:0:
320,192,207132,1,0,0:0:0:0:
448,192,207220,1,2,0:0:0:0:
192,192,207220,1,0,0:0:0:0:
64,192,207308,1,0,0:0:0:0:
192,192,207396,1,0,0:0:0:0:
320,192,207396,1,0,0:0:0:0:
64,192,207485,1,0,0:0:0:0:
448,192,207573,1,2,0:0:0:0:
320,192,207573,1,0,0:0:0:0:
192,192,207661,1,0,0:0:0:0:
64,192,207749,1,0,0:0:0:0:
448,192,207749,1,0,0:0:0:0:
192,192,207838,1,0,0:0:0:0:
320,192,207926,1,2,0:0:0:0:
448,192,207926,1,0,0:0:0:0:
64,192,208014,1,0,0:0:0:0:
192,192,208102,1,0,0:0:0:0:
320,192,208102,1,0,0:0:0:0:
64,192,208191,1,0,0:0:0:0:
320,192,208279,1,2,0:0:0:0:
448,192,208279,1,0,0:0:0:0:
192,192,208367,1,0,0:0:0:0:
64,192,208455,1,0,0:0:0:0:
320,192,208543,1,0,0:0:0:0:
448,192,208543,1,0,0:0:0:0:
64,192,208632,1,2,0:0:0:0:
192,192,208632,1,0,0:0:0:0:
448,192,208808,1,0,0:0:0:0:
320,192,208808,1,0,0:0:0:0:
320,192,208985,1,4,0:0:0:0:
192,192,208985,1,2,0:0:0:0:
64,192,208985,1,0,0:0:0:0:
448,192,209073,1,0,0:0:0:0:
192,192,209161,1,0,0:0:0:0:
64,192,209161,1,0,0:0:0:0:
448,192,209249,1,0,0:0:0:0:
320,192,209338,1,2,0:0:0:0:
64,192,209338,1,0,0:0:0:0:
192,192,209426,1,0,0:0:0:0:
448,192,209514,1,0,0:0:0:0:
320,192,209514,1,0,0:0:0:0:
192,192,209602,1,0,0:0:0:0:
448,192,209691,1,2,0:0:0:0:
64,192,209691,1,0,0:0:0:0:
320,192,209779,1,0,0:0:0:0:
448,192,209867,1,0,0:0:0:0:
192,192,209867,1,0,0:0:0:0:
320,192,209955,1,0,0:0:0:0:
192,192,210043,1,2,0:0:0:0:
64,192,210043,1,0,0:0:0:0:
320,192,210132,1,0,0:0:0:0:
448,192,210220,1,0,0:0:0:0:
64,192,210220,1,0,0:0:0:0:
192,192,210308,1,0,0:0:0:0:
320,192,210396,1,2,0:0:0:0:
192,192,210485,1,0,0:0:0:0:
320,192,210573,1,0,0:0:0:0:
448,192,210573,1,0,0:0:0:0:
64,192,210661,1,0,0:0:0:0:
448,192,210749,1,2,0:0:0:0:
320,192,210749,1,0,0:0:0:0:
192,192,210838,1,0,0:0:0:0:
64,192,210926,1,0,0:0:0:0:
448,192,210926,1,0,0:0:0:0:
192,192,211014,1,0,0:0:0:0:
320,192,211014,1,0,0:0:0:0:
64,192,211102,1,2,0:0:0:0:
320,192,211191,1,0,0:0:0:0:
448,192,211279,1,0,0:0:0:0:
192,192,211367,1,0,0:0:0:0:
448,192,211455,1,2,0:0:0:0:
64,192,211455,1,0,0:0:0:0:
320,192,211543,1,0,0:0:0:0:
192,192,211632,1,0,0:0:0:0:
64,192,211632,1,0,0:0:0:0:
448,192,211720,1,0,0:0:0:0:
320,192,211808,1,2,0:0:0:0:
64,192,211808,1,0,0:0:0:0:
192,192,211896,1,0,0:0:0:0:
320,192,211985,1,0,0:0:0:0:
192,192,212073,5,0,0:0:0:0:
64,192,212161,1,2,0:0:0:0:
448,192,212161,1,0,0:0:0:0:
320,192,212249,1,0,0:0:0:0:
448,192,212338,1,0,0:0:0:0:
192,192,212426,1,0,0:0:0:0:
320,192,212514,1,2,0:0:0:0:
64,192,212514,1,0,0:0:0:0:
448,192,212602,1,0,0:0:0:0:
64,192,212691,1,0,0:0:0:0:
448,192,212779,1,0,0:0:0:0:
320,192,212867,1,2,0:0:0:0:
192,192,212867,1,0,0:0:0:0:
64,192,212955,1,0,0:0:0:0:
192,192,213043,1,0,0:0:0:0:
320,192,213132,1,0,0:0:0:0:
448,192,213220,1,2,0:0:0:0:
64,192,213220,1,0,0:0:0:0:
192,192,213308,1,0,0:0:0:0:
320,192,213396,1,0,0:0:0:0:
448,192,213396,1,0,0:0:0:0:
64,192,213485,1,0,0:0:0:0:
192,192,213573,1,2,0:0:0:0:
320,192,213573,1,0,0:0:0:0:
64,192,213661,1,0,0:0:0:0:
448,192,213749,1,0,0:0:0:0:
320,192,213749,1,0,0:0:0:0:
192,192,213838,1,0,0:0:0:0:
64,192,213926,1,2,0:0:0:0:
448,192,213926,1,0,0:0:0:0:
192,192,214014,1,0,0:0:0:0:
448,192,214102,1,0,0:0:0:0:
320,192,214102,1,0,0:0:0:0:
192,192,214191,1,0,0:0:0:0:
448,192,214279,1,0,0:0:0:0:
64,192,214279,1,8,0:0:0:0:
320,192,214279,1,0,0:0:0:0:
192,192,214632,1,2,0:0:0:0:
320,192,214632,1,4,0:0:0:0:
448,192,214632,1,0,0:0:0:0:
64,192,214720,1,0,0:0:0:0:
320,192,214808,1,0,0:0:0:0:
448,192,214808,1,0,0:0:0:0:
64,192,214896,1,0,0:0:0:0:
192,192,214985,1,2,0:0:0:0:
448,192,214985,1,0,0:0:0:0:
320,192,215073,1,0,0:0:0:0:
64,192,215161,1,0,0:0:0:0:
192,192,215161,1,0,0:0:0:0:
320,192,215249,1,0,0:0:0:0:
448,192,215338,1,2,0:0:0:0:
64,192,215338,1,0,0:0:0:0:
192,192,215426,1,0,0:0:0:0:
320,192,215514,1,0,0:0:0:0:
64,192,215514,1,0,0:0:0:0:
192,192,215602,1,0,0:0:0:0:
320,192,215691,1,2,0:0:0:0:
448,192,215691,1,0,0:0:0:0:
192,192,215779,1,0,0:0:0:0:
64,192,215867,1,0,0:0:0:0:
448,192,215867,1,0,0:0:0:0:
320,192,215955,1,0,0:0:0:0:
192,192,216043,1,2,0:0:0:0:
320,192,216132,1,0,0:0:0:0:
192,192,216220,1,0,0:0:0:0:
64,192,216220,1,0,0:0:0:0:
448,192,216308,1,0,0:0:0:0:
64,192,216396,1,2,0:0:0:0:
192,192,216396,1,0,0:0:0:0:
320,192,216485,1,0,0:0:0:0:
64,192,216573,1,0,0:0:0:0:
448,192,216573,1,0,0:0:0:0:
320,192,216661,1,0,0:0:0:0:
192,192,216661,1,0,0:0:0:0:
448,192,216749,1,2,0:0:0:0:
192,192,216838,1,0,0:0:0:0:
448,192,216926,1,0,0:0:0:0:
320,192,216926,1,0,0:0:0:0:
64,192,217014,1,0,0:0:0:0:
192,192,217102,1,2,0:0:0:0:
320,192,217102,1,0,0:0:0:0:
448,192,217191,1,0,0:0:0:0:
192,192,217279,1,0,0:0:0:0:
64,192,217279,1,0,0:0:0:0:
320,192,217367,1,0,0:0:0:0:
192,192,217455,1,2,0:0:0:0:
448,192,217455,1,4,0:0:0:0:
64,192,217455,1,0,0:0:0:0:
320,192,217543,1,0,0:0:0:0:
64,192,217632,1,0,0:0:0:0:
448,192,217720,1,0,0:0:0:0:
320,192,217808,1,2,0:0:0:0:
192,192,217808,1,0,0:0:0:0:
64,192,217896,1,0,0:0:0:0:
448,192,217985,1,0,0:0:0:0:
320,192,217985,1,0,0:0:0:0:
192,192,218073,1,0,0:0:0:0:
64,192,218161,1,2,0:0:0:0:
320,192,218161,1,0,0:0:0:0:
448,192,218249,1,0,0:0:0:0:
192,192,218338,1,0,0:0:0:0:
64,192,218338,1,0,0:0:0:0:
448,192,218426,1,0,0:0:0:0:
320,192,218426,1,0,0:0:0:0:
192,192,218514,1,2,0:0:0:0:
64,192,218514,1,0,0:0:0:0:
448,192,218602,1,0,0:0:0:0:
192,192,218691,1,0,0:0:0:0:
320,192,218691,1,0,0:0:0:0:
64,192,218779,1,0,0:0:0:0:
320,192,218867,1,2,0:0:0:0:
448,192,218867,1,0,0:0:0:0:
64,192,218955,1,0,0:0:0:0:
192,192,219043,1,0,0:0:0:0:
448,192,219043,1,0,0:0:0:0:
64,192,219132,1,0,0:0:0:0:
448,192,219220,1,2,0:0:0:0:
192,192,219220,1,0,0:0:0:0:
320,192,219308,1,0,0:0:0:0:
64,192,219396,1,0,0:0:0:0:
192,192,219396,1,0,0:0:0:0:
320,192,219485,1,0,0:0:0:0:
448,192,219485,1,0,0:0:0:0:
64,192,219573,1,2,0:0:0:0:
192,192,219573,1,0,0:0:0:0:
448,192,219661,1,0,0:0:0:0:
320,192,219749,1,0,0:0:0:0:
64,192,219749,1,0,0:0:0:0:
192,192,219838,1,0,0:0:0:0:
448,192,219926,1,2,0:0:0:0:
320,192,219926,1,0,0:0:0:0:
192,192,220102,1,0,0:0:0:0:
320,192,220102,1,0,0:0:0:0:
448,192,220279,1,2,0:0:0:0:
192,192,220279,1,4,0:0:0:0:
64,192,220279,1,0,0:0:0:0:
320,192,220367,1,0,0:0:0:0:
192,192,220455,1,0,0:0:0:0:
64,192,220455,1,0,0:0:0:0:
320,192,220543,1,0,0:0:0:0:
448,192,220632,1,2,0:0:0:0:
192,192,220632,1,0,0:0:0:0:
64,192,220720,1,0,0:0:0:0:
448,192,220808,1,0,0:0:0:0:
320,192,220808,1,0,0:0:0:0:
64,192,220896,1,0,0:0:0:0:
320,192,220985,1,2,0:0:0:0:
192,192,220985,1,0,0:0:0:0:
448,192,221073,1,0,0:0:0:0:
320,192,221161,1,0,0:0:0:0:
64,192,221161,1,0,0:0:0:0:
448,192,221249,1,0,0:0:0:0:
192,192,221338,1,2,0:0:0:0:
64,192,221338,1,0,0:0:0:0:
448,192,221426,1,0,0:0:0:0:
192,192,221514,1,0,0:0:0:0:
320,192,221514,1,0,0:0:0:0:
64,192,221602,1,0,0:0:0:0:
448,192,221691,1,2,0:0:0:0:
320,192,221691,1,4,0:0:0:0:
64,192,221779,1,0,0:0:0:0:
192,192,221867,1,0,0:0:0:0:
448,192,221867,1,0,0:0:0:0:
64,192,221955,1,0,0:0:0:0:
320,192,221955,1,0,0:0:0:0:
192,192,222043,1,2,0:0:0:0:
320,192,222132,1,0,0:0:0:0:
448,192,222132,1,0,0:0:0:0:
192,192,222220,1,0,0:0:0:0:
64,192,222220,1,0,0:0:0:0:
448,192,222308,1,0,0:0:0:0:
64,192,222396,1,2,0:0:0:0:
320,192,222396,1,0,0:0:0:0:
192,192,222485,1,0,0:0:0:0:
320,192,222573,1,0,0:0:0:0:
448,192,222573,1,0,0:0:0:0:
64,192,222661,1,0,0:0:0:0:
320,192,222749,1,2,0:0:0:0:
192,192,222749,1,0,0:0:0:0:
448,192,222838,1,0,0:0:0:0:
192,192,222926,1,0,0:0:0:0:
64,192,222926,1,0,0:0:0:0:
320,192,223014,1,0,0:0:0:0:
448,192,223102,1,4,0:0:0:0:
64,192,223102,1,2,0:0:0:0:
192,192,223191,1,0,0:0:0:0:
320,192,223279,1,0,0:0:0:0:
64,192,223367,1,0,0:0:0:0:
448,192,223455,1,2,0:0:0:0:
192,192,223455,1,0,0:0:0:0:
320,192,223543,1,0,0:0:0:0:
64,192,223632,1,0,0:0:0:0:
192,192,223632,1,0,0:0:0:0:
448,192,223720,1,0,0:0:0:0:
320,192,223720,1,0,0:0:0:0:
192,192,223808,1,2,0:0:0:0:
64,192,223808,1,4,0:0:0:0:
448,192,223896,1,0,0:0:0:0:
64,192,223985,1,0,0:0:0:0:
320,192,223985,1,0,0:0:0:0:
192,192,224073,1,0,0:0:0:0:
448,192,224161,1,2,0:0:0:0:
320,192,224161,1,0,0:0:0:0:
192,192,224249,1,0,0:0:0:0:
64,192,224338,1,0,0:0:0:0:
448,192,224338,1,0,0:0:0:0:
320,192,224426,1,0,0:0:0:0:
192,192,224426,1,0,0:0:0:0:
64,192,224514,1,4,0:0:0:0:
448,192,224691,5,0,0:0:0:0:
192,192,224867,5,0,0:0:0:0:
320,192,224955,1,0,0:0:0:0:
448,192,225043,1,0,0:0:0:0:
192,192,225132,1,0,0:0:0:0:
320,192,225220,1,0,0:0:0:0:
64,192,225220,1,0,0:0:0:0:
320,192,225396,1,0,0:0:0:0:
448,192,225396,1,0,0:0:0:0:
448,192,225573,1,0,0:0:0:0:
64,192,225573,1,0,0:0:0:0:
192,192,225749,1,0,0:0:0:0:
64,192,225926,5,0,0:0:0:0:
320,192,225926,1,2,0:0:0:0:
448,192,225926,1,4,0:0:0:0:
192,192,226014,1,0,0:0:0:0:
320,192,226102,1,0,0:0:0:0:
448,192,226102,1,0,0:0:0:0:
64,192,226191,1,0,0:0:0:0:
192,192,226279,1,2,0:0:0:0:
320,192,226279,1,0,0:0:0:0:
448,192,226367,1,0,0:0:0:0:
64,192,226367,1,0,0:0:0:0:
320,192,226455,1,0,0:0:0:0:
448,192,226543,1,0,0:0:0:0:
64,192,226543,1,0,0:0:0:0:
192,192,226632,1,2,0:0:0:0:
320,192,226720,1,0,0:0:0:0:
192,192,226808,1,0,0:0:0:0:
64,192,226808,1,0,0:0:0:0:
448,192,226896,1,0,0:0:0:0:
64,192,226985,1,2,0:0:0:0:
320,192,226985,1,0,0:0:0:0:
192,192,227073,1,0,0:0:0:0:
320,192,227161,1,0,0:0:0:0:
448,192,227161,1,0,0:0:0:0:
192,192,227249,1,0,0:0:0:0:
448,192,227338,1,2,0:0:0:0:
64,192,227338,1,0,0:0:0:0:
192,192,227426,1,0,0:0:0:0:
320,192,227514,1,0,0:0:0:0:
448,192,227514,1,0,0:0:0:0:
64,192,227602,1,0,0:0:0:0:
192,192,227691,1,2,0:0:0:0:
320,192,227691,1,0,0:0:0:0:
448,192,227779,1,0,0:0:0:0:
64,192,227779,1,0,0:0:0:0:
320,192,227867,1,0,0:0:0:0:
448,192,227955,1,0,0:0:0:0:
64,192,227955,1,0,0:0:0:0:
192,192,228043,1,2,0:0:0:0:
320,192,228132,1,0,0:0:0:0:
192,192,228220,1,0,0:0:0:0:
448,192,228220,1,0,0:0:0:0:
64,192,228308,1,0,0:0:0:0:
320,192,228396,1,2,0:0:0:0:
448,192,228396,1,0,0:0:0:0:
192,192,228485,1,0,0:0:0:0:
320,192,228573,1,0,0:0:0:0:
64,192,228573,1,0,0:0:0:0:
448,192,228661,1,0,0:0:0:0:
64,192,228749,1,2,0:0:0:0:
192,192,228749,1,0,0:0:0:0:
320,192,228838,1,0,0:0:0:0:
192,192,228926,1,0,0:0:0:0:
64,192,228926,1,0,0:0:0:0:
448,192,229014,1,0,0:0:0:0:
192,192,229102,1,2,0:0:0:0:
320,192,229102,1,0,0:0:0:0:
64,192,229191,1,0,0:0:0:0:
448,192,229191,1,0,0:0:0:0:
192,192,229279,1,0,0:0:0:0:
64,192,229367,1,0,0:0:0:0:
448,192,229367,1,0,0:0:0:0:
320,192,229455,1,2,0:0:0:0:
192,192,229543,1,0,0:0:0:0:
448,192,229632,1,0,0:0:0:0:
320,192,229632,1,0,0:0:0:0:
192,192,229720,1,0,0:0:0:0:
64,192,229720,1,0,0:0:0:0:
448,192,229808,1,2,0:0:0:0:
320,192,229896,1,0,0:0:0:0:
64,192,229985,1,0,0:0:0:0:
192,192,229985,1,0,0:0:0:0:
320,192,230073,1,0,0:0:0:0:
448,192,230073,1,0,0:0:0:0:
64,192,230161,1,2,0:0:0:0:
448,192,230249,1,0,0:0:0:0:
192,192,230338,1,0,0:0:0:0:
64,192,230338,1,0,0:0:0:0:
320,192,230426,1,0,0:0:0:0:
448,192,230514,1,2,0:0:0:0:
192,192,230514,1,0,0:0:0:0:
64,192,230602,1,0,0:0:0:0:
320,192,230691,1,0,0:0:0:0:
192,192,230691,1,0,0:0:0:0:
64,192,230779,1,0,0:0:0:0:
448,192,230779,1,0,0:0:0:0:
320,192,230867,1,2,0:0:0:0:
64,192,230955,1,0,0:0:0:0:
192,192,230955,1,0,0:0:0:0:
448,192,231043,1,0,0:0:0:0:
320,192,231132,1,0,0:0:0:0:
448,192,231220,1,2,0:0:0:0:
192,192,231220,1,0,0:0:0:0:
64,192,231396,1,0,0:0:0:0:
320,192,231396,1,0,0:0:0:0:
192,192,231573,1,2,0:0:0:0:
320,192,231573,1,4,0:0:0:0:
448,192,231573,1,0,0:0:0:0:
64,192,231661,1,0,0:0:0:0:
320,192,231749,1,0,0:0:0:0:
448,192,231749,1,0,0:0:0:0:
192,192,231838,1,0,0:0:0:0:
64,192,231926,1,2,0:0:0:0:
448,192,231926,1,0,0:0:0:0:
320,192,232014,1,0,0:0:0:0:
192,192,232014,1,0,0:0:0:0:
448,192,232102,1,0,0:0:0:0:
320,192,232191,1,0,0:0:0:0:
192,192,232191,1,0,0:0:0:0:
64,192,232279,1,2,0:0:0:0:
448,192,232367,1,0,0:0:0:0:
192,192,232455,1,0,0:0:0:0:
64,192,232455,1,0,0:0:0:0:
320,192,232543,1,0,0:0:0:0:
192,192,232632,1,2,0:0:0:0:
448,192,232632,1,0,0:0:0:0:
64,192,232720,1,0,0:0:0:0:
320,192,232808,1,0,0:0:0:0:
448,192,232808,1,0,0:0:0:0:
64,192,232896,1,0,0:0:0:0:
192,192,232985,1,2,0:0:0:0:
320,192,232985,1,0,0:0:0:0:
64,192,233073,1,0,0:0:0:0:
320,192,233161,1,0,0:0:0:0:
448,192,233161,1,0,0:0:0:0:
192,192,233249,1,0,0:0:0:0:
64,192,233338,1,2,0:0:0:0:
448,192,233338,1,0,0:0:0:0:
320,192,233426,1,0,0:0:0:0:
192,192,233426,1,0,0:0:0:0:
448,192,233514,1,0,0:0:0:0:
320,192,233602,1,0,0:0:0:0:
192,192,233602,1,0,0:0:0:0:
64,192,233691,1,2,0:0:0:0:
448,192,233779,1,0,0:0:0:0:
320,192,233867,1,0,0:0:0:0:
64,192,233867,1,0,0:0:0:0:
192,192,233955,1,0,0:0:0:0:
448,192,234043,1,2,0:0:0:0:
320,192,234043,1,0,0:0:0:0:
64,192,234132,1,0,0:0:0:0:
448,192,234220,1,0,0:0:0:0:
192,192,234220,1,0,0:0:0:0:
320,192,234308,1,0,0:0:0:0:
192,192,234396,1,2,0:0:0:0:
64,192,234396,1,0,0:0:0:0:
448,192,234485,1,0,0:0:0:0:
192,192,234573,1,0,0:0:0:0:
64,192,234573,1,0,0:0:0:0:
320,192,234661,1,0,0:0:0:0:
64,192,234749,1,2,0:0:0:0:
448,192,234749,1,0,0:0:0:0:
192,192,234838,1,0,0:0:0:0:
320,192,234838,1,0,0:0:0:0:
64,192,234926,1,0,0:0:0:0:
192,192,235014,1,0,0:0:0:0:
320,192,235014,1,0,0:0:0:0:
448,192,235102,1,2,0:0:0:0:
64,192,235191,1,0,0:0:0:0:
448,192,235279,1,0,0:0:0:0:
320,192,235279,1,0,0:0:0:0:
192,192,235367,1,0,0:0:0:0:
64,192,235367,1,0,0:0:0:0:
448,192,235455,1,2,0:0:0:0:
320,192,235543,1,0,0:0:0:0:
64,192,235632,1,0,0:0:0:0:
192,192,235632,1,0,0:0:0:0:
320,192,235720,1,0,0:0:0:0:
448,192,235720,1,0,0:0:0:0:
64,192,235808,1,2,0:0:0:0:
192,192,235896,1,0,0:0:0:0:
320,192,235985,1,0,0:0:0:0:
448,192,235985,1,0,0:0:0:0:
64,192,236073,1,0,0:0:0:0:
192,192,236161,1,2,0:0:0:0:
320,192,236161,1,0,0:0:0:0:
64,192,236249,1,0,0:0:0:0:
448,192,236338,1,0,0:0:0:0:
320,192,236338,1,0,0:0:0:0:
192,192,236426,1,0,0:0:0:0:
64,192,236426,1,0,0:0:0:0:
448,192,236514,1,2,0:0:0:0:
192,192,236602,1,0,0:0:0:0:
448,192,236691,1,0,0:0:0:0:
320,192,236691,1,0,0:0:0:0:
192,192,236779,1,0,0:0:0:0:
448,192,236867,1,0,0:0:0:0:
64,192,236867,1,8,0:0:0:0:
320,192,236867,1,0,0:0:0:0:
64,192,237220,5,0,0:0:0:0:
320,192,237220,1,2,0:0:0:0:
448,192,237220,1,4,0:0:0:0:
192,192,237308,1,0,0:0:0:0:
320,192,237396,1,0,0:0:0:0:
448,192,237396,1,0,0:0:0:0:
64,192,237485,1,0,0:0:0:0:
192,192,237573,1,2,0:0:0:0:
320,192,237573,1,0,0:0:0:0:
448,192,237661,1,0,0:0:0:0:
64,192,237661,1,0,0:0:0:0:
320,192,237749,1,0,0:0:0:0:
448,192,237838,1,0,0:0:0:0:
64,192,237838,1,0,0:0:0:0:
192,192,237926,1,2,0:0:0:0:
320,192,238014,1,0,0:0:0:0:
192,192,238102,1,0,0:0:0:0:
64,192,238102,1,0,0:0:0:0:
448,192,238191,1,0,0:0:0:0:
64,192,238279,1,2,0:0:0:0:
320,192,238279,1,0,0:0:0:0:
192,192,238367,1,0,0:0:0:0:
320,192,238455,1,0,0:0:0:0:
448,192,238455,1,0,0:0:0:0:
192,192,238543,1,0,0:0:0:0:
448,192,238632,1,2,0:0:0:0:
64,192,238632,1,0,0:0:0:0:
192,192,238720,1,0,0:0:0:0:
320,192,238808,1,0,0:0:0:0:
448,192,238808,1,0,0:0:0:0:
64,192,238896,1,0,0:0:0:0:
192,192,238985,1,2,0:0:0:0:
320,192,238985,1,0,0:0:0:0:
448,192,239073,1,0,0:0:0:0:
64,192,239073,1,0,0:0:0:0:
320,192,239161,1,0,0:0:0:0:
448,192,239249,1,0,0:0:0:0:
64,192,239249,1,0,0:0:0:0:
192,192,239338,1,2,0:0:0:0:
448,192,239426,1,0,0:0:0:0:
320,192,239514,1,0,0:0:0:0:
64,192,239514,1,0,0:0:0:0:
192,192,239602,1,0,0:0:0:0:
320,192,239691,1,2,0:0:0:0:
448,192,239691,1,0,0:0:0:0:
192,192,239779,1,0,0:0:0:0:
448,192,239867,1,0,0:0:0:0:
64,192,239867,1,0,0:0:0:0:
320,192,239955,1,0,0:0:0:0:
64,192,240043,1,2,0:0:0:0:
192,192,240043,1,4,0:0:0:0:
448,192,240043,1,0,0:0:0:0:
320,192,240132,1,0,0:0:0:0:
192,192,240220,1,0,0:0:0:0:
64,192,240220,1,0,0:0:0:0:
448,192,240308,1,0,0:0:0:0:
320,192,240396,1,2,0:0:0:0:
192,192,240396,1,0,0:0:0:0:
448,192,240485,1,0,0:0:0:0:
64,192,240485,1,0,0:0:0:0:
192,192,240573,1,0,0:0:0:0:
448,192,240661,1,0,0:0:0:0:
64,192,240661,1,0,0:0:0:0:
320,192,240749,1,2,0:0:0:0:
192,192,240838,1,0,0:0:0:0:
448,192,240926,1,0,0:0:0:0:
320,192,240926,1,0,0:0:0:0:
192,192,241014,1,0,0:0:0:0:
64,192,241014,1,0,0:0:0:0:
448,192,241102,1,2,0:0:0:0:
320,192,241191,1,0,0:0:0:0:
64,192,241279,1,0,0:0:0:0:
192,192,241279,1,0,0:0:0:0:
320,192,241367,1,0,0:0:0:0:
448,192,241367,1,0,0:0:0:0:
64,192,241455,1,2,0:0:0:0:
448,192,241543,1,0,0:0:0:0:
192,192,241632,1,0,0:0:0:0:
64,192,241632,1,0,0:0:0:0:
320,192,241720,1,0,0:0:0:0:
448,192,241808,1,2,0:0:0:0:
192,192,241808,1,0,0:0:0:0:
64,192,241896,1,0,0:0:0:0:
320,192,241985,1,0,0:0:0:0:
192,192,241985,1,0,0:0:0:0:
64,192,242073,1,0,0:0:0:0:
448,192,242073,1,0,0:0:0:0:
320,192,242161,1,2,0:0:0:0:
64,192,242249,1,0,0:0:0:0:
192,192,242249,1,0,0:0:0:0:
448,192,242338,1,0,0:0:0:0:
320,192,242426,1,0,0:0:0:0:
448,192,242514,1,2,0:0:0:0:
64,192,242514,1,0,0:0:0:0:
320,192,242691,1,0,0:0:0:0:
192,192,242691,1,0,0:0:0:0:
64,192,242867,1,2,0:0:0:0:
320,192,242867,1,4,0:0:0:0:
448,192,242867,1,0,0:0:0:0:
192,192,242955,1,0,0:0:0:0:
320,192,243043,1,0,0:0:0:0:
448,192,243043,1,0,0:0:0:0:
192,192,243132,1,0,0:0:0:0:
64,192,243220,1,2,0:0:0:0:
448,192,243220,1,0,0:0:0:0:
320,192,243308,1,0,0:0:0:0:
192,192,243308,1,0,0:0:0:0:
448,192,243396,1,0,0:0:0:0:
320,192,243485,1,0,0:0:0:0:
192,192,243485,1,0,0:0:0:0:
64,192,243573,1,2,0:0:0:0:
448,192,243661,1,0,0:0:0:0:
64,192,243749,1,0,0:0:0:0:
320,192,243749,1,0,0:0:0:0:
192,192,243838,1,0,0:0:0:0:
448,192,243926,1,2,0:0:0:0:
320,192,243926,1,0,0:0:0:0:
64,192,244014,1,0,0:0:0:0:
448,192,244102,1,0,0:0:0:0:
192,192,244102,1,0,0:0:0:0:
320,192,244191,1,0,0:0:0:0:
64,192,244279,1,2,0:0:0:0:
448,192,244279,1,4,0:0:0:0:
192,192,244279,1,0,0:0:0:0:
320,192,244367,1,0,0:0:0:0:
192,192,244455,1,0,0:0:0:0:
64,192,244455,1,0,0:0:0:0:
320,192,244543,1,0,0:0:0:0:
64,192,244632,1,2,0:0:0:0:
448,192,244632,1,0,0:0:0:0:
192,192,244720,1,0,0:0:0:0:
320,192,244720,1,0,0:0:0:0:
64,192,244808,1,0,0:0:0:0:
192,192,244896,1,0,0:0:0:0:
320,192,244896,1,0,0:0:0:0:
448,192,244985,1,2,0:0:0:0:
192,192,245073,1,0,0:0:0:0:
320,192,245161,1,0,0:0:0:0:
64,192,245161,1,0,0:0:0:0:
448,192,245249,1,0,0:0:0:0:
192,192,245338,1,2,0:0:0:0:
64,192,245338,1,0,0:0:0:0:
448,192,245426,1,0,0:0:0:0:
320,192,245514,1,0,0:0:0:0:
192,192,245514,1,0,0:0:0:0:
64,192,245602,1,0,0:0:0:0:
320,192,245691,1,2,0:0:0:0:
448,192,245691,1,4,0:0:0:0:
192,192,245691,1,0,0:0:0:0:
64,192,245779,1,0,0:0:0:0:
320,192,245867,1,0,0:0:0:0:
448,192,245867,1,0,0:0:0:0:
192,192,245955,1,0,0:0:0:0:
64,192,246043,1,2,0:0:0:0:
448,192,246043,1,0,0:0:0:0:
320,192,246132,1,0,0:0:0:0:
192,192,246132,1,0,0:0:0:0:
64,192,246220,1,0,0:0:0:0:
320,192,246308,1,0,0:0:0:0:
64,192,246396,1,2,0:0:0:0:
192,192,246396,1,4,0:0:0:0:
448,192,246396,1,0,0:0:0:0:
320,192,246485,1,0,0:0:0:0:
192,192,246573,1,0,0:0:0:0:
64,192,246573,1,0,0:0:0:0:
448,192,246661,1,0,0:0:0:0:
320,192,246661,1,0,0:0:0:0:
64,192,246749,1,2,0:0:0:0:
192,192,246838,1,0,0:0:0:0:
448,192,246926,1,0,0:0:0:0:
320,192,246926,1,0,0:0:0:0:
64,192,247014,1,0,0:0:0:0:
320,192,247102,1,4,0:0:0:0:
192,192,247102,1,0,0:0:0:0:
448,192,247191,1,0,0:0:0:0:
320,192,247279,1,0,0:0:0:0:
64,192,247367,1,0,0:0:0:0:
448,192,247455,1,0,0:0:0:0:
320,192,247526,1,0,0:0:0:0:
64,192,247596,1,0,0:0:0:0:
192,192,247667,1,0,0:0:0:0:
448,192,247738,1,0,0:0:0:0:
320,192,247808,1,0,0:0:0:0:
192,192,247896,1,0,0:0:0:0:
320,192,247985,1,0,0:0:0:0:
192,192,248073,1,0,0:0:0:0:
64,192,248338,1,0,0:0:0:0:
448,192,248373,1,0,0:0:0:0:
192,192,248443,1,0,0:0:0:0:
320,192,248514,1,2,0:0:0:0:
64,192,248514,1,4,0:0:0:0:
448,192,248514,1,0,0:0:0:0:
