osu file format v14

[General]
AudioFilename: audio.mp3
AudioLeadIn: 0
PreviewTime: -1
Countdown: 1
SampleSet: Normal
StackLeniency: 0.7
Mode: 0
LetterboxInBreaks: 0
WidescreenStoryboard: 0

[Editor]
DistanceSpacing: 0.2
BeatDivisor: 4
GridSize: 8
TimelineZoom: 0.5394992

[Metadata]
Title:track maker for indoor type
TitleUnicode:インドア系ならトラックメイカー
Artist:Yunomi & nicamoq
ArtistUnicode:Yunomi & nicamoq
Creator:icecreamez
Version:maker!!
Source:
Tags:
BeatmapID:1910028
BeatmapSetID:914480

[Difficulty]
HPDrainRate:4
CircleSize:4
OverallDifficulty:7
ApproachRate:9.3
SliderMultiplier:2.4
SliderTickRate:1

[Events]
//Background and Video events
0,0,"0zB8q3w.jpg",0,0
//Break Periods
//Storyboard Layer 0 (Background)
//Storyboard Layer 1 (Fail)
//Storyboard Layer 2 (Pass)
//Storyboard Layer 3 (Foreground)
//Storyboard Sound Samples

[TimingPoints]
501,470.219435736677,4,1,0,100,1,0
4247.09174111889,470.219435736677,4,1,0,100,1,0

[HitObjects]
64,80,485,5,2,0:0:0:0:
211,97,720,1,0,0:0:0:0:
70,221,955,1,0,0:0:0:0:
218,231,1190,1,0,0:0:0:0:
278,310,1425,2,0,L|342:286,3,60
335,152,1895,1,0,0:0:0:0:
345,68,2366,5,2,0:0:0:0:
467,191,2600,1,0,0:0:0:0:
471,52,2836,1,0,0:0:0:0:
319,206,3071,1,0,0:0:0:0:
206,276,3306,1,0,0:0:0:0:
169,199,3541,2,0,P|186:165|209:159,1,60
308,82,3777,1,0,0:0:0:0:
200,35,4011,6,0,B|228:52|256:59|246:65,1,60
389,47,4247,1,2,0:0:0:0:
185,198,4481,1,0,0:0:0:0:
375,278,4717,1,0,0:0:0:0:
165,317,4952,1,0,0:0:0:0:
102,289,5187,2,0,P|46:289|44:300,1,60
80,198,5422,1,0,0:0:0:0:
346,109,5657,1,0,0:0:0:0:
256,56,6127,5,2,0:0:0:0:
207,184,6363,1,0,0:0:0:0:
400,82,6598,1,0,0:0:0:0:
339,233,6833,1,0,0:0:0:0:
303,143,7068,1,0,0:0:0:0:
257,189,7538,1,0,0:0:0:0:
106,228,8008,6,2,B|96:81|35:129|234:228,1,240
279,268,8948,1,0,0:0:0:0:
448,160,9418,1,0,0:0:0:0:
320,186,9889,6,2,B|376:18|81:309|224:34|124:216,1,240
428,242,10830,1,0,0:0:0:0:
333,175,11065,1,0,0:0:0:0:
226,240,11300,1,0,0:0:0:0:
96,176,11534,6,2,P|152:160|144:176,1,120
384,88,12005,1,0,0:0:0:0:
323,262,12241,1,0,0:0:0:0:
216,112,12476,1,0,0:0:0:0:
87,263,12711,6,2,P|134:251|141:278,1,60
264,232,12946,1,0,0:0:0:0:
376,320,13181,1,0,0:0:0:0:
88,48,13651,5,2,0:0:0:0:
248,264,13886,1,0,0:0:0:0:
384,48,14121,1,0,0:0:0:0:
64,208,14592,2,4,B|152:72|64:208|104:144|88:264|280:160,1,240
160,120,15532,6,0,P|272:96|280:176,1,180
288,224,16003,1,0,0:0:0:0:
216,88,16472,2,0,P|272:56|296:88,1,60
344,56,16708,1,0,0:0:0:0:
272,184,16943,1,0,0:0:0:0:
408,232,17178,6,0,P|344:232|328:256,1,60
208,296,17413,2,0,P|256:264|272:272,1,60
200,160,17648,1,8,0:0:0:0:
264,48,17765,1,8,0:0:0:0:
368,160,17883,1,8,0:0:0:0:
280,256,18118,2,0,P|384:256|384:248,1,120
192,144,18588,5,0,0:0:0:0:
264,64,18705,1,0,0:0:0:0:
360,152,18823,1,0,0:0:0:0:
360,256,19059,6,0,L|296:240,1,60
64,280,19294,1,0,0:0:0:0:
88,72,19529,6,0,P|152:48|168:56,1,60
296,40,19764,1,0,0:0:0:0:
160,256,19881,1,0,0:0:0:0:
352,176,19999,1,0,0:0:0:0:
32,16,20234,5,0,0:0:0:0:
216,56,20352,2,0,P|280:56|288:72,1,60
136,192,20704,1,0,0:0:0:0:
432,304,20939,1,0,0:0:0:0:
120,112,21174,5,0,0:0:0:0:
104,280,21292,2,0,P|176:280|176:264,1,60
352,56,21528,1,0,0:0:0:0:
448,240,21645,1,0,0:0:0:0:
216,80,21762,1,0,0:0:0:0:
88,64,22115,6,0,P|144:48|136:32,1,60
112,264,22351,1,0,0:0:0:0:
416,64,22585,1,0,0:0:0:0:
104,64,23056,5,0,0:0:0:0:
456,288,23290,2,0,B|456:144|408:184|400:224,1,120
88,216,23996,5,0,0:0:0:0:
112,80,24231,1,0,0:0:0:0:
264,80,24348,1,0,0:0:0:0:
200,176,24466,1,0,0:0:0:0:
80,304,24936,6,0,L|200:320,1,120
296,312,25406,1,0,0:0:0:0:
88,224,25877,1,0,0:0:0:0:
136,120,25994,1,0,0:0:0:0:
136,120,26112,1,0,0:0:0:0:
136,120,26229,1,0,0:0:0:0:
144,120,26346,1,0,0:0:0:0:
