osu file format v14

[General]
AudioFilename: audio.mp3
AudioLeadIn: 0
PreviewTime: 97984
Countdown: 0
SampleSet: Normal
StackLeniency: 0.4
Mode: 0
LetterboxInBreaks: 0
WidescreenStoryboard: 1

[Editor]
DistanceSpacing: 0.36
BeatDivisor: 8
GridSize: 16
TimelineZoom: 2.800005

[Metadata]
Title:Indoor Kei Nara Trackmaker
TitleUnicode:インドア系ならトラックメイカー
Artist:Yunomi & nicamoq
ArtistUnicode:Yunomi & nicamoq
Creator:diamant66
Version:Trackmaker
Source:
Tags:wiiip
BeatmapID:1343667
BeatmapSetID:618853

[Difficulty]
HPDrainRate:6
CircleSize:4
OverallDifficulty:7
ApproachRate:9.3
SliderMultiplier:1.59999990463257
SliderTickRate:1

[Events]
//Background and Video events
0,0,"__original_drawn_by_natsume_eri__e55448002249776a032c65b0943e54d8.jpg",0,0
//Break Periods
//Storyboard Layer 0 (Background)
//Storyboard Layer 1 (Fail)
//Storyboard Layer 2 (Pass)
//Storyboard Layer 3 (Foreground)
//Storyboard Sound Samples

[TimingPoints]
484,468.75,4,1,0,100,1,0
484,-200,4,1,0,100,0,0
3882,-66.6666666666667,4,1,0,100,0,0
4116,-200,4,1,0,100,0,0
8800,-50,4,1,0,100,0,0
8950,-50,4,1,0,30,0,0
9155,-50,4,1,0,100,0,0
9390,-200,4,1,0,100,0,0
11382,-50,4,1,0,100,0,0
12000,-15,4,1,0,100,0,0
12671,-50,4,1,0,100,0,0
12700,-50,4,1,0,30,0,0
12759,-50,4,1,0,100,0,0
16187,-100,4,1,0,100,0,0
17476,-66.6666666666667,4,1,0,100,0,0
18941,-66.6666666666667,4,1,0,100,0,0
19585,-66.6666666666667,4,1,0,100,0,0
25444,-50,4,1,0,100,0,0
29429,-33,4,1,0,100,0,0
37030,-66.6666666666667,4,1,0,100,0,0
44546,-52.6315789473684,4,1,0,100,0,0
45047,-33,4,1,0,100,0,0
45484,-33,4,1,0,100,0,1
60484,-33,4,1,0,100,0,1
64878,-66.6666666666667,4,1,0,100,0,0
65171,-33,4,1,0,100,0,0
65757,-33,4,2,0,20,0,0
65991,-33,4,1,0,100,0,0
81326,-66.6666666666667,4,1,0,100,0,0
86832,-33.5,4,1,0,100,0,0
97984,-33.5,4,1,0,100,0,1
98042,-33.5,4,1,0,5,0,1
98130,-33.5,4,1,0,100,0,1
98511,-33.5,4,1,0,5,0,1
98599,-33.5,4,1,0,100,0,1
98921,-33.5,4,1,0,5,0,1
99067,-33.5,4,1,0,100,0,1
99800,-33.5,4,1,0,5,0,1
99946,-33.5,4,1,0,100,0,1
100444,-33.5,4,1,0,5,0,1
100532,-33.5,4,1,0,100,0,1
101148,-100,4,1,0,100,0,1
101448,-33.5,4,1,0,100,0,1
101493,-33.5,4,1,0,5,0,1
101646,-33.5,4,1,0,100,0,1
102634,-33.5,4,1,0,5,0,1
102749,-33.5,4,1,0,100,0,1
102984,-33.5,4,1,0,5,0,1
103062,-33.5,4,1,0,100,0,1
103374,-33.5,4,1,0,100,0,0
105484,-15,4,1,0,100,0,1
106948,-15,4,1,0,5,0,1
107007,-15,4,1,0,100,0,1
107066,-15,4,1,0,5,0,1
107124,-15,4,1,0,100,0,1
107974,-15,4,1,0,5,0,1
108032,-66.6666666666667,4,1,0,100,0,1
108062,-66.6666666666667,4,1,0,100,0,1
108413,-66.6666666666667,4,1,0,5,0,1
108463,-66.6666666666667,4,1,0,100,0,1
108584,-15,4,1,0,100,0,1
109291,-15,4,1,0,5,0,1
109380,-15,4,1,0,100,0,1
109468,-15,4,1,0,5,0,1
109556,-15,4,1,0,100,0,1
109761,-15,4,1,0,5,0,1
109849,-15,4,1,0,100,0,1
109937,-15,4,1,0,5,0,1
110025,-15,4,1,0,100,0,1
110493,-15,4,1,0,5,0,1
110581,-15,4,1,0,100,0,1
110669,-15,4,1,0,5,0,1
110728,-15,4,1,0,100,0,1
110786,-15,4,1,0,5,0,1
110845,-15,4,1,0,100,0,1
114448,-15,4,1,0,5,0,1
114507,-15,4,1,0,100,0,1
114566,-15,4,1,0,5,0,1
114624,-15,4,1,0,100,0,1
115386,-15,4,1,0,5,0,1
115503,-15,4,1,0,100,0,1
115650,-133.333333333333,4,1,0,100,0,1
116549,-15,4,1,0,100,0,1
116772,-15,4,1,0,5,0,1
116851,-15,4,1,0,100,0,1
116968,-15,4,1,0,5,0,1
117056,-15,4,1,0,100,0,1
117261,-15,4,1,0,5,0,1
117319,-15,4,1,0,100,0,1
117437,-15,4,1,0,5,0,1
117495,-15,4,1,0,100,0,1
120484,-15,4,1,0,70,0,0
127749,-15,4,1,0,50,0,0
127944,-15,4,1,0,75,0,0
135484,-133.333333333333,4,1,0,60,0,0
136338,-133.333333333333,4,1,0,5,0,0
136860,-133.333333333333,4,1,0,60,0,0
137155,-133.333333333333,4,1,0,5,0,0
137329,-133.333333333333,4,1,0,60,0,0
138035,-133.333333333333,4,1,0,60,0,0
140272,-66.6666666666667,4,1,0,60,0,0
140581,-66.6666666666667,4,1,0,5,0,0
140640,-66.6666666666667,4,1,0,60,0,0
140816,-66.6666666666667,4,1,0,5,0,0
140874,-66.6666666666667,4,1,0,60,0,0
141050,-133.333333333333,4,1,0,5,0,0
141079,-133.333333333333,4,1,0,60,0,0
141109,-133.333333333333,4,1,0,60,0,0
142984,-133.333333333333,4,1,0,80,0,0
145796,-133.333333333333,4,1,0,90,0,0
148140,-133.333333333333,4,1,0,100,0,0
148609,-133.333333333333,4,1,0,80,0,0
150366,-133.333333333333,4,1,0,100,0,1
161382,-50,4,1,0,100,0,1
165464,-33.5,4,1,0,100,0,1
180484,-33.5,4,1,0,85,0,0
182007,-33.5,4,1,0,100,0,0
182124,-66.6666666666667,4,1,0,100,0,0
185054,-34.4827586206897,4,1,0,100,0,0
187984,-15,4,1,0,100,0,0
189653,-15,4,1,0,100,0,0

[HitObjects]
192,144,484,6,0,B|224:112|272:144|272:144,1,79.9999976158142
256,192,1187,1,0,0:0:0:0:
320,240,1421,6,0,B|288:271|240:239|246:242,1,79.9999976158142
192,96,2359,6,0,B|224:64|272:96|272:96,1,79.9999976158142
256,192,3062,1,0,0:0:0:0:
320,288,3296,6,0,B|288:319|240:287|246:290,1,79.9999976158142
264,196,3999,2,0,L|242:131,1,59.9999987125397
192,48,4234,6,0,B|224:16|272:48|272:48,1,79.9999976158142
256,191,4937,1,0,0:0:0:0:
320,352,5171,6,0,B|288:383|240:351|246:354,1,79.9999976158142
80,240,6109,1,0,0:0:0:0:
176,144,6343,1,0,0:0:0:0:
256,192,6577,1,0,0:0:0:0:
336,144,6812,1,0,0:0:0:0:
416,240,7046,1,0,0:0:0:0:
208,160,7984,5,4,0:0:0:0:
304,160,8218,1,0,0:0:0:0:
208,240,8452,1,4,0:0:0:0:
304,240,8687,1,0,0:0:0:0:
256,224,8921,2,4,L|256:256,1,19.9999988079071
256,144,9155,1,0,0:0:0:0:
256,79,9390,1,4,0:0:0:0:
160,128,9859,6,4,P|178:100|192:96,1,39.9999976158142,4|0,0:0|0:0,0:0:0:0:
304,96,10327,1,4,0:0:0:0:
388,192,10562,1,0,0:0:0:0:
316,297,10796,1,4,0:0:0:0:
188,297,11030,1,0,0:0:0:0:
116,190,11265,1,4,0:0:0:0:
320,48,11499,2,0,B|314:77|314:77|324:106|324:106|323:125,1,79.9999952316285
320,320,11734,5,4,0:0:0:0:
240,234,11968,1,0,0:0:0:0:
320,160,12202,1,4,0:0:0:0:
240,80,12437,1,0,0:0:0:0:
80,128,12671,2,4,L|64:112,1,19.9999988079071,4|0,0:0|0:0,0:0:0:0:
128,192,12905,1,0,0:0:0:0:
80,256,13140,1,4,0:0:0:0:
256,192,13609,5,4,0:0:0:0:
256,112,13843,1,0,0:0:0:0:
256,272,14077,1,4,0:0:0:0:
256,32,14312,1,0,0:0:0:0:
256,112,14546,5,0,0:0:0:0:
256,144,14663,1,0,0:0:0:0:
256,224,14898,1,0,0:0:0:0:
256,304,15015,1,0,0:0:0:0:
256,192,15249,1,0,0:0:0:0:
256,160,15308,1,0,0:0:0:0:
256,128,15366,1,0,0:0:0:0:
256,96,15425,1,0,0:0:0:0:
112,96,15718,5,0,0:0:0:0:
368,96,15952,1,4,0:0:0:0:
112,256,16187,1,0,0:0:0:0:
326,296,16304,1,0,0:0:0:0:
352,280,16362,1,0,0:0:0:0:
361,254,16421,1,4,0:0:0:0:
339,195,16655,2,0,P|332:180|301:167,1,39.9999976158142
272,144,16890,2,8,B|250:137|250:137|218:149|218:149|192:144,1,79.9999952316285,8|0,0:0|0:0,0:0:0:0:
96,144,17359,5,4,0:0:0:0:
301,306,17593,2,0,P|334:297|335:258,1,59.9999987125397
336,64,17827,1,4,0:0:0:0:
240,48,18062,1,0,0:0:0:0:
206,69,18179,2,0,P|186:85|166:113,1,59.9999987125397
131,182,18413,1,0,0:0:0:0:
136,221,18530,1,0,0:0:0:0:
259,287,18765,1,0,0:0:0:0:
167,117,18999,2,0,B|190:88|190:88|223:83,1,59.9999987125397
336,80,19234,5,4,0:0:0:0:
400,176,19468,1,0,0:0:0:0:
384,224,19585,1,0,0:0:0:0:
320,304,19702,2,4,P|208:272|208:240,1,119.999997425079,4|0,0:0|0:0,0:0:0:0:
78,219,20054,2,0,L|56:184,1,29.9999993562698
96,240,20171,1,4,0:0:0:0:
192,32,20405,2,0,L|255:57,1,59.9999987125397
400,128,20640,1,4,0:0:0:0:
192,32,20874,1,0,0:0:0:0:
400,128,21109,5,4,0:0:0:0:
272,208,21343,1,0,0:0:0:0:
322,267,21460,1,0,0:0:0:0:
247,288,21577,1,4,0:0:0:0:
118,252,21812,1,0,0:0:0:0:
98,100,22046,2,0,P|136:69|162:68,1,59.9999987125397
256,64,22280,1,0,0:0:0:0:
96,112,22515,2,4,P|141:202|185:212,1,119.999997425079,4|0,0:0|0:0,0:0:0:0:
160,208,22984,5,4,0:0:0:0:
96,112,23218,2,0,L|160:113,1,59.9999987125397
208,112,23452,1,4,0:0:0:0:
256,352,23687,1,0,0:0:0:0:
171,230,23804,1,0,0:0:0:0:
96,112,23921,1,4,0:0:0:0:
372,128,24155,2,0,L|337:196,1,59.9999987125397
256,352,24390,1,4,0:0:0:0:
207,48,24859,5,4,0:0:0:0:
270,81,24976,6,0,L|337:105,1,59.9999987125397
160,160,25210,1,4,0:0:0:0:
223,193,25327,1,0,0:0:0:0:
50,218,25562,1,0,0:0:0:0:
179,317,25796,6,4,P|295:346|369:312,1,159.999990463257,4|0,0:0|0:0,0:0:0:0:
384,287,26148,1,0,0:0:0:0:
410,220,26265,1,0,0:0:0:0:
159,262,26499,6,0,B|181:240|181:240|216:239|216:239|242:219,1,79.9999952316285
127,89,26734,5,4,0:0:0:0:
272,80,26968,1,0,0:0:0:0:
336,112,27085,1,0,0:0:0:0:
80,256,27202,1,4,0:0:0:0:
368,272,27437,2,0,B|318:247|318:247|283:214,1,79.9999952316285
119,78,27671,5,4,0:0:0:0:
189,62,27788,1,0,0:0:0:0:
333,65,28023,1,0,0:0:0:0:
396,98,28140,1,4,0:0:0:0:
441,264,28374,5,0,0:0:0:0:
390,325,28491,1,0,0:0:0:0:
302,362,28609,1,4,0:0:0:0:
206,349,28726,2,0,P|168:334|141:301,1,79.9999952316285
58,214,28960,5,0,0:0:0:0:
58,118,29077,1,4,0:0:0:0:
129,54,29194,2,0,P|171:37|223:39,1,79.9999952316285
351,42,29429,5,0,0:0:0:0:
496,45,29546,1,4,0:0:0:0:
377,129,29663,1,0,0:0:0:0:
223,232,29898,2,4,P|105:305|102:307,1,119.999997425079,4|0,0:0|0:0,0:0:0:0:
465,59,30249,5,0,0:0:0:0:
432,224,30484,5,0,0:0:0:0:
374,278,30601,1,0,0:0:0:0:
303,312,30718,1,0,0:0:0:0:
224,321,30835,1,0,0:0:0:0:
149,296,30952,1,0,0:0:0:0:
72,157,31187,1,0,0:0:0:0:
108,87,31304,1,0,0:0:0:0:
352,96,31421,5,0,0:0:0:0:
352,272,31655,1,0,0:0:0:0:
176,64,31890,1,0,0:0:0:0:
176,320,32124,1,0,0:0:0:0:
256,192,32359,5,0,0:0:0:0:
71,213,32593,2,0,P|86:145|141:102,1,121.212113987316
187,67,32827,1,0,0:0:0:0:
265,58,32944,1,0,0:0:0:0:
339,84,33062,1,0,0:0:0:0:
390,143,33179,1,0,0:0:0:0:
304,288,33296,5,0,0:0:0:0:
208,288,33413,1,0,0:0:0:0:
304,96,33648,1,0,0:0:0:0:
208,96,33765,1,0,0:0:0:0:
185,286,33999,2,0,B|214:218|122:221|79:236|142:193|96:169,1,121.212113987316
108,130,34234,5,0,0:0:0:0:
343,89,34468,1,0,0:0:0:0:
387,161,34585,1,0,0:0:0:0:
364,242,34702,1,0,0:0:0:0:
194,233,34937,1,0,0:0:0:0:
96,167,35054,1,0,0:0:0:0:
400,160,35171,5,0,0:0:0:0:
96,167,35405,2,0,B|135:144|198:179|251:165,1,121.212113987316
258,330,35640,1,0,0:0:0:0:
244,52,35874,1,0,0:0:0:0:
383,226,36109,5,0,0:0:0:0:
339,298,36226,2,0,B|290:287|290:287|274:304|252:302|252:302|201:289|184:294,1,121.212113987316
132,286,36460,1,0,0:0:0:0:
60,240,36577,1,0,0:0:0:0:
112,110,36812,1,0,0:0:0:0:
256,192,37046,2,0,L|256:82,1,59.9999987125397
256,47,37280,5,0,0:0:0:0:
256,272,37398,1,0,0:0:0:0:
256,192,37515,1,0,0:0:0:0:
337,81,37749,2,0,P|380:108|382:135,1,59.9999987125397
244,61,37984,5,8,0:0:0:0:
167,94,38101,1,0,0:0:0:0:
105,150,38218,1,0,0:0:0:0:
122,232,38335,1,8,0:0:0:0:
177,294,38452,1,8,0:0:0:0:
304,192,38687,1,8,0:0:0:0:
208,192,38804,1,0,0:0:0:0:
304,304,38921,5,8,0:0:0:0:
409,116,39155,2,0,L|335:115,1,59.9999987125397
160,112,39390,1,8,0:0:0:0:
208,304,39624,1,8,0:0:0:0:
256,80,39859,5,8,0:0:0:0:
261,293,40093,2,0,B|238:290|238:290|221:270|221:270|202:260,1,59.9999987125397
144,160,40327,1,0,0:0:0:0:
221,223,40444,1,8,0:0:0:0:
299,160,40562,1,8,0:0:0:0:
368,224,40679,1,8,0:0:0:0:
440,286,40796,5,8,0:0:0:0:
366,347,40913,1,0,0:0:0:0:
160,336,41148,1,0,0:0:0:0:
112,252,41265,1,8,0:0:0:0:
208,99,41499,2,0,B|205:119|205:119|182:140|182:140|176:156,1,59.9999987125397
256,32,41734,5,8,0:0:0:0:
256,144,41968,5,8,0:0:0:0:
304,240,42085,1,8,0:0:0:0:
208,239,42202,1,8,0:0:0:0:
374,242,42437,5,8,0:0:0:0:
338,274,42554,1,8,0:0:0:0:
289,296,42671,1,8,0:0:0:0:
229,304,42788,1,8,0:0:0:0:
164,292,42905,1,8,0:0:0:0:
102,253,43023,1,8,0:0:0:0:
65,184,43140,1,8,0:0:0:0:
92,104,43257,1,8,0:0:0:0:
172,63,43374,1,8,0:0:0:0:
257,115,43609,5,0,0:0:0:0:
321,231,43726,1,0,0:0:0:0:
189,229,43843,1,0,0:0:0:0:
258,49,44077,5,0,0:0:0:0:
378,265,44194,1,0,0:0:0:0:
131,261,44311,1,0,0:0:0:0:
288,192,44546,5,0,0:0:0:0:
208,192,44663,2,0,L|304:192,1,75.9999934406283
96,192,44898,1,0,0:0:0:0:
256,192,45015,1,0,0:0:0:0:
400,192,45249,1,0,0:0:0:0:
58,66,45484,6,4,L|315:101,1,242.424227974632,4|0,0:0|0:0,0:0:0:0:
90,286,45952,2,4,L|347:321,1,242.424227974632,4|0,0:0|0:0,0:0:0:0:
128,78,46421,2,4,L|385:113,1,242.424227974632,4|0,0:0|0:0,0:0:0:0:
255,193,46890,1,4,0:0:0:0:
405,331,47359,6,4,L|165:299,1,242.424227974632,4|0,0:0|0:0,0:0:0:0:
335,105,47827,2,4,L|95:73,1,242.424227974632,4|0,0:0|0:0,0:0:0:0:
180,188,48296,1,0,0:0:0:0:
163,267,48413,1,0,0:0:0:0:
349,239,48648,1,0,0:0:0:0:
316,314,48765,1,8,0:0:0:0:
303,105,48999,5,0,0:0:0:0:
230,95,49116,1,0,0:0:0:0:
63,73,49234,6,4,L|320:108,1,242.424227974632,4|0,0:0|0:0,0:0:0:0:
420,164,49702,2,4,L|163:199,1,242.424227974632,4|0,0:0|0:0,0:0:0:0:
58,251,50171,2,4,L|315:286,1,242.424227974632,4|0,0:0|0:0,0:0:0:0:
84,137,50640,1,0,0:0:0:0:
84,137,51109,6,4,L|341:172,1,242.424227974632,4|0,0:0|0:0,0:0:0:0:
84,137,51577,2,4,L|341:172,1,242.424227974632,4|0,0:0|3:2,0:0:0:0:
423,137,52046,1,0,0:0:0:0:
350,93,52163,1,0,0:0:0:0:
206,80,52398,1,0,0:0:0:0:
144,138,52515,1,0,0:0:0:0:
222,336,52749,1,0,0:0:0:0:
222,336,52984,6,4,B|399:289|447:223|447:227,1,242.424227974632,4|0,0:0|0:0,0:0:0:0:
439,233,53335,1,0,0:0:0:0:
199,200,53452,2,4,L|456:235,1,242.424227974632,4|0,0:0|0:0,0:0:0:0:
439,233,53804,1,0,0:0:0:0:
416,97,53921,2,4,B|239:144|191:210|191:206,1,242.424227974632,4|0,0:0|0:0,0:0:0:0:
198,199,54273,1,0,0:0:0:0:
416,97,54390,1,0,0:0:0:0:
51,46,54859,6,0,B|31:192|343:226|235:128,1,242.424227974632,4|0,0:0|0:0,0:0:0:0:
218,187,55210,1,0,0:0:0:0:
115,155,55327,2,0,B|95:301|407:335|299:237,1,242.424227974632,4|0,0:0|0:0,0:0:0:0:
281,292,55679,1,0,0:0:0:0:
363,273,55796,1,0,0:0:0:0:
428,219,55913,1,0,0:0:0:0:
293,203,56148,1,0,0:0:0:0:
277,119,56265,1,0,0:0:0:0:
148,275,56499,5,0,0:0:0:0:
207,214,56616,1,0,0:0:0:0:
279,169,56734,6,0,B|461:65|440:356|463:251,1,242.424227974632,4|0,0:0|0:0,0:0:0:0:
448,264,57085,1,0,0:0:0:0:
169,92,57202,2,0,B|268:68|501:238|395:174,1,242.424227974632,4|0,0:0|0:0,0:0:0:0:
394,168,57554,1,0,0:0:0:0:
443,268,57671,2,0,B|406:353|182:349|247:163,1,242.424227974632,4|0,0:0|0:0,0:0:0:0:
242,264,58023,1,0,0:0:0:0:
157,102,58140,1,0,0:0:0:0:
416,288,58609,5,4,0:0:0:0:
358,66,58843,1,0,0:0:0:0:
107,109,59077,1,4,0:0:0:0:
153,333,59312,1,0,0:0:0:0:
261,192,59546,5,0,0:0:0:0:
308,261,59663,1,0,0:0:0:0:
201,90,59898,1,0,0:0:0:0:
119,114,60015,1,0,0:0:0:0:
73,185,60132,1,0,0:0:0:0:
102,264,60249,1,0,0:0:0:0:
316,33,60484,5,4,0:0:0:0:
357,99,60601,1,0,0:0:0:0:
354,177,60718,1,0,0:0:0:0:
327,251,60835,1,0,0:0:0:0:
258,289,60952,1,4,0:0:0:0:
41,204,61187,6,0,P|94:152|152:131,1,121.212113987316
212,115,61421,1,4,0:0:0:0:
290,124,61538,1,0,0:0:0:0:
363,152,61655,1,0,0:0:0:0:
405,219,61773,1,0,0:0:0:0:
393,296,61890,1,4,0:0:0:0:
242,340,62124,1,0,0:0:0:0:
112,254,62359,5,4,0:0:0:0:
160,60,62593,1,0,0:0:0:0:
233,81,62710,1,0,0:0:0:0:
101,102,62944,1,0,0:0:0:0:
363,147,63179,5,0,0:0:0:0:
385,257,63413,1,0,0:0:0:0:
325,308,63530,2,0,P|266:331|187:322,1,121.212113987316
208,328,63765,1,4,0:0:0:0:
75,242,63999,1,0,0:0:0:0:
69,163,64116,1,0,0:0:0:0:
117,61,64234,6,0,P|185:54|249:84,1,121.212113987316,4|0,0:0|0:0,0:0:0:0:
284,132,64468,1,0,0:0:0:0:
298,209,64585,1,0,0:0:0:0:
263,279,64702,1,4,0:0:0:0:
135,322,64937,2,0,P|104:308|80:271,1,59.9999987125397
73,184,65171,5,4,0:0:0:0:
114,117,65288,2,0,P|172:85|246:103,1,121.212113987316
295,127,65523,1,0,0:0:0:0:
396,182,65640,2,0,B|430:336|266:354,1,242.424227974632,4|0,0:0|0:0,0:0:0:0:
173,322,66109,5,4,0:0:0:0:
184,250,66226,1,0,0:0:0:0:
216,185,66343,1,0,0:0:0:0:
275,143,66460,1,0,0:0:0:0:
347,141,66577,1,4,0:0:0:0:
173,322,66812,5,0,0:0:0:0:
106,279,66929,1,0,0:0:0:0:
66,210,67046,1,4,0:0:0:0:
87,134,67163,1,0,0:0:0:0:
142,78,67280,1,0,0:0:0:0:
214,45,67398,1,0,0:0:0:0:
292,42,67515,1,4,0:0:0:0:
415,239,67749,1,0,0:0:0:0:
470,174,67984,6,0,P|444:77|263:72,1,242.424227974632,4|0,0:0|0:0,0:0:0:0:
186,56,68452,5,4,0:0:0:0:
117,94,68569,1,0,0:0:0:0:
71,158,68687,1,0,0:0:0:0:
83,235,68804,1,0,0:0:0:0:
132,296,68921,1,4,0:0:0:0:
204,326,69038,1,0,0:0:0:0:
282,332,69155,1,0,0:0:0:0:
356,304,69273,1,0,0:0:0:0:
405,243,69390,1,4,0:0:0:0:
317,82,69624,5,0,0:0:0:0:
130,292,69859,5,4,0:0:0:0:
86,237,69976,1,0,0:0:0:0:
54,174,70093,1,0,0:0:0:0:
65,104,70210,1,0,0:0:0:0:
114,54,70327,1,4,0:0:0:0:
183,48,70444,1,0,0:0:0:0:
243,84,70562,1,0,0:0:0:0:
278,144,70679,1,0,0:0:0:0:
304,241,70796,5,4,0:0:0:0:
371,200,70913,1,0,0:0:0:0:
407,130,71030,1,0,0:0:0:0:
375,57,71148,1,0,0:0:0:0:
301,30,71265,1,4,0:0:0:0:
128,320,71499,6,8,P|70:295|41:228,1,121.212113987316,8|8,3:0|3:0,3:0:0:0:
71,170,71734,5,4,0:0:0:0:
147,189,71851,1,0,0:0:0:0:
206,137,71968,1,0,0:0:0:0:
232,62,72085,1,0,0:0:0:0:
308,42,72202,1,4,0:0:0:0:
371,89,72319,1,0,0:0:0:0:
394,164,72437,1,0,0:0:0:0:
352,230,72554,1,0,0:0:0:0:
288,275,72671,5,4,0:0:0:0:
56,138,72827,1,0,0:0:0:0:
280,53,72984,1,0,0:0:0:0:
395,135,73140,2,0,B|299:156|290:247|189:270,1,242.424227974632,4|0,0:0|0:0,0:0:0:0:
288,57,73609,5,4,0:0:0:0:
161,80,73843,5,4,0:0:0:0:
130,152,73960,1,4,0:0:0:0:
138,230,74077,1,4,0:0:0:0:
281,302,74312,5,4,0:0:0:0:
393,257,74429,1,4,0:0:0:0:
417,138,74546,1,4,0:0:0:0:
139,216,74780,5,0,0:0:0:0:
417,138,75015,2,0,B|350:235|285:200|259:105|224:197|180:200,1,242.424227974632,4|0,0:0|0:0,0:0:0:0:
280,55,75484,5,0,0:0:0:0:
341,104,75601,1,0,0:0:0:0:
386,168,75718,1,0,0:0:0:0:
358,241,75835,1,0,0:0:0:0:
297,291,75952,1,0,0:0:0:0:
145,247,76187,5,0,0:0:0:0:
96,182,76304,1,0,0:0:0:0:
88,146,76362,1,0,0:0:0:0:
119,121,76421,1,0,0:0:0:0:
392,163,76655,1,0,0:0:0:0:
143,49,76890,1,0,0:0:0:0:
191,307,77124,1,0,0:0:0:0:
416,251,77359,5,0,0:0:0:0:
392,80,77593,6,0,P|336:60|270:52,1,121.212113987316
190,60,77827,5,0,0:0:0:0:
110,88,77944,1,0,0:0:0:0:
56,154,78062,1,0,0:0:0:0:
70,237,78179,1,0,0:0:0:0:
140,283,78296,5,0,0:0:0:0:
94,85,78413,1,0,0:0:0:0:
333,87,78648,1,0,0:0:0:0:
367,182,78765,1,0,0:0:0:0:
34,178,78999,2,0,P|73:235|132:247,1,121.212113987316
300,228,79234,5,0,0:0:0:0:
180,274,79429,1,0,0:0:0:0:
192,144,79585,1,0,0:0:0:0:
384,217,79702,1,0,0:0:0:0:
122,114,79898,1,0,0:0:0:0:
172,331,80054,1,0,0:0:0:0:
201,334,80112,1,0,0:0:0:0:
231,331,80171,1,0,0:0:0:0:
290,319,80288,6,0,P|348:304|373:230,1,121.212113987316
384,174,80523,1,0,0:0:0:0:
341,107,80640,1,0,0:0:0:0:
269,73,80757,1,0,0:0:0:0:
190,73,80874,1,0,0:0:0:0:
55,260,81109,5,0,0:0:0:0:
404,155,81343,1,0,0:0:0:0:
160,58,81577,1,0,0:0:0:0:
294,248,81812,1,0,0:0:0:0:
218,285,81929,1,0,0:0:0:0:
134,280,82046,6,0,B|87:218|87:218|93:152,1,119.999997425079
167,179,82398,1,0,0:0:0:0:
236,143,82515,1,0,0:0:0:0:
408,193,82749,1,0,0:0:0:0:
64,75,82984,5,0,3:0:0:0:
64,75,83101,1,0,3:0:0:0:
64,75,83218,1,0,3:0:0:0:
64,75,83335,1,0,3:0:0:0:
136,149,83452,1,0,3:0:0:0:
136,149,83569,1,0,3:0:0:0:
136,149,83687,1,0,3:0:0:0:
136,149,83804,1,0,3:0:0:0:
221,225,83921,5,0,3:0:0:0:
232,238,84038,1,0,3:0:0:0:
248,245,84155,1,0,3:0:0:0:
265,240,84273,1,0,3:0:0:0:
337,148,84390,1,0,3:0:0:0:
295,89,84507,1,0,3:0:0:0:
227,64,84624,1,0,3:0:0:0:
156,75,84741,1,0,3:0:0:0:
95,114,84859,5,0,3:0:0:0:
156,75,84976,1,0,3:0:0:0:
227,64,85093,1,0,3:0:0:0:
295,89,85210,1,0,3:0:0:0:
350,152,85327,5,0,3:0:0:0:
370,233,85444,1,0,3:0:0:0:
322,302,85562,1,0,3:0:0:0:
242,328,85679,1,0,3:0:0:0:
167,295,85796,5,0,3:0:0:0:
167,295,85913,1,0,3:0:0:0:
167,295,86030,1,0,3:0:0:0:
167,295,86148,1,0,3:0:0:0:
111,200,86265,5,0,3:0:0:0:
136,95,86382,1,0,3:0:0:0:
238,60,86499,1,0,3:0:0:0:
345,72,86616,1,0,3:0:0:0:
449,103,86734,5,0,3:0:0:0:
446,111,86792,1,0,3:0:0:0:
442,122,86851,1,0,3:0:0:0:
439,133,86909,1,0,3:0:0:0:
434,144,86968,1,0,3:0:0:0:
429,154,87026,1,0,3:0:0:0:
422,164,87085,1,0,3:0:0:0:
416,174,87144,1,0,3:0:0:0:
410,184,87202,2,0,P|387:209|364:223,3,59.7014889788272,0|0|0|0,3:0|3:0|3:0|3:0,3:0:0:0:
355,229,87437,2,0,P|321:219|292:250,3,59.7014889788272,0|0|0|0,3:0|3:0|3:0|3:0,3:0:0:0:
291,237,87671,5,0,3:0:0:0:
283,246,87730,1,0,3:0:0:0:
273,253,87788,1,0,3:0:0:0:
263,260,87847,1,0,3:0:0:0:
248,269,87905,1,0,3:0:0:0:
230,274,87964,1,0,3:0:0:0:
206,267,88023,1,0,3:0:0:0:
184,256,88081,1,0,3:0:0:0:
163,234,88140,5,0,3:0:0:0:
148,208,88198,1,0,3:0:0:0:
138,173,88257,1,0,3:0:0:0:
140,131,88316,1,0,3:0:0:0:
179,87,88374,1,0,3:0:0:0:
239,60,88433,1,0,3:0:0:0:
398,192,88551,5,0,0:0:0:0:
140,275,88668,1,0,0:0:0:0:
299,56,88784,1,0,0:0:0:0:
299,327,88901,1,0,0:0:0:0:
140,108,89019,1,0,0:0:0:0:
256,96,89312,5,0,0:0:0:0:
256,288,89429,1,0,0:0:0:0:
288,192,89546,5,0,0:0:0:0:
224,192,89663,1,0,0:0:0:0:
224,192,89898,1,0,0:0:0:0:
288,192,90015,1,0,0:0:0:0:
256,32,90249,1,0,0:0:0:0:
430,46,90484,5,0,0:0:0:0:
27,196,90659,1,0,0:0:0:0:
164,345,90835,1,0,0:0:0:0:
430,338,90952,5,0,0:0:0:0:
27,188,91128,1,0,0:0:0:0:
164,39,91304,1,0,0:0:0:0:
279,220,91597,5,0,0:0:0:0:
225,176,91655,1,0,0:0:0:0:
111,278,91890,1,0,0:0:0:0:
382,309,92007,1,0,0:0:0:0:
312,84,92124,1,0,0:0:0:0:
77,47,92515,5,0,0:0:0:0:
97,330,92671,1,0,0:0:0:0:
251,96,92827,1,0,0:0:0:0:
199,216,93062,1,0,0:0:0:0:
37,178,93179,1,0,0:0:0:0:
288,160,93452,1,0,0:0:0:0:
224,160,93530,1,0,0:0:0:0:
256,48,93765,1,0,0:0:0:0:
40,35,94234,5,0,0:0:0:0:
314,330,94409,1,0,0:0:0:0:
312,183,94585,1,0,0:0:0:0:
379,105,94702,1,0,0:0:0:0:
21,301,94878,1,0,0:0:0:0:
100,159,95054,1,0,0:0:0:0:
300,298,95327,5,0,0:0:0:0:
358,230,95405,1,0,0:0:0:0:
267,33,95640,1,0,0:0:0:0:
111,168,95757,1,0,0:0:0:0:
131,261,95874,1,0,0:0:0:0:
304,293,96265,5,0,0:0:0:0:
445,151,96421,1,0,0:0:0:0:
198,215,96577,1,0,0:0:0:0:
355,47,96734,1,0,0:0:0:0:
137,15,96890,1,0,0:0:0:0:
198,215,97046,1,0,0:0:0:0:
355,47,97280,1,0,0:0:0:0:
1,143,97984,6,0,P|40:93|126:87,1,119.402977957654
173,90,98159,1,0,0:0:0:0:
343,164,98335,1,0,0:0:0:0:
14,266,98452,2,0,P|84:320|144:300,1,119.402977957654
181,292,98628,1,0,0:0:0:0:
343,164,98804,2,0,B|354:92|281:69|175:89|197:149,1,208.955211425895
145,203,99038,5,0,0:0:0:0:
218,291,99155,1,0,0:0:0:0:
394,321,99390,1,0,0:0:0:0:
444,226,99507,1,0,0:0:0:0:
409,114,99624,2,0,B|411:30|273:-5|260:117|149:116,1,298.507444894136
79,127,99976,5,0,0:0:0:0:
136,313,100151,1,0,0:0:0:0:
386,182,100327,2,0,L|197:276,1,179.104466936482
136,313,100562,1,0,0:0:0:0:
84,250,100679,2,0,P|65:198|232:121,1,238.805955915309
286,82,100972,1,0,0:0:0:0:
136,313,101030,1,0,0:0:0:0:
264,176,101265,6,0,P|250:228|197:260,1,99.9999940395356
391,255,101734,6,0,P|371:179|283:117,1,179.104466936482
198,293,102085,1,0,0:0:0:0:
294,119,102202,2,0,P|204:106|114:124,1,179.104466936482
118,122,102554,2,0,L|-33:207,1,119.402977957654
292,322,102788,5,0,0:0:0:0:
369,267,102847,2,0,P|415:194|339:92,1,179.104466936482
301,61,103140,1,0,0:0:0:0:
94,249,103257,1,0,0:0:0:0:
24,85,103374,1,0,0:0:0:0:
185,325,103609,5,0,0:0:0:0:
232,235,103726,1,0,0:0:0:0:
150,161,103843,1,0,0:0:0:0:
311,125,103960,1,0,0:0:0:0:
174,36,104077,1,0,0:0:0:0:
121,244,104312,5,0,0:0:0:0:
321,242,104429,1,0,0:0:0:0:
215,70,104546,1,0,0:0:0:0:
113,98,104780,6,0,B|-21:247|236:198|236:198|293:298|351:304|360:230|365:223|341:191|325:202|332:162|391:208|387:173|411:157|423:131|377:147|369:158|371:124|421:90,1,597.014889788272
137,326,105484,6,0,P|295:329|350:116,1,399.999976158142
226,182,105874,1,0,0:0:0:0:
131,44,105952,6,0,P|36:210|185:299,1,399.999976158142
209,162,106333,1,0,0:0:0:0:
25,265,106597,5,0,0:0:0:0:
59,95,106655,2,0,B|179:159|203:244|203:244|258:141|464:124,1,399.999976158142
353,142,106890,2,0,P|393:168|383:244,1,133.333325386047
345,283,107007,2,0,P|279:331|214:341,1,133.333325386047
179,343,107124,1,0,0:0:0:0:
50,191,107534,5,0,0:0:0:0:
166,33,107651,1,0,0:0:0:0:
205,217,107827,2,0,B|185:320|479:353|495:207|471:141,1,399.999976158142
435,81,108062,1,0,0:0:0:0:
329,76,108179,2,0,B|288:82|264:91|264:91|214:67|214:67|188:77|188:77,1,149.999996781349
189,324,108560,1,0,0:0:0:0:
74,115,109234,6,0,B|124:55|162:51|268:63|282:73,1,199.999988079071
256,65,109409,2,0,B|369:111|340:206|217:194|221:189,1,199.999988079071
162,223,109585,1,0,0:0:0:0:
97,278,109702,6,0,B|67:337|122:394|221:365|314:290,1,266.666650772095
286,310,109878,2,0,B|361:246|313:143|189:189,1,199.999988079071
151,158,110112,1,0,0:0:0:0:
363,296,110347,5,0,0:0:0:0:
406,227,110405,6,0,P|440:138|275:64,1,266.666650772095
251,57,110640,2,0,L|99:94,1,133.333325386047
70,144,110757,2,0,L|217:202,1,133.333325386047
273,224,110874,1,0,0:0:0:0:
179,357,111284,5,0,0:0:0:0:
381,310,111431,1,0,0:0:0:0:
256,192,111577,1,0,0:0:0:0:
317,30,111753,1,0,0:0:0:0:
114,76,111900,1,0,0:0:0:0:
317,30,112046,1,0,0:0:0:0:
179,357,112280,1,0,0:0:0:0:
96,192,112749,6,0,P|166:158|256:192,1,133.333325386047
169,239,112984,2,0,B|421:387|354:242|334:320|212:115|580:399|507:211|388:181|369:92,1,399.999976158142
173,243,113335,1,0,0:0:0:0:
335,137,113452,6,0,B|207:172|71:-7|123:244|78:381|30:216|40:168,1,399.999976158142
335,137,113804,1,0,0:0:0:0:
138,320,114097,5,0,0:0:0:0:
77,215,114155,2,0,B|40:133|89:95|89:95|135:124|135:124|140:62|140:62|201:36|276:156,1,399.999976158142
314,207,114390,2,0,L|463:265,1,133.333325386047
438,255,114507,2,0,L|278:327,1,133.333325386047
314,207,114624,1,0,0:0:0:0:
120,55,115034,5,0,0:0:0:0:
209,340,115151,1,0,0:0:0:0:
374,255,115327,2,0,B|419:174|397:136|397:136|425:66|291:57,1,266.666650772095
174,60,115562,1,0,0:0:0:0:
58,99,115718,2,0,B|62:129|62:129|54:140|64:160,1,59.9999987125397
401,99,116030,1,0,0:0:0:0:
80,288,116734,6,0,P|241:306|260:241,1,199.999988079071
170,252,116909,2,0,P|237:150|328:197,1,199.999988079071
363,210,117085,1,0,0:0:0:0:
227,260,117202,6,0,P|362:207|340:166,1,199.999988079071
283,189,117378,2,0,P|154:157|124:199,1,199.999988079071
129,281,117554,1,0,0:0:0:0:
400,220,117847,5,0,0:0:0:0:
193,281,117905,6,0,B|217:193|237:225|257:216|281:180|281:180|322:215|336:195|376:226|457:224,1,266.666650772095
140,55,118140,6,0,L|295:85,1,133.333325386047
317,143,118257,2,0,L|170:194,1,133.333325386047
264,312,118374,1,0,0:0:0:0:
278,152,118765,5,0,0:0:0:0:
202,184,118921,1,0,0:0:0:0:
267,234,119077,1,0,0:0:0:0:
375,100,119234,1,0,0:0:0:0:
101,100,119390,1,0,0:0:0:0:
235,336,119546,1,0,0:0:0:0:
256,194,119780,1,0,0:0:0:0:
255,195,120484,5,0,0:0:0:0:
285,271,120601,1,0,0:0:0:0:
363,295,120718,1,0,0:0:0:0:
441,270,120835,1,0,0:0:0:0:
475,195,120952,1,0,0:0:0:0:
361,74,121187,5,0,0:0:0:0:
282,49,121304,1,0,0:0:0:0:
199,50,121421,5,0,0:0:0:0:
114,364,121655,1,0,0:0:0:0:
397,234,121890,1,0,0:0:0:0:
11,138,122124,1,0,0:0:0:0:
212,49,122359,5,0,0:0:0:0:
372,107,122593,1,0,0:0:0:0:
396,275,122827,1,0,0:0:0:0:
330,325,122944,1,0,0:0:0:0:
247,335,123062,1,0,0:0:0:0:
172,298,123179,1,0,0:0:0:0:
126,228,123296,5,0,0:0:0:0:
281,83,123413,1,0,0:0:0:0:
155,64,123648,1,0,0:0:0:0:
257,230,123765,1,0,0:0:0:0:
205,147,123999,1,0,0:0:0:0:
336,82,124234,5,0,0:0:0:0:
134,112,124468,1,0,0:0:0:0:
176,182,124585,1,0,0:0:0:0:
93,183,124702,1,0,0:0:0:0:
378,294,124937,5,0,0:0:0:0:
395,213,125054,1,0,0:0:0:0:
316,238,125171,1,0,0:0:0:0:
142,264,125405,1,0,0:0:0:0:
40,119,125640,1,0,0:0:0:0:
179,12,125874,1,0,0:0:0:0:
327,199,126109,5,0,0:0:0:0:
428,148,126226,1,0,0:0:0:0:
285,123,126460,1,0,0:0:0:0:
192,179,126577,1,0,0:0:0:0:
31,308,126812,1,0,0:0:0:0:
107,199,127046,5,0,0:0:0:0:
6,148,127163,1,0,0:0:0:0:
149,123,127398,1,0,0:0:0:0:
242,179,127515,1,0,0:0:0:0:
403,308,127749,1,4,0:0:0:0:
432,282,127808,1,4,0:0:0:0:
448,247,127866,1,4,0:0:0:0:
453,208,127925,1,4,0:0:0:0:
437,172,127984,5,0,0:0:0:0:
378,110,128101,1,0,0:0:0:0:
292,113,128218,1,0,0:0:0:0:
234,176,128335,1,0,0:0:0:0:
264,255,128452,1,0,0:0:0:0:
92,256,128687,5,0,0:0:0:0:
131,177,128804,1,0,0:0:0:0:
82,107,128921,1,0,0:0:0:0:
404,73,129155,1,0,0:0:0:0:
213,323,129390,1,0,0:0:0:0:
116,61,129624,1,0,0:0:0:0:
376,121,129859,5,0,0:0:0:0:
313,296,130093,1,0,0:0:0:0:
127,316,130327,1,0,0:0:0:0:
50,271,130444,1,0,0:0:0:0:
22,189,130562,1,0,0:0:0:0:
72,121,130679,1,0,0:0:0:0:
139,65,130796,5,0,0:0:0:0:
72,121,130913,1,0,0:0:0:0:
327,74,131148,1,0,0:0:0:0:
376,146,131265,1,0,0:0:0:0:
209,284,131499,1,0,0:0:0:0:
453,201,131734,5,0,0:0:0:0:
353,324,131968,1,0,0:0:0:0:
267,343,132085,1,0,0:0:0:0:
180,327,132202,1,0,0:0:0:0:
110,273,132319,1,0,0:0:0:0:
64,197,132437,1,0,0:0:0:0:
182,37,132671,5,0,0:0:0:0:
341,95,132905,1,0,0:0:0:0:
353,265,133140,1,0,0:0:0:0:
284,315,133257,1,0,0:0:0:0:
198,313,133374,1,0,0:0:0:0:
251,251,133609,5,0,0:0:0:0:
327,120,133726,1,0,0:0:0:0:
183,120,133843,1,0,0:0:0:0:
255,334,134077,5,0,0:0:0:0:
407,71,134194,1,0,0:0:0:0:
119,70,134312,1,0,0:0:0:0:
208,192,134546,5,0,0:0:0:0:
304,192,134663,1,0,0:0:0:0:
384,192,134898,1,0,0:0:0:0:
128,192,135015,1,0,0:0:0:0:
256,192,135249,1,0,0:0:0:0:
34,200,135484,6,0,B|97:68|243:60|228:142|318:167,1,344.999992597103
316,166,136890,2,0,P|320:236|295:261,1,104.999997746944
298,258,137359,2,0,B|230:233|230:233|203:304|126:312|119:299,1,209.999995493889
114,297,138237,1,0,0:0:0:0:
101,286,138296,2,0,B|59:214|51:181|57:165,1,119.999997425079
41,75,139234,6,0,B|66:109|113:92|113:92|148:38|270:45,1,239.999994850159
319,119,140405,2,0,P|257:136|218:153,1,104.999997746944,0|0,2:0|2:0,2:0:0:0:
179,193,140640,2,0,P|263:218|289:228,1,104.999997746944,0|0,2:0|2:0,2:0:0:0:
335,269,140874,2,0,P|289:279|232:309,1,104.999997746944,0|0,2:0|2:0,2:0:0:0:
218,314,141109,6,0,P|96:317|5:241,1,239.999994850159,0|0,2:0|2:0,2:0:0:0:
135,175,142398,1,0,2:0:0:0:
91,117,142515,2,0,L|154:103,1,59.9999987125397,0|0,2:0|2:0,2:0:0:0:
110,250,142984,5,8,0:0:0:0:
394,155,143335,1,8,0:0:0:0:
110,250,143452,1,8,0:0:0:0:
394,155,143687,1,8,0:0:0:0:
105,123,143921,5,8,0:0:0:0:
379,277,144273,1,8,0:0:0:0:
105,123,144390,1,8,0:0:0:0:
379,277,144624,1,8,0:0:0:0:
137,295,144859,5,8,0:0:0:0:
389,78,145210,1,8,0:0:0:0:
137,295,145327,1,8,0:0:0:0:
389,78,145562,1,8,0:0:0:0:
62,166,145796,5,8,0:0:0:0:
414,307,146148,1,8,0:0:0:0:
62,166,146265,1,8,0:0:0:0:
414,307,146499,1,8,0:0:0:0:
231,168,146734,5,8,0:0:0:0:
156,115,146968,1,8,0:0:0:0:
217,263,147085,1,8,0:0:0:0:
318,129,147202,1,8,0:0:0:0:
231,168,147437,1,8,0:0:0:0:
179,162,147671,5,8,0:0:0:0:
331,77,147788,1,8,0:0:0:0:
243,299,147905,1,8,0:0:0:0:
415,187,148023,1,8,0:0:0:0:
103,146,148140,1,8,0:0:0:0:
332,4,148257,1,8,0:0:0:0:
225,370,148374,1,8,0:0:0:0:
485,214,148491,1,8,0:0:0:0:
186,206,148609,5,0,0:0:0:0:
213,152,148843,1,0,0:0:0:0:
262,118,149077,1,0,0:0:0:0:
322,115,149312,1,0,0:0:0:0:
395,181,149546,5,0,0:0:0:0:
186,321,149663,1,0,0:0:0:0:
264,86,149780,1,0,0:0:0:0:
338,313,149898,1,0,0:0:0:0:
137,173,150015,1,0,0:0:0:0:
263,203,150249,5,0,0:0:0:0:
118,71,150484,5,0,0:0:0:0:
346,313,150601,1,0,0:0:0:0:
82,143,150718,1,0,0:0:0:0:
394,255,150835,1,0,0:0:0:0:
241,184,150952,1,0,0:0:0:0:
131,321,151187,1,0,0:0:0:0:
367,61,151304,1,0,0:0:0:0:
272,256,151421,5,0,0:0:0:0:
192,192,151655,1,0,0:0:0:0:
256,112,151890,1,0,0:0:0:0:
336,176,152124,1,0,0:0:0:0:
192,192,152359,5,0,0:0:0:0:
336,176,152593,1,0,0:0:0:0:
192,192,152710,1,0,0:0:0:0:
384,92,152827,1,0,0:0:0:0:
70,164,152944,1,0,0:0:0:0:
444,214,153062,1,0,0:0:0:0:
124,293,153179,1,0,0:0:0:0:
275,297,153296,5,0,0:0:0:0:
50,224,153413,1,0,0:0:0:0:
211,51,153648,1,0,0:0:0:0:
275,297,153765,1,0,0:0:0:0:
252,179,153999,2,0,P|238:180|221:181,1,29.9999993562698
252,179,154234,5,0,0:0:0:0:
219,73,154468,1,0,0:0:0:0:
199,273,154585,1,0,0:0:0:0:
362,205,154702,1,0,0:0:0:0:
289,268,154937,1,0,0:0:0:0:
321,58,155054,1,0,0:0:0:0:
127,130,155171,5,0,0:0:0:0:
222,83,155405,1,0,0:0:0:0:
279,176,155640,1,0,0:0:0:0:
185,225,155874,1,0,0:0:0:0:
102,309,156109,5,0,0:0:0:0:
406,98,156226,1,0,0:0:0:0:
483,87,156460,1,0,0:0:0:0:
26,300,156577,1,0,0:0:0:0:
266,205,156812,1,0,0:0:0:0:
109,63,157046,5,0,0:0:0:0:
369,275,157163,1,0,0:0:0:0:
444,280,157398,1,0,0:0:0:0:
35,70,157515,1,0,0:0:0:0:
225,174,157749,1,0,0:0:0:0:
212,116,157984,5,0,0:0:0:0:
263,299,158101,1,0,0:0:0:0:
382,107,158218,1,0,0:0:0:0:
172,295,158335,1,0,0:0:0:0:
41,111,158452,1,0,0:0:0:0:
125,187,158687,1,0,0:0:0:0:
385,130,158804,1,0,0:0:0:0:
183,274,158921,5,0,0:0:0:0:
321,171,159155,1,0,0:0:0:0:
195,71,159273,1,0,0:0:0:0:
321,171,159390,1,0,0:0:0:0:
195,71,159624,1,0,0:0:0:0:
49,296,159859,5,0,0:0:0:0:
199,230,160093,1,0,0:0:0:0:
49,296,160210,1,0,0:0:0:0:
328,128,160327,1,0,0:0:0:0:
51,209,160444,1,0,0:0:0:0:
384,182,160562,1,0,0:0:0:0:
0,152,160679,1,0,0:0:0:0:
332,287,160796,5,0,0:0:0:0:
80,75,160913,1,0,0:0:0:0:
80,75,161148,1,0,0:0:0:0:
332,287,161265,1,0,0:0:0:0:
205,192,161499,2,0,P|155:164|144:108,1,79.9999952316285
407,82,161734,5,0,0:0:0:0:
364,156,161968,1,0,0:0:0:0:
273,280,162085,1,0,0:0:0:0:
113,329,162202,1,0,0:0:0:0:
61,273,162437,1,0,0:0:0:0:
52,107,162554,1,0,0:0:0:0:
171,75,162671,5,0,0:0:0:0:
341,190,162905,1,0,0:0:0:0:
171,75,163023,1,0,0:0:0:0:
171,75,163140,1,0,0:0:0:0:
341,190,163257,1,0,0:0:0:0:
158,268,163374,1,0,0:0:0:0:
267,265,163609,5,0,0:0:0:0:
254,44,163726,1,0,0:0:0:0:
78,135,163843,1,0,0:0:0:0:
120,6,164077,5,0,0:0:0:0:
446,216,164194,1,0,0:0:0:0:
121,358,164312,1,0,0:0:0:0:
186,226,164546,5,0,0:0:0:0:
310,146,164663,1,0,0:0:0:0:
376,96,164898,1,0,0:0:0:0:
118,272,165015,1,0,0:0:0:0:
249,188,165249,1,0,0:0:0:0:
37,34,165484,6,0,L|133:105,1,119.402977957654
73,267,165718,6,0,L|144:171,1,119.402977957654
307,235,165952,6,0,L|211:164,1,119.402977957654
270,0,166187,6,0,L|199:96,1,119.402977957654
103,104,166421,5,0,0:0:0:0:
210,79,166538,1,0,0:0:0:0:
153,293,166773,1,0,0:0:0:0:
269,255,166890,1,0,0:0:0:0:
180,184,167124,1,0,0:0:0:0:
258,347,167359,6,0,L|352:244,1,119.402977957654
247,113,167593,2,0,L|389:218,1,119.402977957654
502,90,167827,2,0,L|413:177,1,119.402977957654
512,321,168062,2,0,L|369:214,1,119.402977957654
92,217,168296,5,0,0:0:0:0:
65,126,168530,1,0,0:0:0:0:
149,110,168765,1,0,0:0:0:0:
173,195,168999,1,0,0:0:0:0:
270,175,169234,6,0,L|420:115,1,119.402977957654
233,242,169468,2,0,L|284:349,1,119.402977957654
166,204,169702,2,0,L|-4:269,1,119.402977957654
206,141,169937,2,0,L|157:16,1,119.402977957654
149,320,170171,5,0,0:0:0:0:
29,171,170288,1,0,0:0:0:0:
221,178,170406,1,0,0:0:0:0:
99,30,170523,1,0,0:0:0:0:
101,205,170757,1,0,0:0:0:0:
153,150,170874,1,0,0:0:0:0:
169,327,171109,6,0,L|278:218,1,119.402977957654
176,91,171343,2,0,L|295:194,1,119.402977957654
419,307,171577,2,0,L|312:216,1,119.402977957654
425,69,171812,2,0,L|322:176,1,119.402977957654
126,36,172046,5,0,0:0:0:0:
24,182,172163,1,0,0:0:0:0:
370,181,172398,1,0,0:0:0:0:
261,330,172515,1,0,0:0:0:0:
200,174,172749,1,0,0:0:0:0:
126,39,172984,6,0,L|227:145,1,119.402977957654
389,287,173218,2,0,L|298:211,1,119.402977957654
386,39,173452,2,0,L|277:151,1,119.402977957654
121,306,173687,2,0,L|220:200,1,119.402977957654
64,226,173921,5,0,0:0:0:0:
0,145,174155,1,0,0:0:0:0:
82,85,174390,1,0,0:0:0:0:
151,165,174624,1,0,0:0:0:0:
273,339,174859,6,0,L|190:229,1,119.402977957654
330,78,175093,2,0,L|224:150,1,119.402977957654
58,17,175327,2,0,L|132:113,1,119.402977957654
0,278,175562,2,0,L|140:187,1,119.402977957654
382,309,175796,5,0,0:0:0:0:
126,58,175913,1,0,0:0:0:0:
206,348,176148,1,0,0:0:0:0:
277,26,176265,1,0,0:0:0:0:
297,177,176499,1,0,0:0:0:0:
217,212,176616,1,0,0:0:0:0:
73,275,176734,6,0,L|224:210,1,119.402977957654
347,384,176968,2,0,L|269:225,1,119.402977957654
441,104,177202,2,0,L|298:189,1,119.402977957654
178,8,177437,2,0,L|240:145,1,119.402977957654
112,257,177671,5,0,0:0:0:0:
194,206,177905,1,0,0:0:0:0:
69,180,178140,1,0,0:0:0:0:
146,135,178374,1,0,0:0:0:0:
228,179,178609,5,0,0:0:0:0:
41,311,178843,5,0,0:0:0:0:
405,58,178960,1,0,0:0:0:0:
104,271,179194,5,0,0:0:0:0:
345,99,179312,1,0,0:0:0:0:
171,223,179546,5,0,0:0:0:0:
282,141,179663,1,0,0:0:0:0:
104,271,179898,5,0,0:0:0:0:
344,96,180015,1,0,0:0:0:0:
228,179,180249,5,0,0:0:0:0:
187,146,180484,5,4,0:0:0:0:
324,146,180718,1,0,0:0:0:0:
187,260,180952,1,4,0:0:0:0:
324,260,181187,1,0,0:0:0:0:
256,208,181421,2,0,L|256:256,1,39.8009926525515
256,123,181655,1,0,0:0:0:0:
256,31,181890,1,4,0:0:0:0:
119,100,182359,6,4,P|142:55|207:42,1,119.999997425079,4|0,0:0|0:0,0:0:0:0:
324,55,182827,1,4,0:0:0:0:
438,192,183062,1,0,0:0:0:0:
347,328,183296,1,4,0:0:0:0:
192,327,183530,2,0,L|161:287,1,29.9999993562698
96,192,183765,1,4,0:0:0:0:
320,48,183999,2,0,L|320:112,1,59.9999964237214
339,358,184234,5,4,0:0:0:0:
235,254,184468,1,0,0:0:0:0:
339,150,184702,1,4,0:0:0:0:
235,46,184937,1,0,0:0:0:0:
27,108,185171,2,4,L|6:87,1,29.9999993562698
89,192,185405,1,0,0:0:0:0:
30,273,185640,2,0,L|70:223,1,57.9999983129501
257,245,186109,5,4,0:0:0:0:
257,133,186343,1,0,0:0:0:0:
257,356,186577,1,4,0:0:0:0:
257,21,186812,1,0,0:0:0:0:
333,76,187046,2,0,B|448:115|448:185|486:246|432:203|436:222|384:207|345:282|404:298|427:283|311:317|194:275,1,463.999986503601
8,115,187984,6,0,L|183:83,1,133.333325386047
8,115,188335,1,0,0:0:0:0:
139,91,188452,1,0,0:0:0:0:
8,115,188687,1,0,0:0:0:0:
133,282,189155,1,0,0:0:0:0:
133,282,189390,2,0,L|287:220,1,133.333325386047
226,86,189859,6,0,L|359:160,1,133.333325386047
226,86,190210,1,0,0:0:0:0:
342,150,190327,1,0,0:0:0:0:
226,86,190562,1,0,0:0:0:0:
16,286,191030,6,0,L|193:203,1,133.333325386047
387,114,191499,2,0,L|261:172,1,133.333325386047
201,201,191734,1,0,0:0:0:0:
95,93,191968,5,0,0:0:0:0:
164,72,192026,1,0,0:0:0:0:
237,72,192085,1,0,0:0:0:0:
303,104,192144,1,0,0:0:0:0:
351,158,192202,1,0,0:0:0:0:
398,241,192319,5,0,0:0:0:0:
136,170,192437,1,0,0:0:0:0:
453,170,192554,5,0,0:0:0:0:
77,234,192671,1,0,0:0:0:0:
470,82,192788,5,0,0:0:0:0:
47,310,192905,1,0,0:0:0:0:
256,192,193023,5,0,0:0:0:0:
223,192,193140,2,0,P|286:174|223:194,1,199.999988079071
215,37,193609,5,0,0:0:0:0:
140,332,193843,1,0,0:0:0:0:
389,127,194077,1,0,0:0:0:0:
55,158,194312,1,0,0:0:0:0:
364,304,194546,1,0,0:0:0:0:
