osu file format v14

[General]
AudioFilename: audio.mp3
AudioLeadIn: 0
PreviewTime: 52773
Countdown: 0
SampleSet: Soft
StackLeniency: 0.4
Mode: 0
LetterboxInBreaks: 0
WidescreenStoryboard: 1

[Editor]
Bookmarks: 43211,120011
DistanceSpacing: 1.14
BeatDivisor: 4
GridSize: 4
TimelineZoom: 1.3

[Metadata]
Title:Indoor Kei Nara Trackmaker (curryrice Remix)
TitleUnicode:インドア系ならトラックメイカー (curryrice Remix)
Artist:Yunomi & nicamoq
ArtistUnicode:ゆのみ & にかもきゅ
Creator:toybot
Version:easy
Source:
Tags:future bass neilperry jounzan evilelvis sing japanese novelty
BeatmapID:1947303
BeatmapSetID:926885

[Difficulty]
HPDrainRate:3
CircleSize:3
OverallDifficulty:3
ApproachRate:4
SliderMultiplier:1.5
SliderTickRate:1

[Events]
//Background and Video events
0,0,"yunomi bg.jpg",0,0
//Break Periods
2,38311,40811
//Storyboard Layer 0 (Background)
//Storyboard Layer 1 (Fail)
//Storyboard Layer 2 (Pass)
//Storyboard Layer 3 (Foreground)
//Storyboard Sound Samples

[TimingPoints]
11,600,4,2,1,15,1,0
11,-100,4,2,1,15,0,0
2261,-100,4,2,1,5,0,0
2411,-100,4,2,1,15,0,0
3461,-100,4,2,1,5,0,0
3611,-100,4,2,1,20,0,0
4661,-100,4,2,1,5,0,0
4811,-100,4,2,1,25,0,0
5861,-100,4,2,1,5,0,0
6011,-100,4,2,1,30,0,0
7061,-100,4,2,1,5,0,0
7211,-100,4,2,1,35,0,0
8261,-100,4,2,1,5,0,0
8411,-100,4,2,1,40,0,0
9461,-100,4,2,1,5,0,0
9611,-100,4,2,1,45,0,0
10661,-100,4,2,1,5,0,0
10811,-100,4,2,1,50,0,0
11861,-100,4,2,1,5,0,0
12011,-100,4,2,1,55,0,0
13061,-100,4,2,1,5,0,0
13211,-100,4,2,1,60,0,0
14261,-100,4,2,1,5,0,0
14411,-100,4,2,1,65,0,0
15461,-100,4,2,1,5,0,0
15611,-100,4,2,1,70,0,0
16661,-100,4,2,1,5,0,0
16811,-100,4,2,1,75,0,0
17861,-100,4,2,1,5,0,0
18011,-100,4,2,1,80,0,0
19061,-100,4,2,1,5,0,0
19211,-100,4,2,1,50,0,0
19511,-100,4,2,1,50,0,0
25736,-100,4,2,1,5,0,0
25811,-100,4,2,1,50,0,0
28136,-100,4,2,1,5,0,0
28211,-100,4,2,1,50,0,0
43211,-100,4,2,1,55,0,0
50711,-100,4,2,1,60,0,0
51011,-100,4,2,1,70,0,0
51311,-100,4,2,1,80,0,0
51761,-100,4,2,1,90,0,0
52211,-100,4,2,1,100,0,0
52811,-100,4,2,1,70,0,0
60011,-100,4,2,1,60,0,0
60311,-100,4,2,1,40,0,0
60611,-100,4,2,1,60,0,0
60911,-100,4,2,1,40,0,0
61811,-100,4,2,1,40,0,0
62411,-100,4,2,1,80,0,1
64511,-100,4,2,1,20,0,0
65111,-100,4,2,1,80,0,1
66161,-100,4,2,1,60,0,1
66611,-100,4,2,1,80,0,1
69311,-100,4,2,1,20,0,0
69611,-100,4,2,1,80,0,1
71711,-100,4,2,1,20,0,1
72011,-100,4,2,1,80,0,1
74111,-100,4,2,1,20,0,0
74711,-100,4,2,1,80,0,1
75761,-100,4,2,1,60,0,1
76211,-100,4,2,1,80,0,1
78911,-100,4,2,1,20,0,0
79211,-100,4,2,1,80,0,1
81611,-100,4,2,1,50,0,0
98411,-100,4,2,1,50,0,0
99611,-100,4,2,1,40,0,0
100811,-100,4,2,2,50,0,0
120011,-100,4,2,1,55,0,0
127511,-100,4,2,1,60,0,0
127811,-100,4,2,1,70,0,0
128111,-100,4,2,1,80,0,0
128561,-100,4,2,1,90,0,0
129011,-100,4,2,1,100,0,0
129611,-100,4,2,1,70,0,0
136811,-100,4,2,1,60,0,0
137111,-100,4,2,1,40,0,0
137411,-100,4,2,1,60,0,0
137711,-100,4,2,1,40,0,0
138611,-100,4,2,1,40,0,0
139211,-100,4,2,1,80,0,1
147311,-100,4,2,1,80,0,1
147611,-100,4,2,1,80,0,1
148211,-100,4,2,1,80,0,0
148811,-100,4,2,1,80,0,1
157811,-100,4,2,1,80,0,1
158411,-100,4,2,1,50,0,0
175211,-100,4,2,1,40,0,0
175811,-100,4,2,1,30,0,0
177011,-100,4,2,1,30,0,0

[Colours]
Combo1 : 128,255,255
Combo2 : 0,128,0
Combo3 : 0,255,128
Combo4 : 0,128,192

[HitObjects]
124,126,11,6,0,B|115:93|128:61|128:61|78:57|25:100|13:198|111:226,1,300,2|2,0:0|0:0,0:0:0:0:
185,240,2411,1,2,0:0:0:0:
267,203,3611,1,2,0:0:0:0:
318,129,4811,6,0,B|325:97|308:63|308:63|385:111|375:207|375:207|345:275,1,300,2|2,0:0|0:0,0:0:0:0:
239,278,7211,1,2,0:0:0:0:
153,207,8411,1,2,0:0:0:0:
154,96,9611,6,0,B|144:63|144:63|150:12|200:-7|263:-2|300:54|282:125|247:146,1,300,2|2,0:0|0:0,0:0:0:0:
286,258,12011,1,2,0:0:0:0:
401,289,13211,1,2,0:0:0:0:
478,197,14411,6,0,B|333:154|344:297|197:250,1,300,2|2,0:0|0:0,0:0:0:0:
119,139,16811,1,2,0:0:0:0:
199,30,18011,1,2,0:0:0:0:
332,51,19211,5,2,0:0:0:0:
287,124,19511,2,0,L|297:205,2,75,0|0|0,0:0|0:0|0:0,0:0:0:0:
216,72,20411,2,0,P|143:68|84:112,1,150,2|0,0:0|0:0,0:0:0:0:
40,277,21611,2,0,P|113:281|172:237,1,150,2|0,0:0|0:0,0:0:0:0:
215,163,22511,1,0,0:0:0:0:
293,196,22811,2,0,L|371:204,2,75,2|0|0,0:0|0:0|0:0,0:0:0:0:
437,287,24011,6,0,P|477:228|460:151,1,150,2|0,0:0|0:0,0:0:0:0:
326,50,25211,2,0,L|243:57,1,75,2|0,0:0|0:0,0:0:0:0:
190,116,25811,2,0,P|152:117|120:99,1,75,0|0,0:0|0:0,0:0:0:0:
77,25,26411,1,2,0:0:0:0:
9,182,27011,1,0,0:0:0:0:
146,284,27611,2,0,P|160:249|157:212,1,75,2|0,0:0|0:0,0:0:0:0:
121,135,28211,2,0,P|161:78|226:102,1,150,0|2,0:0|0:0,0:0:0:0:
337,233,29411,5,0,0:0:0:0:
480,139,30011,2,0,L|470:55,2,75,2|0|0,0:0|0:0|0:0,0:0:0:0:
400,290,31211,2,0,L|248:257,1,150,2|0,0:0|0:0,0:0:0:0:
174,292,32111,1,0,0:0:0:0:
137,214,32411,2,0,L|147:130,2,75,2|0|0,0:0|0:0|0:0,0:0:0:0:
56,63,33611,6,0,B|99:32|99:32|199:62,1,150,2|0,0:0|0:0,0:0:0:0:
272,210,34811,2,0,B|229:241|229:241|129:211,1,150,2|0,0:0|0:0,0:0:0:0:
211,59,36011,2,0,L|370:38,2,150,2|0|2,0:0|0:0|0:0,0:0:0:0:
62,144,37811,1,0,0:0:0:0:
70,229,38111,1,0,0:0:0:0:
143,343,42611,6,0,P|158:309|151:273,1,75,2|4,0:1|3:0,0:0:0:0:
94,209,43211,2,0,L|109:59,1,150,4|8,1:0|0:1,0:0:0:0:
188,25,44111,1,8,0:1:0:0:
259,72,44411,2,0,B|341:90|319:37|419:58,1,150,8|8,0:1|0:1,0:0:0:0:
478,98,45311,1,10,0:0:0:0:
445,177,45611,5,8,0:1:0:0:
275,197,46211,1,8,0:1:0:0:
337,356,46811,2,0,L|419:364,2,75,8|8|8,0:1|0:1|0:1,0:0:0:0:
265,309,47711,1,10,0:0:0:0:
187,345,48011,6,0,B|163:304|163:304|178:195,1,150,8|8,0:0|0:1,0:0:0:0:
244,149,48911,1,8,0:1:0:0:
184,86,49211,2,0,P|256:63|318:105,1,150,8|8,0:1|0:1,0:0:0:0:
364,171,50111,1,10,0:0:0:0:
295,222,50411,5,10,0:1:0:0:
126,193,51011,1,10,0:1:0:0:
186,352,51611,1,10,0:1:0:0:
204,268,51911,2,0,L|218:184,2,75,10|10|10,0:1|0:1|0:1,0:0:0:0:
266,326,52811,6,0,B|312:301|373:318|373:318|412:268|393:196,1,225,12|12,1:1|1:1,0:0:0:0:
327,157,54011,2,0,L|215:173,2,112.5,12|4|12,1:1|1:1|1:1,0:0:0:0:
381,90,55211,2,0,B|285:28|285:28|243:71|173:66,1,225,12|12,1:1|1:1,0:0:0:0:
125,130,56411,2,0,P|96:84|104:30,2,112.5,12|4|8,1:1|1:1|0:0,0:0:0:0:
190,187,57611,5,12,1:1:0:0:
151,263,57911,1,8,1:1:0:0:
232,290,58211,2,0,L|318:276,1,75,8|8,1:1|1:1,0:0:0:0:
329,195,58811,2,0,P|365:186|401:193,1,75,12|8,1:0|1:0,0:0:0:0:
476,236,59411,2,0,P|500:264|510:299,1,75,12|12,1:0|1:0,0:0:0:0:
424,307,60011,5,4,1:0:0:0:
254,286,60611,1,4,1:0:0:0:
84,265,61211,1,0,0:0:0:0:
84,265,62411,6,0,L|76:168,1,75,4|2,1:0|0:1,0:0:0:0:
141,132,63011,2,0,L|147:57,1,75,8|2,0:0|0:1,0:0:0:0:
223,19,63611,2,0,P|297:23|347:76,1,150,0|8,1:0|0:0,0:0:0:0:
415,321,65111,2,0,L|501:308,2,75,2|8|2,0:1|0:0|0:1,0:0:0:0:
339,361,66011,1,0,1:0:0:0:
191,275,66611,1,8,0:0:0:0:
325,170,67211,6,0,P|341:136|340:98,1,75,4|2,1:0|0:1,0:0:0:0:
285,32,67811,2,0,P|251:17|213:18,1,75,8|2,0:0|0:1,0:0:0:0:
138,59,68411,2,0,P|113:128|136:199,1,150,0|8,1:0|0:0,0:0:0:0:
299,246,69611,2,0,B|325:233|325:233|411:251,2,112.5,0|2|2,1:0|0:0|0:0,0:0:0:0:
243,311,70811,1,0,1:0:0:0:
79,262,71411,1,10,0:0:0:0:
140,202,71711,1,2,0:0:0:0:
88,133,72011,6,0,L|81:38,1,75,4|2,1:0|0:1,0:0:0:0:
153,10,72611,2,0,L|227:15,1,75,8|2,0:0|0:1,0:0:0:0:
293,70,73211,2,0,B|351:66|351:66|380:49|380:49|438:44,1,150,0|8,1:0|0:0,0:0:0:0:
342,282,74711,2,0,P|329:316|335:353,2,75,2|8|2,0:1|0:0|0:1,0:0:0:0:
390,211,75611,1,0,1:0:0:0:
239,129,76211,1,8,0:0:0:0:
122,254,76811,6,0,P|153:275|190:279,1,75,4|2,1:0|0:1,0:0:0:0:
270,248,77411,2,0,P|297:223|310:188,1,75,8|2,0:0|0:1,0:0:0:0:
328,104,78011,2,0,B|328:74|311:50|311:50|343:16|407:35,1,150,0|8,1:0|0:0,0:0:0:0:
485,179,79211,2,0,B|493:202|493:202|483:296,2,112.5,4|2|2,1:0|0:0|0:0,0:0:0:0:
406,145,80411,1,0,1:0:0:0:
281,262,81011,1,8,0:0:0:0:
202,229,81311,1,8,0:0:0:0:
135,282,81611,6,0,P|69:255|66:185,1,150,4|8,1:0|0:0,0:0:0:0:
195,72,82811,2,0,P|231:66|262:85,1,75,2|2,1:1|0:1,0:0:0:0:
315,152,83411,2,0,P|346:171|382:165,1,75,10|2,0:1|0:1,0:0:0:0:
459,128,84011,2,0,P|471:201|458:275,1,150,0|8,1:0|0:0,0:0:0:0:
292,317,85211,1,0,1:0:0:0:
217,163,85811,1,10,0:1:0:0:
249,84,86111,1,2,0:1:0:0:
170,49,86411,6,0,B|81:35|81:35|51:66|75:111,1,150,0|8,1:0|0:0,0:0:0:0:
110,255,87611,2,0,B|147:263|147:263|180:245,1,75,2|2,1:0|0:1,0:0:0:0:
229,176,88211,2,0,B|266:168|266:168|299:185,1,75,10|2,0:1|0:1,0:0:0:0:
351,252,88811,2,0,P|425:249|499:261,2,150,0|8|0,1:0|0:0|1:0,0:0:0:0:
194,322,90611,1,10,0:1:0:0:
234,155,91211,6,0,B|235:86|174:63|174:63|134:97,1,150,4|10,1:0|0:0,0:0:0:0:
33,209,92411,1,2,1:2:0:0:
155,328,93011,2,0,P|191:332|225:317,1,75,10|2,0:0|0:1,0:0:0:0:
281,251,93611,2,0,P|352:250|383:314,2,150,2|10|2,1:2|0:0|1:2,0:0:0:0:
140,153,95411,1,8,0:0:0:0:
126,68,95711,1,2,0:1:0:0:
204,35,96011,6,0,B|259:34|295:59|295:59|325:41|371:45,1,150,2|10,1:2|0:0,0:0:0:0:
484,146,97211,2,0,P|492:205|468:235,1,75,2|2,1:2|0:1,0:0:0:0:
407,251,97811,2,0,P|372:237|335:231,1,75,10|2,0:0|0:1,0:0:0:0:
263,276,98411,2,0,P|260:347|325:375,2,150,0|8|0,1:0|0:0|0:0,0:0:0:0:
491,85,100811,6,0,L|323:97,1,150,4|0,1:0|1:0,0:0:0:0:
277,152,101711,1,8,0:0:0:0:
218,91,102011,2,0,P|153:55|81:70,1,150,2|2,1:2|1:2,0:0:0:0:
34,142,102911,1,8,0:0:0:0:
89,206,103211,2,0,P|102:279|103:354,2,150,2|2|2,1:2|1:2|1:2,0:0:0:0:
36,43,105011,1,0,1:0:0:0:
118,19,105311,1,10,0:0:0:0:
173,83,105611,6,0,P|228:97|313:40,1,150,2|0,1:2|1:0,0:0:0:0:
376,4,106511,1,8,0:0:0:0:
457,28,106811,2,0,B|471:61|471:61|452:183,1,150,2|2,1:2|1:2,0:0:0:0:
396,237,107711,1,8,0:0:0:0:
465,286,108011,2,0,P|401:322|333:295,1,150,2|2,1:2|1:2,0:0:0:0:
279,133,109211,2,0,P|215:97|146:124,1,150,2|0,1:2|1:0,0:0:0:0:
102,196,110111,1,8,0:0:0:0:
162,255,110411,6,0,B|222:250|222:250|249:259|249:259|310:252,1,150,4|8,1:0|1:0,0:0:0:0:
392,276,111311,1,10,0:0:0:0:
464,230,111611,2,0,P|477:264|473:301,2,75,2|2|2,1:2|0:0|1:2,0:0:0:0:
360,93,112811,1,2,1:2:0:0:
202,160,113411,2,0,L|122:143,1,75,2|10,1:2|0:0,0:0:0:0:
61,91,114011,2,0,B|85:127|85:127|67:238,1,150,2|0,1:2|1:0,0:0:0:0:
127,294,114911,1,10,0:0:0:0:
202,253,115211,6,0,B|280:235|261:288|355:271,1,150,2|2,1:2|1:2,0:0:0:0:
368,189,116111,1,10,0:0:0:0:
291,151,116411,2,0,L|281:77,2,75,2|8|2,1:2|0:1|1:2,0:0:0:0:
126,195,117611,2,0,L|112:323,2,112.5,2|8|10,1:2|0:0|0:0,0:0:0:0:
82,121,118811,1,0,0:0:0:0:
234,42,119411,1,8,0:3:0:0:
306,87,119711,1,8,3:0:0:0:
375,134,120011,6,0,P|387:209|382:283,1,150,4|8,1:0|0:1,0:0:0:0:
302,314,120911,1,8,0:1:0:0:
225,276,121211,2,0,B|146:264|162:320|70:300,1,150,8|8,0:1|0:1,0:0:0:0:
29,233,122111,1,10,0:0:0:0:
70,158,122411,5,8,0:1:0:0:
234,110,123011,1,8,0:1:0:0:
269,277,123611,2,0,L|248:367,2,75,8|0|8,0:1|0:0|0:1,0:0:0:0:
348,245,124511,1,10,0:0:0:0:
421,288,124811,6,0,B|447:250|447:250|422:124,1,150,8|8,0:1|0:1,0:0:0:0:
358,96,125711,1,8,0:1:0:0:
295,154,126011,2,0,B|214:171|230:115|151:127,1,150,8|8,0:1|0:1,0:0:0:0:
81,175,126911,1,10,0:0:0:0:
18,117,127211,5,10,0:1:0:0:
172,44,127811,1,10,0:1:0:0:
160,214,128411,1,10,0:1:0:0:
122,136,128711,2,0,L|89:68,2,75,2|10|10,0:1|0:1|0:1,0:0:0:0:
68,205,129611,6,0,B|18:242|24:298|24:298|74:347|138:309,1,225,12|12,1:1|1:1,0:0:0:0:
206,273,130811,2,0,L|325:297,2,112.5,12|4|12,1:1|1:1|1:1,0:0:0:0:
172,194,132011,2,0,B|161:120|206:84|206:84|247:134|315:129,1,225,12|12,1:1|1:1,0:0:0:0:
364,180,133211,2,0,L|475:168,2,112.5,12|4|12,1:1|1:1|0:0,0:0:0:0:
284,213,134411,5,12,1:1:0:0:
295,129,134711,1,8,1:1:0:0:
212,108,135011,2,0,P|175:109|146:132,1,75,8|8,1:1|1:1,0:0:0:0:
103,205,135611,2,0,P|110:241|114:279,1,75,12|8,1:0|1:0,0:0:0:0:
182,330,136211,2,0,P|219:324|256:319,1,75,12|12,1:0|1:0,0:0:0:0:
330,364,136811,5,4,1:0:0:0:
348,194,137411,1,4,1:0:0:0:
366,24,138011,1,0,0:0:0:0:
366,24,139211,6,0,L|233:40,2,112.5,4|4|4,1:0|1:3|1:3,0:0:0:0:
490,141,140711,1,4,1:3:0:0:
427,198,141011,2,0,P|389:201|355:187,1,75,8|0,0:0|0:0,0:0:0:0:
291,130,141611,2,0,L|158:146,2,112.5,4|4|4,1:0|1:3|1:3,0:0:0:0:
327,297,143111,2,0,P|289:299|255:285,1,75,4|8,1:3|0:0,0:0:0:0:
189,231,143711,1,2,0:0:0:0:
108,260,144011,6,0,L|118:371,2,112.5,4|4|4,1:0|1:3|1:3,0:0:0:0:
49,98,145511,1,4,1:3:0:0:
116,47,145811,2,0,P|153:49|181:74,1,75,8|0,0:0|0:0,0:0:0:0:
223,149,146411,2,0,L|233:260,2,112.5,4|4|4,1:0|1:3|1:3,0:0:0:0:
286,90,147611,1,2,0:1:0:0:
351,249,148211,2,0,P|378:273|415:276,1,75,10|0,0:1|0:0,0:0:0:0:
479,219,148811,6,0,B|496:149|496:149|465:116|467:65,1,150,4|8,1:0|0:0,0:0:0:0:
395,30,149711,2,0,B|346:24|316:76|316:76|339:144,1,150,4|4,1:3|1:3,0:0:0:0:
358,207,150611,1,8,0:0:0:0:
223,312,151211,2,0,B|138:291|138:291|106:313|66:307,1,150,4|8,1:0|0:0,0:0:0:0:
31,237,152111,1,4,1:3:0:0:
102,189,152411,2,0,L|90:107,2,75,2|4|8,0:1|1:3|1:0,0:0:0:0:
235,296,153611,6,0,B|296:310|337:270|337:270|312:231,1,150,4|8,1:0|0:0,0:0:0:0:
257,173,154511,2,0,B|272:119|272:119|259:87|259:87|280:8,1,150,4|4,1:3|1:3,0:0:0:0:
359,19,155411,1,8,1:0:0:0:
493,124,156011,2,0,B|467:185|467:185|415:194|415:194|386:173,1,150,4|8,1:0|0:0,0:0:0:0:
328,115,156911,1,2,1:2:0:0:
366,38,157211,2,0,P|305:31|242:112,1,150,2|8,0:1|0:3,0:0:0:0:
269,264,158411,5,4,1:0:0:0:
104,311,159011,1,8,0:0:0:0:
47,148,159611,2,0,P|48:111|68:80,1,75,2|2,1:0|0:1,0:0:0:0:
150,61,160211,2,0,P|182:80|200:112,1,75,10|2,0:1|0:1,0:0:0:0:
264,169,160811,2,0,P|338:174|410:154,1,150,0|8,1:0|0:0,0:0:0:0:
508,14,162011,1,0,1:0:0:0:
338,36,162611,1,10,0:1:0:0:
253,20,162911,1,2,0:1:0:0:
207,92,163211,6,0,B|204:145|204:145|220:185|220:185|217:244,1,150,0|8,1:0|0:0,0:0:0:0:
373,307,164411,2,0,B|392:274|392:274|379:233,1,75,2|2,1:0|0:1,0:0:0:0:
323,174,165011,2,0,B|304:141|304:141|317:100,1,75,10|2,0:1|0:1,0:0:0:0:
379,49,165611,2,0,B|467:34|467:34|498:53|499:96,2,150,0|8|0,1:0|0:0|1:0,0:0:0:0:
221,115,167411,1,10,0:0:0:0:
274,277,168011,6,0,P|229:327|133:317,1,150,4|10,1:0|0:0,0:0:0:0:
53,186,169211,1,2,1:2:0:0:
172,63,169811,2,0,P|183:100|189:137,1,75,10|2,0:0|0:1,0:0:0:0:
258,187,170411,2,0,L|416:209,2,150,2|10|2,1:2|0:0|1:2,0:0:0:0:
134,306,172211,1,10,0:0:0:0:
55,272,172511,1,2,0:1:0:0:
106,203,172811,6,0,B|121:150|83:101|83:101|100:49,1,150,2|10,1:2|0:0,0:0:0:0:
262,22,174011,2,0,P|304:36|342:37,1,75,2|2,1:2|0:1,0:0:0:0:
420,35,174611,2,0,P|432:77|427:122,1,75,10|2,0:0|0:1,0:0:0:0:
363,161,175211,2,0,P|310:211|317:283,2,150,0|8|0,1:0|0:0|0:0,0:0:0:0:
256,192,177611,12,2,184811,0:0:0:0:
