osu file format v14

[General]
AudioFilename: audio.mp3
AudioLeadIn: 0
PreviewTime: -1
Countdown: 0
SampleSet: Soft
StackLeniency: 0.7
Mode: 0
LetterboxInBreaks: 0
WidescreenStoryboard: 0

[Editor]
Bookmarks: 38261,99911,110411,120161
DistanceSpacing: 2
BeatDivisor: 8
GridSize: 16
TimelineZoom: 4.399998

[Metadata]
Title:Indoor Kei Nara Trackmaker (curryrice Remix)
TitleUnicode:Indoor Kei Nara Trackmaker (curryrice Remix)
Artist:Yunomi & nicamoq
ArtistUnicode:Yunomi & nicamoq
Creator:- r3t4rd
Version:Effluent
Source:
Tags:SkyDiverFox Alumetri Yunomi nicamoq curryrice
BeatmapID:1369411
BeatmapSetID:646304

[Difficulty]
HPDrainRate:4
CircleSize:4.1
OverallDifficulty:6.9
ApproachRate:9.6
SliderMultiplier:1
SliderTickRate:1

[Events]
//Background and Video events
0,0,"4UPxK3MG9XU.jpg",0,0
//Break Periods
//Storyboard Layer 0 (Background)
//Storyboard Layer 1 (Fail)
//Storyboard Layer 2 (Pass)
//Storyboard Layer 3 (Foreground)
//Storyboard Sound Samples

[TimingPoints]
161,600,4,2,1,100,1,0
161,-200,4,2,1,5,0,0
1361,-131.578947368421,4,2,1,20,0,0
2561,-111.111111111111,4,2,1,40,0,0
3761,-90.9090909090909,4,2,1,60,0,0
4961,-76.9230769230769,4,2,1,80,0,0
6161,-83.3333333333333,4,2,1,100,0,0
9761,-76.9230769230769,4,2,1,100,0,0
19661,-83.3333333333333,4,2,1,100,0,0
22961,-33.3333333333333,4,2,1,100,0,0
23261,-83.3333333333333,4,2,1,100,0,0
24161,-38.9105058365759,4,2,1,100,0,0
24761,-83.3333333333333,4,2,1,100,0,0
38261,-50,4,2,1,100,0,0
40961,-83.3333333333333,4,2,1,100,0,0
42161,-83.3333333333333,4,2,1,26,0,0
43361,-58.8235294117647,4,2,1,100,0,0
45461,-80,4,2,1,100,0,0
45611,-40,4,2,1,100,0,0
45761,-27.7777777777778,4,2,1,100,0,0
46061,-58.8235294117647,4,2,1,100,0,0
47861,-80,4,2,1,100,0,0
48011,-40,4,2,1,100,0,0
48161,-27.7777777777778,4,2,1,100,0,0
48461,-55.5555555555556,4,2,1,100,0,0
50261,-80,4,2,1,100,0,0
50411,-40,4,2,1,100,0,0
50561,-27.7777777777778,4,2,1,100,0,0
50861,-58.8235294117647,4,2,1,100,0,0
51161,-62.5,4,2,1,100,0,0
51461,-41.6666666666667,4,2,1,100,0,0
52061,-27.7777777777778,4,2,1,100,0,0
54761,-25,4,2,1,100,0,0
55211,-27.7777777777778,4,2,1,100,0,0
57011,-18.1818181818182,4,2,1,100,0,0
62561,-18.1818181818182,4,2,1,100,0,0
64511,-25,4,2,1,100,0,0
64661,-25,4,2,1,100,0,0
65261,-27.7777777777778,4,2,1,100,0,0
73361,-25,4,2,1,100,0,0
74111,-10,4,2,1,100,0,0
74861,-27.7777777777778,4,2,1,100,0,0
81761,-27.7777777777778,4,2,1,100,0,1
99911,-27.7777777777778,4,2,1,100,0,0
100661,-55.5555555555556,4,2,1,100,0,0
103211,-55.5555555555556,4,2,1,100,0,0
115361,-33.3333333333333,4,2,1,100,0,0
120161,-58.8235294117647,4,2,1,100,0,0
122261,-80,4,2,1,100,0,0
122411,-40,4,2,1,100,0,0
122561,-27.7777777777778,4,2,1,100,0,0
122861,-58.8235294117647,4,2,1,100,0,0
124661,-10,4,2,1,100,0,0
125261,-55.5555555555556,4,2,1,100,0,0
127061,-80,4,2,1,100,0,0
127211,-40,4,2,1,100,0,0
127361,-27.7777777777778,4,2,1,100,0,0
127661,-58.8235294117647,4,2,1,100,0,0
127961,-62.5,4,2,1,100,0,0
128261,-41.6666666666667,4,2,1,100,0,0
128861,-27.7777777777778,4,2,1,100,0,0
130661,-17.5438596491228,4,2,1,100,0,0
130961,-50,4,2,1,100,0,0
131561,-25,4,2,1,100,0,0
132011,-27.7777777777778,4,2,1,100,0,0
132161,-18.1818181818182,4,2,1,100,0,0
133361,-27.7777777777778,4,2,1,100,0,0
133811,-18.1818181818182,4,2,1,100,0,0
139361,-16.6666666666667,4,2,1,100,0,0
141311,-25,4,2,1,100,0,0
142061,-27.7777777777778,4,2,1,100,0,0
142961,-52.6315789473684,4,2,1,100,0,0
143261,-25,4,2,1,100,0,0
143561,-19,4,2,1,100,0,0
143861,-14,4,2,1,100,0,0
144161,-27.7777777777778,4,2,1,100,0,0
148961,-16.6666666666667,4,2,1,100,0,0
150911,-25,4,2,1,100,0,0
151661,-27.7777777777778,4,2,1,100,0,0
152561,-52.6315789473684,4,2,1,100,0,0
152861,-25,4,2,1,100,0,0
153161,-19,4,2,1,100,0,0
153461,-14,4,2,1,100,0,0
153761,-27.7777777777778,4,2,1,100,0,0
158561,-27.7777777777778,4,2,1,100,0,1
176711,-27.7777777777778,4,2,1,100,0,0

[HitObjects]
112,80,161,6,0,B|128:64|160:48|192:48,1,74.9999977111817,0|0,2:2|2:2,2:2:0:0:
368,144,1361,6,0,B|352:128|304:112|256:128,1,113.999998608398,0|0,2:2|2:2,2:2:0:0:
160,256,2561,6,0,B|176:240|224:224|296:245,1,134.999995880127,0|0,2:2|2:2,2:2:0:0:
96,160,3761,6,0,B|128:144|128:144|176:176|256:112,1,164.9999949646,0|0,2:0|2:0,2:0:0:0:
432,96,4961,6,0,B|400:80|400:80|352:112|256:32,1,194.999994049072,0|0,2:2|2:2,2:2:0:0:
176,80,6161,6,0,B|144:96|144:96|128:96|128:96|128:112|128:112|112:112|112:112|112:128|112:128|96:128|96:128|96:144|96:144|80:144|80:144|64:176,1,179.999994506836,0|0,2:2|2:2,2:2:0:0:
192,304,7361,6,0,B|220:289|220:289|236:289|236:289|236:273|236:273|252:273|252:273|252:257|252:257|268:257|268:257|268:241|268:241|284:241|284:241|304:208,1,179.999994506836,0|0,2:2|2:2,2:2:0:0:
448,80,8561,6,0,B|456:66|456:66|465:53|465:53|452:44|452:44|461:31|461:31|448:22|448:22|432:48|432:48|416:32|416:32|416:48|416:48|384:48,1,179.999994506836,0|0,2:2|2:2,2:2:0:0:
65,144,9761,6,0,B|96:117|109:125|109:125|175:109|206:110|256:128,1,194.999994049072,0|0,2:2|2:2,2:2:0:0:
416,224,10961,6,0,B|448:256|448:256|432:272|432:272|432:288|432:288|416:288|416:288|416:304|416:304|416:320|416:320|400:336|384:352|352:336,1,194.999994049072,0|0,2:2|2:2,2:2:0:0:
160,256,12161,6,0,B|143:255|124:242|108:219|108:219|92:219|92:219|93:203|93:203|77:203|77:203|77:187|77:187|44:171|92:139,1,194.999994049072,0|0,2:2|2:2,2:2:0:0:
224,48,13361,6,0,B|269:33|299:32|320:48|320:48|379:40|410:66,1,194.999994049072,0|0,2:2|2:2,2:2:0:0:
416,208,14561,6,0,B|385:234|325:225|325:225|305:242|275:241|229:225,1,194.999994049072,0|0,2:2|2:2,2:2:0:0:
176,128,15761,6,0,B|147:142|147:142|131:142|131:142|131:158|131:158|115:158|115:158|115:174|115:174|99:174|99:174|99:190|99:190|83:190|83:190|67:238,1,194.999994049072,0|0,2:2|2:2,2:2:0:0:
144,320,16961,6,0,B|169:345|169:345|189:355|189:355|199:335|199:335|214:341|214:341|220:325|220:325|234:332|234:332|242:317|242:317|255:319|255:319|285:290,1,194.999991073609,0|0,2:2|2:2,2:2:0:0:
384,224,18161,6,0,B|406:179|406:179|395:168|395:168|406:157|406:157|395:145|395:145|406:134|406:134|395:123|395:123|406:111|406:111|395:100|395:100|385:69,1,194.999994049072,0|0,2:2|2:2,2:2:0:0:
272,48,19361,1,0,2:2:0:0:
224,128,19661,2,0,B|217:142|217:142|195:150,1,29.9999990844727,0|0,2:2|2:2,2:2:0:0:
128,128,19961,2,0,B|114:132|114:132|107:147,1,29.9999990844727,0|0,2:2|2:2,2:2:0:0:
112,224,20261,2,0,B|105:238|105:238|83:246,1,29.9999990844727,0|0,2:2|2:2,2:2:0:0:
64,320,20561,2,0,P|89:339|131:310,1,89.9999972534181,0|0,2:2|2:2,2:2:0:0:
208,112,21161,1,0,2:2:0:0:
352,240,21461,1,0,2:2:0:0:
261,337,21761,6,0,B|224:320|224:320|224:300,1,59.9999981689454,0|0,2:2|2:2,2:2:0:0:
272,224,22211,1,0,2:2:0:0:
272,176,22361,1,0,2:2:0:0:
192,128,22661,2,0,L|176:128,1,14.9999995422363,0|0,2:2|2:2,2:2:0:0:
160,128,22811,2,0,L|144:128,1,14.9999995422363,0|0,2:2|2:2,2:2:0:0:
112,128,22961,2,0,P|64:128|48:160,1,74.9999977111817,0|0,2:2|2:2,2:2:0:0:
48,240,23261,2,0,L|48:272,1,29.9999990844727,0|0,2:2|2:2,2:2:0:0:
128,208,23561,2,0,P|144:192|152:182,2,29.9999990844727,0|0|0,2:2|2:2|2:2,2:2:0:0:
80,272,24161,6,0,P|193:293|224:288,1,128.499995490265,0|0,2:2|2:2,2:2:0:0:
288,240,24611,1,0,2:2:0:0:
320,208,24761,1,0,2:2:0:0:
352,176,24911,1,0,2:2:0:0:
400,128,25061,2,0,P|384:96|384:96,1,29.9999990844727,0|0,2:2|2:2,2:2:0:0:
320,64,25361,2,0,P|288:32|272:32,1,59.9999981689454,0|0,2:2|2:2,2:2:0:0:
192,32,25811,1,0,2:2:0:0:
112,32,25961,2,0,B|96:32|96:32|80:48,1,29.9999990844727,0|0,2:2|2:2,2:2:0:0:
96,128,26186,2,0,B|86:137|86:137|70:137,1,29.9999990844727,0|0,2:2|2:2,2:2:0:0:
96,240,26561,6,0,P|107:273|128:304,1,59.9999981689454,0|0,2:2|2:2,2:2:0:0:
336,320,27011,1,0,2:2:0:0:
224,192,27161,2,0,P|208:175|209:159,2,29.9999990844727,0|0|0,2:2|2:2|2:2,2:2:0:0:
272,304,27761,2,0,L|240:288,1,29.9999990844727,0|0,2:2|2:2,2:2:0:0:
368,240,28061,2,0,L|384:208,1,29.9999990844727,0|0,2:2|2:2,2:2:0:0:
320,144,28361,2,0,L|288:119,1,29.9999990844727,0|0,2:2|2:2,2:2:0:0:
224,64,28661,1,0,2:2:0:0:
176,128,28961,6,0,B|160:144|160:160|160:160|144:176|144:176|159:202|160:208,1,89.9999972534181,0|0,2:2|2:2,2:2:0:0:
208,304,29561,1,0,2:2:0:0:
368,240,29861,1,0,2:2:0:0:
112,96,30161,2,0,P|144:64|192:48,1,89.9999972534181,0|0,2:2|2:2,2:2:0:0:
217,46,30761,1,0,2:2:0:0:
304,352,31361,6,0,B|288:352|256:320|256:320|288:304|272:304,1,89.9999972534181,0|0,2:2|2:2,2:2:0:0:
288,272,31961,1,0,2:2:0:0:
80,240,32261,1,0,2:2:0:0:
240,176,32411,1,0,2:2:0:0:
64,160,32561,2,0,P|48:128|48:128,1,29.9999990844727,0|0,2:2|2:2,2:2:0:0:
128,16,32861,1,0,2:2:0:0:
288,48,33011,1,0,2:2:0:0:
289,205,33161,2,0,P|264:249|217:269,1,89.9999972534181,0|0,2:2|2:2,2:2:0:0:
384,160,33761,6,0,P|384:208|368:224,1,59.9999981689454,0|0,2:2|2:2,2:2:0:0:
336,256,34211,1,0,2:2:0:0:
288,256,34361,1,0,2:2:0:0:
144,224,34661,2,0,L|144:192,1,29.9999990844727,0|0,2:2|2:2,2:2:0:0:
80,112,34961,2,0,P|80:128|80:144,1,29.9999990844727,0|0,2:2|2:2,2:2:0:0:
144,224,35411,1,0,2:2:0:0:
288,256,35561,1,0,2:2:0:0:
416,160,35786,2,0,L|432:144,2,14.9999995422363,0|0|0,2:2|2:2|2:2,2:2:0:0:
288,256,36161,5,0,2:2:0:0:
144,224,36311,1,0,2:2:0:0:
80,144,36611,5,0,2:2:0:0:
64,96,36761,1,0,2:2:0:0:
80,48,36911,1,0,2:2:0:0:
224,32,37211,5,0,2:2:0:0:
256,96,37361,2,0,P|262:118|246:150,1,59.9999981689454,0|0,2:2|2:2,2:2:0:0:
144,240,37811,2,0,P|142:254|151:265,2,29.9999990844727,0|0|0,2:2|2:2|2:2,2:2:0:0:
160,144,38261,1,0,2:2:0:0:
208,64,38561,1,0,2:2:0:0:
224,80,38636,1,0,2:2:0:0:
240,96,38711,1,0,2:2:0:0:
320,176,39161,2,0,L|337:193,2,25,0|0|0,2:2|2:2|2:2,2:2:0:0:
160,176,39761,1,0,2:2:0:0:
176,192,39836,1,0,2:2:0:0:
192,208,39911,1,0,2:2:0:0:
272,288,40361,2,0,L|289:305,2,25,0|0|0,2:2|2:2|2:2,2:2:0:0:
192,224,40961,5,0,2:2:0:0:
288,272,41561,1,0,2:2:0:0:
400,176,42161,5,2,2:2:0:0:
384,128,42311,1,2,2:2:0:0:
352,96,42461,1,2,2:2:0:0:
304,80,42611,1,2,2:2:0:0:
208,80,42761,5,2,2:2:0:0:
160,96,42911,1,2,2:2:0:0:
128,128,43061,1,2,2:2:0:0:
112,176,43211,1,2,2:2:0:0:
64,80,43361,6,0,L|112:48,1,42.5000008106232,0|0,2:2|2:2,2:2:0:0:
224,64,43661,2,0,L|176:96,1,42.5000008106232,0|0,2:2|2:2,2:2:0:0:
80,160,43961,6,0,L|128:128,1,42.5000008106232,0|0,2:2|2:2,2:2:0:0:
240,144,44261,2,0,L|192:176,1,42.5000008106232,0|0,2:2|2:2,2:2:0:0:
96,240,44561,6,0,L|144:208,1,42.5000008106232,0|0,2:2|2:2,2:2:0:0:
256,224,44861,2,0,L|208:256,1,42.5000008106232,0|0,2:2|2:2,2:2:0:0:
128,336,45161,6,0,L|176:304,1,42.5000008106232,0|0,2:2|2:2,2:2:0:0:
304,256,45461,6,0,L|313:245,1,14.9999995422363,0|0,2:2|2:2,2:2:0:0:
320,272,45611,2,0,L|352:256,1,29.9999990844727,0|0,2:2|2:2,2:2:0:0:
336,288,45761,2,0,L|384:288,1,44.999998626709,0|0,2:2|2:2,2:2:0:0:
192,32,46061,6,0,L|144:64,1,42.5000008106232,0|0,2:2|2:2,2:2:0:0:
320,32,46361,2,0,L|368:64,1,42.5000008106232,0|0,2:2|2:2,2:2:0:0:
192,112,46661,6,0,L|144:144,1,42.5000008106232,0|0,2:2|2:2,2:2:0:0:
320,112,46961,2,0,L|368:144,1,42.5000008106232,0|0,2:2|2:2,2:2:0:0:
352,208,47261,6,0,L|316:184,1,42.5000008106232,0|0,2:2|2:2,2:2:0:0:
160,208,47561,2,0,L|195:184,1,42.5000008106232,0|0,2:2|2:2,2:2:0:0:
160,288,47861,6,0,L|167:301,1,14.9999995422363,0|0,2:2|2:2,2:2:0:0:
124,303,48011,2,0,L|151:317,1,29.9999990844727,0|0,2:2|2:2,2:2:0:0:
106,333,48161,2,0,L|151:333,1,44.999998626709,0|0,2:2|2:2,2:2:0:0:
80,112,48461,6,0,P|96:96|122:97,1,44.999998626709,0|0,2:2|2:2,2:2:0:0:
176,144,48761,2,0,P|198:145|214:130,1,44.999998626709,0|0,2:2|2:2,2:2:0:0:
336,64,49061,2,0,P|356:73|364:98,1,44.999998626709,0|0,2:2|2:2,2:2:0:0:
384,160,49361,2,0,P|383:190|363:195,1,44.999998626709,0|0,2:2|2:2,2:2:0:0:
304,288,49661,2,0,P|282:282|270:258,1,44.999998626709,0|0,2:2|2:2,2:2:0:0:
284,187,49961,2,0,P|273:167|253:160,1,44.999998626709,0|0,2:2|2:2,2:2:0:0:
176,112,50261,6,0,L|169:125,1,14.9999995422363,0|0,2:2|2:2,2:2:0:0:
160,96,50411,2,0,L|128:112,1,29.9999990844727,0|0,2:2|2:2,2:2:0:0:
160,80,50561,2,0,L|112:80,1,44.999998626709,0|0,2:2|2:2,2:2:0:0:
320,80,50861,6,0,L|361:96,1,42.5000008106232,0|0,2:2|2:2,2:2:0:0:
330,127,51161,2,0,L|272:105,1,60,0|0,2:2|2:2,2:2:0:0:
256,144,51461,2,0,L|351:184,1,89.9999972534181,0|0,2:2|2:2,2:2:0:0:
266,191,51761,2,0,L|175:157,1,89.9999972534181,0|0,2:2|2:2,2:2:0:0:
192,208,52061,2,0,L|327:265,1,134.999995880127,0|0,2:2|2:2,2:2:0:0:
202,255,52361,2,0,L|68:199,1,134.999995880127,0|0,2:2|2:2,2:2:0:0:
51,166,52661,1,0,2:2:0:0:
48,128,52811,1,0,2:2:0:0:
128,48,52961,5,0,2:2:0:0:
224,128,53111,1,0,2:2:0:0:
320,48,53261,1,0,2:2:0:0:
400,192,53411,2,0,B|384:224|384:224|314:218|301:230,1,89.9999972534181,0|0,2:2|2:2,2:2:0:0:
176,240,53711,1,0,2:2:0:0:
32,176,53861,2,0,B|46:147|46:147|139:154|144:143,1,89.9999972534181,0|0,2:2|2:2,2:2:0:0:
224,96,54161,6,0,L|176:80,1,44.999998626709,0|0,2:2|2:2,2:2:0:0:
288,144,54461,2,0,L|351:105,1,44.999998626709,0|0,2:2|2:2,2:2:0:0:
224,192,54761,2,0,L|133:158,1,89.9999972534181,0|0,2:2|2:2,2:2:0:0:
288,240,55061,2,0,L|416:176,1,100,0|0,2:2|2:2,2:2:0:0:
448,208,55361,6,0,P|450:251|400:304,1,89.9999972534181,0|0,2:2|2:2,2:2:0:0:
256,336,55661,1,0,2:2:0:0:
80,288,55811,2,0,P|64:240|96:191,1,89.9999972534181,0|0,2:2|2:2,2:2:0:0:
224,112,56111,1,0,2:2:0:0:
416,96,56261,1,0,2:2:0:0:
320,272,56411,1,0,2:2:0:0:
160,96,56561,6,0,P|100:138|112:160,1,89.9999972534181,0|0,2:2|2:2,2:2:0:0:
192,240,56861,1,0,2:2:0:0:
304,288,57011,6,0,P|363:284|354:225,1,134.999995880127,0|0,2:2|2:2,2:2:0:0:
208,112,57311,1,0,2:2:0:0:
388,184,57461,2,0,B|400:144|368:112|368:112|336:80|336:80|296:68,1,134.999995880127,0|0,2:2|2:2,2:2:0:0:
112,272,57761,6,0,P|192:272|228:352,1,134.999995880127,0|0,2:2|2:2,2:2:0:0:
400,111,58061,2,0,P|334:118|287:73,1,134.999995880127,0|0,2:2|2:2,2:2:0:0:
304,320,58361,6,0,P|400:320|480:304,1,134.999995880127,0|0,2:2|2:2,2:2:0:0:
208,64,58661,2,0,P|112:64|32:79,1,134.999995880127,0|0,2:2|2:2,2:2:0:0:
48,192,58961,5,0,2:2:0:0:
192,336,59111,1,0,2:2:0:0:
144,160,59261,1,0,2:2:0:0:
192,336,59411,1,0,2:2:0:0:
240,160,59561,1,0,2:2:0:0:
192,336,59711,1,0,2:2:0:0:
352,224,59861,1,0,2:2:0:0:
192,336,60011,1,0,2:2:0:0:
128,144,60161,5,0,2:2:0:0:
176,192,60461,1,0,2:2:0:0:
208,176,60536,1,0,2:2:0:0:
240,160,60611,1,0,2:2:0:0:
416,144,60761,5,0,2:2:0:0:
320,208,61061,1,0,2:2:0:0:
288,224,61136,1,0,2:2:0:0:
256,240,61211,1,0,2:2:0:0:
256,192,61361,12,0,62336,2:2:0:0:
192,224,62561,6,0,P|192:272|272:304,1,134.999995880127,0|0,2:2|2:2,2:2:0:0:
384,256,62861,1,0,2:2:0:0:
320,48,63011,1,0,2:2:0:0:
48,240,63161,6,0,P|109:220|118:156,1,134.999995880127,0|0,2:2|2:2,2:2:0:0:
96,32,63461,1,0,2:2:0:0:
240,176,63611,1,0,2:2:0:0:
384,304,63761,6,0,P|445:284|454:220,1,134.999995880127,0|0,2:2|2:2,2:2:0:0:
352,64,64061,1,0,2:2:0:0:
240,32,64211,1,0,2:2:0:0:
128,96,64361,1,0,2:2:0:0:
176,176,64511,6,0,P|198:174|240:171,1,50,0|0,2:2|2:2,2:2:0:0:
384,128,64661,6,0,L|338:173,1,50,0|0,2:2|2:2,2:2:0:0:
417,184,64811,6,0,L|352:184,1,50,0|0,2:2|2:2,2:2:0:0:
384,241,64961,6,0,L|338:195,1,50,0|0,2:2|2:2,2:2:0:0:
316,263,65111,6,0,L|316:199,1,50,0|0,2:2|2:2,2:2:0:0:
224,259,65261,6,0,B|191:243|191:243|144:260|144:260|128:260|128:260,1,89.9999972534181,0|0,2:2|2:2,2:2:0:0:
48,256,65561,2,0,P|48:304|112:336,1,89.9999972534181,0|0,2:2|2:2,2:2:0:0:
384,256,65861,1,0,2:2:0:0:
320,48,66011,1,0,2:2:0:0:
96,240,66161,6,0,P|157:220|160:160,1,89.9999972534181,0|0,2:2|2:2,2:2:0:0:
96,32,66461,1,0,2:2:0:0:
256,176,66611,1,0,2:2:0:0:
384,304,66761,6,0,P|445:284|448:224,1,89.9999972534181,0|0,2:2|2:2,2:2:0:0:
144,272,67061,1,0,2:2:0:0:
400,192,67211,1,0,2:2:0:0:
224,64,67361,1,0,2:2:0:0:
488,276,67661,5,0,2:2:0:0:
344,188,67811,1,0,2:2:0:0:
192,224,67961,2,0,P|192:272|256:304,1,89.9999972534181,0|0,2:2|2:2,2:2:0:0:
384,256,68261,1,0,2:2:0:0:
320,48,68411,1,0,2:2:0:0:
96,240,68561,6,0,P|157:220|160:160,1,89.9999972534181,0|0,2:2|2:2,2:2:0:0:
96,32,68861,1,0,2:2:0:0:
320,272,69011,1,0,2:2:0:0:
432,48,69161,2,0,P|420:136|400:144,1,89.9999972534181,0|0,2:2|2:2,2:2:0:0:
224,256,69461,2,0,L|176:304,2,44.999998626709,0|0|0,2:2|2:2|2:2,2:2:0:0:
432,48,69761,6,0,P|420:136|400:144,1,89.9999972534181,0|0,2:2|2:2,2:2:0:0:
192,224,70061,1,0,2:2:0:0:
416,256,70211,1,0,2:2:0:0:
112,128,70361,6,0,P|176:96|208:48,1,89.9999972534181,0|0,2:2|2:2,2:2:0:0:
112,224,70661,1,0,2:2:0:0:
352,128,70811,1,0,2:2:0:0:
400,256,70961,6,0,P|339:285|304:336,1,89.9999972534181,0|0,2:2|2:2,2:2:0:0:
304,80,71261,1,0,2:2:0:0:
193,313,71411,1,0,2:2:0:0:
224,128,71561,6,0,P|240:144|208:224,1,89.9999972534181,0|0,2:2|2:2,2:2:0:0:
112,256,71861,2,0,P|78:242|69:208,2,44.999998626709,0|0|0,2:2|2:2|2:2,2:2:0:0:
112,128,72161,6,0,P|176:96|208:48,1,89.9999972534181,0|0,2:2|2:2,2:2:0:0:
416,64,72461,1,0,2:2:0:0:
208,192,72611,1,0,2:2:0:0:
416,224,72761,6,0,P|382:281|336:304,1,89.9999972534181,0|0,2:2|2:2,2:2:0:0:
112,224,73061,1,0,2:2:0:0:
352,128,73211,1,0,2:2:0:0:
416,224,73361,6,0,P|382:281|320:304,1,100,0|0,2:2|2:2,2:2:0:0:
144,256,73661,1,0,2:2:0:0:
112,112,73811,1,0,2:2:0:0:
288,144,73961,1,0,2:2:0:0:
144,192,74111,6,0,B|160:160|160:160|144:112|144:112|128:160|128:160|142:192,1,125,0|0,2:2|2:2,2:2:0:0:
144,192,74261,6,0,B|112:176|112:176|64:192|64:192|112:208|112:208|144:194,1,125,0|0,2:2|2:2,2:2:0:0:
144,192,74411,6,0,B|110:203|110:203|87:248|87:248|132:225|132:225|145:193,1,125,0|0,2:2|2:2,2:2:0:0:
144,192,74561,6,0,B|155:225|155:225|200:248|200:248|177:203|177:203|145:190,1,125,0|0,2:2|2:2,2:2:0:0:
144,192,74711,6,0,B|176:208|176:208|224:192|224:192|176:176|176:176|144:190,1,125,0|0,2:2|2:2,2:2:0:0:
48,352,74861,5,0,2:2:0:0:
160,336,75011,1,0,2:2:0:0:
192,320,75086,1,0,2:2:0:0:
224,304,75161,6,0,P|276:263|304:208,1,89.9999972534181,0|0,2:2|2:2,2:2:0:0:
416,80,75461,1,0,2:2:0:0:
224,128,75611,1,0,2:2:0:0:
124,88,75761,6,0,P|200:48|240:48,1,89.9999972534181,0|0,2:2|2:2,2:2:0:0:
336,104,76061,1,0,2:2:0:0:
408,224,76211,1,0,2:2:0:0:
182,343,76361,6,0,P|266:271|272:256,1,89.9999972534181,0|0,2:2|2:2,2:2:0:0:
188,160,76661,1,0,2:2:0:0:
352,240,76811,1,0,2:2:0:0:
112,80,76961,6,0,P|176:48|224:32,1,89.9999972534181,0|0,2:2|2:2,2:2:0:0:
400,128,77261,1,0,2:2:0:0:
96,240,77411,1,0,2:2:0:0:
400,304,77561,6,0,P|336:336|288:352,1,89.9999972534181,0|0,2:2|2:2,2:2:0:0:
288,224,77861,1,0,2:2:0:0:
192,176,78011,1,0,2:2:0:0:
224,80,78161,6,0,P|288:80|336:112,1,89.9999972534181,0|0,2:2|2:2,2:2:0:0:
432,224,78461,1,0,2:2:0:0:
256,288,78611,1,0,2:2:0:0:
112,336,78761,6,0,P|64:272|48:224,1,89.9999972534181,0|0,2:2|2:2,2:2:0:0:
32,112,79061,2,0,P|48:80|64:64,2,44.999998626709,0|0|0,2:2|2:2|2:2,2:2:0:0:
48,240,79361,6,0,P|69:283|112:336,1,89.9999972534181,0|0,2:2|2:2,2:2:0:0:
336,352,79661,2,0,L|304:304,1,44.999998626709,0|0,2:2|2:2,2:2:0:0:
400,144,79811,2,0,L|424:181,1,44.999998626709,0|0,2:2|2:2,2:2:0:0:
480,304,79961,1,0,2:2:0:0:
144,224,80111,2,0,L|168:186,1,44.999998626709,0|0,2:2|2:2,2:2:0:0:
320,96,80261,2,0,L|295:133,1,44.999998626709,0|0,2:2|2:2,2:2:0:0:
224,256,80411,1,0,2:2:0:0:
208,64,80561,1,0,2:2:0:0:
320,224,80711,6,0,P|400:224|432:192,1,89.9999972534181,0|0,2:2|2:2,2:2:0:0:
320,48,81011,1,0,2:2:0:0:
192,160,81161,6,0,P|112:160|80:192,1,89.9999972534181,0|0,2:2|2:2,2:2:0:0:
192,336,81461,1,0,2:2:0:0:
432,272,81611,1,0,2:2:0:0:
352,128,81761,5,2,2:2:0:0:
256,208,81911,1,0,2:2:0:0:
256,80,82061,1,0,2:2:0:0:
176,160,82211,1,0,2:2:0:0:
96,64,82361,6,0,P|48:112|48:160,1,89.9999972534181,0|0,2:2|2:2,2:2:0:0:
80,288,82661,2,0,L|16:368,1,89.9999972534181,0|0,2:2|2:2,2:2:0:0:
144,256,82961,2,0,L|96:176,1,89.9999972534181,0|0,2:2|2:2,2:2:0:0:
208,288,83261,2,0,L|160:368,1,89.9999972534181,0|0,2:2|2:2,2:2:0:0:
256,224,83561,2,0,P|288:272|336:288,1,89.9999972534181,0|0,2:2|2:2,2:2:0:0:
416,304,83861,5,0,2:2:0:0:
448,208,84011,1,0,2:2:0:0:
416,144,84161,5,2,2:2:0:0:
288,176,84311,1,0,2:2:0:0:
272,112,84461,5,0,2:2:0:0:
400,32,84611,1,0,2:2:0:0:
112,96,84761,6,0,P|64:144|64:192,1,89.9999972534181,0|0,2:2|2:2,2:2:0:0:
80,240,85061,1,0,2:2:0:0:
96,256,85211,1,0,2:2:0:0:
176,256,85361,5,4,2:2:0:0:
192,272,85511,1,0,2:2:0:0:
272,272,85661,1,0,2:2:0:0:
288,288,85811,1,0,2:2:0:0:
432,208,85961,6,0,P|448:256|400:304,1,89.9999972534181,0|0,2:2|2:2,2:2:0:0:
256,240,86261,1,0,2:2:0:0:
208,192,86411,1,0,2:2:0:0:
272,176,86561,1,2,2:2:0:0:
224,128,86711,1,0,2:2:0:0:
288,112,86861,5,0,2:2:0:0:
240,64,87011,1,0,2:2:0:0:
285,25,87161,6,0,P|314:64|287:107,1,89.9999972534181,0|0,2:2|2:2,2:2:0:0:
176,160,87461,1,0,2:2:0:0:
48,192,87611,1,0,2:2:0:0:
144,272,87761,5,0,2:2:0:0:
160,304,87911,1,0,2:2:0:0:
240,320,88061,1,0,2:2:0:0:
256,288,88211,1,4,2:2:0:0:
384,64,88361,6,0,B|416:48|416:48|432:80|432:80|400:128|400:128,1,89.9999972534181,0|0,2:2|2:2,2:2:0:0:
400,192,88661,1,0,2:2:0:0:
352,240,88811,1,0,2:2:0:0:
256,304,88961,5,2,2:2:0:0:
128,272,89111,1,0,2:2:0:0:
272,208,89261,1,0,2:2:0:0:
176,144,89411,1,0,2:2:0:0:
288,48,89561,6,0,P|353:51|384:80,1,89.9999972534181,0|0,2:2|2:2,2:2:0:0:
416,208,89861,1,0,2:2:0:0:
368,272,90011,1,0,2:2:0:0:
320,208,90161,1,4,2:2:0:0:
272,272,90311,1,0,2:2:0:0:
240,208,90461,5,0,2:2:0:0:
192,272,90611,1,0,2:2:0:0:
80,304,90761,6,0,P|50:289|85:233,1,89.9999972534181,0|0,2:2|2:2,2:2:0:0:
144,144,91061,1,0,2:2:0:0:
304,192,91211,1,0,2:2:0:0:
304,80,91361,5,2,2:2:0:0:
176,112,91511,1,0,2:2:0:0:
208,256,91661,1,0,2:2:0:0:
208,80,91811,1,0,2:2:0:0:
112,48,91961,6,0,P|64:80|80:96,1,89.9999972534181,0|0,2:2|2:2,2:2:0:0:
144,144,92261,1,0,2:2:0:0:
256,192,92411,1,0,2:2:0:0:
240,96,92561,5,4,2:2:0:0:
176,240,92711,1,0,2:2:0:0:
304,176,92861,1,0,2:2:0:0:
112,192,93011,1,0,2:2:0:0:
127,307,93161,6,0,P|163:333|208:336,1,89.9999972534181,0|0,2:2|2:2,2:2:0:0:
352,288,93461,1,0,2:2:0:0:
368,256,93611,1,0,2:2:0:0:
384,288,93761,1,2,2:2:0:0:
320,320,93911,1,0,2:2:0:0:
368,224,94061,5,0,2:2:0:0:
432,320,94211,1,0,2:2:0:0:
208,336,94361,6,0,P|171:310|156:268,1,89.9999972534181,0|0,2:2|2:2,2:2:0:0:
192,160,94661,1,0,2:2:0:0:
256,80,94811,1,0,2:2:0:0:
320,160,94961,2,0,L|341:158,1,22.4999993133545,0|0,2:2|2:2,2:2:0:0:
432,144,95111,1,0,2:2:0:0:
336,64,95261,1,0,2:2:0:0:
240,160,95411,1,0,2:2:0:0:
96,64,95561,6,0,P|64:112|48:160,1,89.9999972534181,0|0,2:2|2:2,2:2:0:0:
64,256,95861,1,0,2:2:0:0:
160,192,96011,1,0,2:2:0:0:
256,144,96161,5,2,2:2:0:0:
288,176,96311,1,0,2:2:0:0:
320,208,96461,1,0,2:2:0:0:
352,240,96611,1,0,2:2:0:0:
432,80,96761,6,0,P|383:32|336:32,1,89.9999972534181,0|0,2:2|2:2,2:2:0:0:
208,48,97061,1,0,2:2:0:0:
140,42,97211,1,0,2:2:0:0:
101,95,97361,1,4,2:2:0:0:
144,144,97511,1,0,2:2:0:0:
208,144,97661,5,0,2:2:0:0:
240,96,97811,1,0,2:2:0:0:
336,48,97961,6,0,P|377:63|403:99,1,89.9999972534181,0|0,2:2|2:2,2:2:0:0:
416,176,98261,5,0,2:2:0:0:
336,288,98411,1,0,2:2:0:0:
144,288,98561,2,0,P|189:310|234:288,1,89.9999972534181,0|0,2:2|2:2,2:2:0:0:
279,242,98861,1,0,2:2:0:0:
291,231,98936,1,0,2:2:0:0:
302,220,99011,1,0,2:2:0:0:
370,106,99161,2,0,P|324:83|279:106,1,89.9999972534181,0|0,2:2|2:2,2:2:0:0:
234,152,99461,1,0,2:2:0:0:
223,163,99536,1,0,2:2:0:0:
211,174,99611,1,0,2:2:0:0:
128,320,99761,2,0,P|85:331|47:308,1,89.9999972534181,0|0,2:2|2:2,2:2:0:0:
47,75,100211,2,0,P|85:52|128:64,2,89.9999972534181,0|0|0,2:2|2:2|2:2,2:2:0:0:
48,176,100661,5,0,2:2:0:0:
112,304,100961,6,0,P|160:328|183:329,1,67.4999979400635,0|0,2:2|2:2,2:2:0:0:
288,320,101261,1,0,2:2:0:0:
416,288,101411,6,0,P|433:237|436:232,1,44.999998626709,0|0,2:2|2:2,2:2:0:0:
448,176,101711,1,0,2:2:0:0:
432,144,101861,1,0,2:2:0:0:
400,128,102011,1,0,2:2:0:0:
272,80,102161,2,0,P|240:64|224:64,2,44.999998626709,0|0|0,2:2|2:2|2:2,2:2:0:0:
352,128,102611,1,0,2:2:0:0:
304,224,102761,2,0,B|270:235|258:224|258:224,1,44.999998626709
160,176,103061,1,0,2:2:0:0:
96,272,103361,6,0,B|144:312|195:312,1,89.9999972534181,0|0,2:2|2:2,2:2:0:0:
304,320,103811,1,0,2:2:0:0:
400,240,103961,2,0,L|427:199,1,44.999998626709,0|0,2:2|2:2,2:2:0:0:
464,144,104261,1,0,2:2:0:0:
464,80,104411,1,0,0:0:0:0:
464,64,104486,1,0,0:0:0:0:
80,48,104561,5,0,2:2:0:0:
160,96,104711,1,0,2:2:0:0:
192,112,104786,1,0,2:2:0:0:
224,128,104861,1,0,2:2:0:0:
288,160,105011,1,0,0:0:0:0:
128,160,105161,1,0,2:2:0:0:
144,192,105236,1,0,2:2:0:0:
160,224,105311,1,0,2:2:0:0:
192,288,105461,1,0,2:2:0:0:
404,259,105761,2,0,P|406:253|404:226,1,22.4999993133545,0|0,2:2|2:2,2:2:0:0:
334,208,105911,2,0,P|323:178|325:147,1,44.999998626709,0|0,2:2|2:2,2:2:0:0:
336,32,106211,2,0,P|333:37|332:64,1,22.4999993133545,0|0,2:2|2:2,2:2:0:0:
402,88,106361,2,0,P|409:118|404:148,1,44.999998626709,0|0,2:2|2:2,2:2:0:0:
128,48,106661,1,0,2:2:0:0:
80,64,106736,1,0,2:2:0:0:
64,112,106811,5,0,2:2:0:0:
64,208,106961,2,0,P|84:221|108:229,1,50,0|0,2:2|2:2,2:2:0:0:
160,176,107261,2,0,P|220:169|228:171,1,50,0|0,2:2|2:2,2:2:0:0:
288,160,107561,2,0,P|320:160|320:160,4,22.4999993133545
352,304,108161,5,0,2:2:0:0:
416,208,108311,1,0,2:2:0:0:
352,96,108461,1,0,2:2:0:0:
240,112,108611,1,0,2:2:0:0:
240,240,108761,2,0,P|220:293|157:317,1,89.9999972534181,0|0,2:2|2:2,2:2:0:0:
48,336,109211,6,0,P|28:318|32:304,1,22.4999993133545,0|0,2:2|2:2,2:2:0:0:
64,240,109361,6,0,P|65:214|60:202,1,22.4999993133545,0|0,2:2|2:2,2:2:0:0:
32,112,109511,2,0,P|18:86|16:64,2,44.999998626709,0|0|0,2:2|2:2|2:2,2:2:0:0:
144,256,109961,2,0,B|208:256|208:256|244:248,1,89.9999972534181,0|0,2:2|2:2,2:2:0:0:
368,192,110561,5,0,2:2:0:0:
416,144,110711,1,0,2:2:0:0:
368,96,110861,1,0,2:2:0:0:
320,144,111011,1,0,2:2:0:0:
320,224,111161,1,0,2:2:0:0:
304,80,111311,1,0,2:2:0:0:
432,64,111461,1,0,2:2:0:0:
448,208,111611,1,0,2:2:0:0:
352,320,111761,6,0,L|294:346,1,44.999998626709,0|0,2:2|2:2,2:2:0:0:
240,288,112061,2,0,L|182:260,1,44.999998626709,0|0,2:2|2:2,2:2:0:0:
112,192,112361,2,0,P|96:160|109:137,1,44.999998626709,0|0,2:2|2:2,2:2:0:0:
176,160,112586,2,0,P|192:128|179:105,1,44.999998626709,0|0,2:2|2:2,2:2:0:0:
112,48,112961,5,0,2:2:0:0:
112,64,113111,1,0,2:2:0:0:
176,48,113261,1,0,2:2:0:0:
176,64,113411,1,0,2:2:0:0:
192,176,113561,5,0,2:2:0:0:
256,272,113711,1,0,2:2:0:0:
288,176,113861,1,0,2:2:0:0:
176,272,114011,1,0,2:2:0:0:
64,240,114161,5,0,2:2:0:0:
64,208,114311,1,0,2:2:0:0:
112,192,114461,1,0,2:2:0:0:
112,160,114611,1,0,2:2:0:0:
64,64,114761,5,0,2:2:0:0:
144,32,114911,1,0,2:2:0:0:
336,32,115061,1,0,2:2:0:0:
352,48,115136,1,0,2:2:0:0:
368,64,115211,1,0,2:2:0:0:
384,80,115286,1,0,2:2:0:0:
416,112,115361,2,0,B|421:140|400:190,1,75.0000028610231,0|0,2:2|2:2,2:2:0:0:
224,160,115661,2,0,B|200:144|200:144|179:102,1,75.0000028610231,0|0,2:2|2:2,2:2:0:0:
288,224,115961,2,0,B|312:240|312:240|333:282,1,75.0000028610231,0|0,2:2|2:2,2:2:0:0:
336,160,116261,2,0,B|312:144|312:144|291:102,1,75.0000028610231,0|0,2:2|2:2,2:2:0:0:
176,224,116561,2,0,B|200:240|200:240|221:282,1,75.0000028610231,0|0,2:2|2:2,2:2:0:0:
256,192,116861,2,0,B|247:164|247:164|258:119,1,75.0000028610231,0|0,2:2|2:2,2:2:0:0:
304,376,117161,2,0,B|272:376|272:376|240:280|144:312,1,187.500007152558,0|0,2:2|2:2,2:2:0:0:
176,192,117761,5,0,2:2:0:0:
160,144,117911,1,0,2:2:0:0:
176,96,118061,1,0,2:2:0:0:
224,64,118211,1,0,2:2:0:0:
272,64,118361,2,0,B|313:68|313:68|337:91,1,75.0000028610231,0|0,2:2|2:2,2:2:0:0:
408,312,118661,2,0,B|432:296|472:216|472:216|492:243,1,150.000005722046,0|0,2:2|2:2,2:2:0:0:
248,256,119261,2,0,B|224:240|224:240|180:200,1,75.0000028610231,0|0,2:2|2:2,2:2:0:0:
157,29,119561,2,0,B|184:44|184:44|224:80,1,75.0000028610231,0|0,2:2|2:2,2:2:0:0:
0,8,119861,5,0,2:2:0:0:
72,16,120011,1,0,2:2:0:0:
288,128,120161,6,0,L|336:96,1,42.5000008106232,0|0,2:2|2:2,2:2:0:0:
224,128,120461,2,0,L|176:96,1,42.5000008106232,0|0,2:2|2:2,2:2:0:0:
304,192,120761,6,0,L|352:192,1,42.5000008106232,0|0,2:2|2:2,2:2:0:0:
208,192,121061,2,0,L|165:192,1,42.5000008106232,0|0,2:2|2:2,2:2:0:0:
288,256,121361,6,0,L|336:288,1,42.5000008106232,0|0,2:2|2:2,2:2:0:0:
224,256,121661,2,0,L|176:288,1,42.5000008106232,0|0,2:2|2:2,2:2:0:0:
256,176,121961,6,0,L|256:128,1,42.5000008106232,0|0,2:2|2:2,2:2:0:0:
256,80,122261,1,0,2:2:0:0:
256,64,122411,1,0,2:2:0:0:
256,48,122561,1,0,2:2:0:0:
144,224,122861,6,0,L|96:256,1,42.5000008106232,0|0,2:2|2:2,2:2:0:0:
368,224,123161,2,0,L|416:256,1,42.5000008106232,0|0,2:2|2:2,2:2:0:0:
144,160,123461,6,0,L|96:128,1,42.5000008106232,0|0,2:2|2:2,2:2:0:0:
368,160,123761,2,0,L|416:128,1,42.5000008106232,0|0,2:2|2:2,2:2:0:0:
86,192,124061,6,0,L|128:192,1,42.5000008106232,0|0,2:2|2:2,2:2:0:0:
426,192,124361,2,0,L|384:192,1,42.5000008106232,0|0,2:2|2:2,2:2:0:0:
256,192,124661,6,0,B|272:160|272:160|256:112|256:112|240:160|240:160|254:192,1,125,0|0,2:2|2:2,2:2:0:0:
256,192,124811,6,0,B|222:203|222:203|199:248|199:248|244:225|244:225|257:193,1,125,0|0,2:2|2:2,2:2:0:0:
256,192,124961,6,0,B|267:225|267:225|312:248|312:248|289:203|289:203|257:190,1,125,0|0,2:2|2:2,2:2:0:0:
192,80,125261,6,0,P|171:70|162:46,1,44.999998626709,0|0,2:2|2:2,2:2:0:0:
320,80,125561,2,0,P|340:70|349:46,1,44.999998626709,0|0,2:2|2:2,2:2:0:0:
192,144,125861,6,0,L|144:144,1,44.999998626709,0|0,2:2|2:2,2:2:0:0:
320,144,126161,2,0,L|368:144,1,44.999998626709,0|0,2:2|2:2,2:2:0:0:
192,208,126461,6,0,P|171:217|162:241,1,44.999998626709,0|0,2:2|2:2,2:2:0:0:
320,208,126761,2,0,P|340:217|349:241,1,44.999998626709,0|0,2:2|2:2,2:2:0:0:
368,320,127061,1,0,2:2:0:0:
336,352,127211,1,0,2:2:0:0:
288,336,127361,1,0,2:2:0:0:
192,80,127661,6,0,L|148:96,1,44.999998626709,0|0,2:2|2:2,2:2:0:0:
182,127,127961,2,0,L|240:105,1,59.9999981689454,0|0,2:2|2:2,2:2:0:0:
256,144,128261,2,0,L|161:184,1,89.9999972534181,0|0,2:2|2:2,2:2:0:0:
246,191,128561,2,0,L|337:157,1,89.9999972534181,0|0,2:2|2:2,2:2:0:0:
320,208,128861,2,0,L|185:265,1,134.999995880127,0|0,2:2|2:2,2:2:0:0:
310,255,129161,2,0,L|444:199,1,134.999995880127,0|0,2:2|2:2,2:2:0:0:
461,166,129461,1,0,2:2:0:0:
457,110,129611,1,0,2:2:0:0:
320,144,129761,5,0,2:2:0:0:
176,32,129911,1,0,2:2:0:0:
320,48,130061,1,0,2:2:0:0:
112,192,130211,2,0,B|128:224|128:224|198:218|211:230,1,89.9999972534181,0|0,2:2|2:2,2:2:0:0:
368,256,130511,1,0,2:2:0:0:
480,176,130661,2,0,B|466:147|466:147|355:153|360:138,1,142.500001358986,0|0,2:2|2:2,2:2:0:0:
288,96,130961,6,0,L|352:64,1,50,0|0,2:2|2:2,2:2:0:0:
224,144,131261,2,0,L|160:112,1,50,0|0,2:2|2:2,2:2:0:0:
288,192,131561,2,0,L|379:158,1,89.9999972534181,0|0,2:2|2:2,2:2:0:0:
224,240,131786,2,0,L|98:166,1,134.999995880127,0|0,2:2|2:2,2:2:0:0:
64,160,132161,6,0,P|62:251|112:304,1,134.999995880127,0|0,2:2|2:2,2:2:0:0:
144,336,132461,1,0,2:2:0:0:
432,288,132611,2,0,P|448:240|400:176,1,134.999995880127,0|0,2:2|2:2,2:2:0:0:
352,144,132911,1,0,2:2:0:0:
160,64,133061,1,0,2:2:0:0:
192,272,133211,1,0,2:2:0:0:
320,64,133361,6,0,P|261:36|228:80,1,89.9999972534181,0|0,2:2|2:2,2:2:0:0:
256,240,133661,1,0,2:2:0:0:
304,288,133811,6,0,P|363:284|354:225,1,134.999995880127,0|0,2:2|2:2,2:2:0:0:
208,112,134111,1,0,2:2:0:0:
388,184,134261,2,0,B|400:144|368:112|368:112|336:80|336:80|296:68,1,134.999995880127,0|0,2:2|2:2,2:2:0:0:
112,272,134561,6,0,P|192:272|228:352,1,134.999995880127,0|0,2:2|2:2,2:2:0:0:
400,111,134861,2,0,P|334:118|287:73,1,134.999995880127,0|0,2:2|2:2,2:2:0:0:
304,320,135161,6,0,P|400:320|480:304,1,134.999995880127,0|0,2:2|2:2,2:2:0:0:
208,64,135461,2,0,P|112:64|32:79,1,134.999995880127,0|0,2:2|2:2,2:2:0:0:
160,256,135761,5,0,2:2:0:0:
240,320,135911,1,0,2:2:0:0:
128,176,136061,1,0,2:2:0:0:
112,336,136211,1,0,2:2:0:0:
240,192,136361,1,0,2:2:0:0:
80,256,136511,1,0,2:2:0:0:
256,288,136661,1,0,2:2:0:0:
160,144,136811,1,0,2:2:0:0:
128,192,136961,5,0,2:2:0:0:
240,144,137261,1,0,2:2:0:0:
272,128,137336,1,0,2:2:0:0:
304,112,137411,1,0,2:2:0:0:
384,192,137561,5,0,2:2:0:0:
272,240,137861,1,0,2:2:0:0:
240,256,137936,1,0,2:2:0:0:
208,272,138011,1,0,2:2:0:0:
256,192,138161,12,0,139136,2:2:0:0:
192,224,139361,6,0,P|192:272|288:304,1,150.000005722046,0|0,2:2|2:2,2:2:0:0:
384,256,139661,1,0,2:2:0:0:
320,48,139811,1,0,2:2:0:0:
48,256,140111,6,0,P|117:221|153:183,1,75.0000028610231,0|0,2:2|2:2,2:2:0:0:
192,128,140261,1,0,2:2:0:0:
384,304,140711,6,0,P|445:284|464:224,1,75.0000028610231,0|0,2:2|2:2,2:2:0:0:
464,192,140861,1,0,2:2:0:0:
256,96,141011,2,0,P|256:32|256:48,2,75.0000028610231,0|0|0,2:2|2:2|2:2,2:2:0:0:
208,288,141461,2,0,P|160:336|160:336,2,50,0|0|0,2:2|2:2|2:2,2:2:0:0:
304,288,141761,2,0,P|352:336|352:336,2,50,0|0|0,2:2|2:2|2:2,2:2:0:0:
48,80,142061,6,0,P|100:132|104:141,1,44.999998626709,0|0,2:2|2:2,2:2:0:0:
128,160,142211,1,0,2:2:0:0:
160,64,142511,6,0,P|212:116|216:125,1,44.999998626709,0|0,2:2|2:2,2:2:0:0:
128,208,142661,1,0,2:2:0:0:
128,64,142961,6,0,L|128:144,1,44.999998626709,0|0,2:2|2:2,2:2:0:0:
208,64,143261,6,0,L|208:176,1,89.9999972534181,0|0,2:2|2:2,2:2:0:0:
288,64,143561,6,0,L|288:240,1,134.999995880127,0|0,2:2|2:2,2:2:0:0:
368,64,143861,6,0,B|368:144|368:144|386:161|368:176|368:176|368:240,1,178.571428571429,0|0,2:2|2:2,2:2:0:0:
368,320,144161,1,0,2:2:0:0:
208,176,144461,6,0,P|156:124|152:115,1,44.999998626709,0|0,2:2|2:2,2:2:0:0:
128,96,144611,1,0,2:2:0:0:
304,176,144911,6,0,P|355:124|360:115,1,44.999998626709,0|0,2:2|2:2,2:2:0:0:
384,96,145061,1,0,2:2:0:0:
224,224,145511,6,0,P|165:268|155:270,1,44.999998626709,0|0,2:2|2:2,2:2:0:0:
160,272,145661,1,0,2:2:0:0:
288,224,145736,6,0,P|346:268|356:270,1,44.999998626709,0|0,2:2|2:2,2:2:0:0:
448,320,145961,1,0,2:2:0:0:
432,144,146261,1,0,2:2:0:0:
240,96,146561,6,0,P|231:116|219:135,1,44.999998626709,0|0,2:2|2:2,2:2:0:0:
160,176,146711,1,0,2:2:0:0:
304,176,146861,6,0,P|286:190|267:201,1,44.999998626709,0|0,2:2|2:2,2:2:0:0:
192,240,147011,1,0,2:2:0:0:
336,288,147311,6,0,P|314:294|292:296,1,44.999998626709,0|0,2:2|2:2,2:2:0:0:
207,303,147461,1,0,2:2:0:0:
112,112,147761,6,0,P|113:134|118:156,1,44.999998626709,0|0,2:2|2:2,2:2:0:0:
160,128,147911,6,0,P|161:150|166:172,1,44.999998626709,0|0,2:2|2:2,2:2:0:0:
208,144,148061,6,0,P|209:166|214:188,1,44.999998626709,0|0,2:2|2:2,2:2:0:0:
256,160,148211,6,0,P|257:182|262:204,1,44.999998626709,0|0,2:2|2:2,2:2:0:0:
368,224,148361,6,0,P|368:297|321:315,1,89.9999972534181,0|0,2:2|2:2,2:2:0:0:
256,336,148661,1,0,2:2:0:0:
80,256,148961,6,0,B|87:270|87:270|94:284|94:284|101:299|101:299|115:292|115:292|122:306|122:306|136:299|136:299|143:313|143:313|158:306|158:306|165:321|165:321|179:314|179:314|172:299|172:299|186:292|186:292|193:307|193:307,1,150.000005722046,0|0,2:2|2:2,2:2:0:0:
272,256,149261,1,0,2:2:0:0:
208,160,149411,1,0,2:2:0:0:
48,160,149636,6,0,P|117:125|128:112,1,75.0000028610231,0|0,2:2|2:2,2:2:0:0:
208,64,149861,1,0,2:2:0:0:
288,208,150236,6,0,P|349:188|368:128,1,75.0000028610231,0|0,2:2|2:2,2:2:0:0:
416,128,150461,1,0,2:2:0:0:
256,288,150611,2,0,P|256:352|256:336,2,75.0000028610231,0|0|0,2:2|2:2|2:2,2:2:0:0:
208,224,151061,2,0,P|140:224|140:224,2,50,0|0|0,2:2|2:2|2:2,2:2:0:0:
304,224,151361,2,0,P|371:224|371:224,2,50,0|0|0,2:2|2:2|2:2,2:2:0:0:
48,80,151661,6,0,P|100:132|104:141,1,44.999998626709,0|0,2:2|2:2,2:2:0:0:
128,160,151811,1,0,2:2:0:0:
160,64,152111,6,0,P|212:116|216:125,1,44.999998626709,0|0,2:2|2:2,2:2:0:0:
128,208,152261,1,0,2:2:0:0:
240,160,152561,6,0,P|266:183|296:175,1,47.4999987316132,0|0,2:2|2:2,2:2:0:0:
320,208,152861,6,0,P|288:256|320:320,1,100,0|0,2:2|2:2,2:2:0:0:
240,304,153161,6,0,P|209:229|115:218,1,131.578947368421,0|0,2:2|2:2,2:2:0:0:
154,144,153461,6,0,B|221:132|227:86|227:86|242:92|227:86|227:86|212:80|228:82|232:76|252:45|217:-20,1,178.571428571429,0|0,2:2|2:2,2:2:0:0:
368,304,153761,1,0,2:2:0:0:
48,80,154061,6,0,P|100:132|104:141,1,44.999998626709,0|0,2:2|2:2,2:2:0:0:
128,208,154211,1,0,2:2:0:0:
352,176,154511,6,0,P|335:160|316:148,1,44.999998626709,0|0,2:2|2:2,2:2:0:0:
208,96,154661,1,0,2:2:0:0:
48,80,155111,6,0,P|100:132|104:141,1,44.999998626709,0|0,2:2|2:2,2:2:0:0:
144,144,155261,1,0,2:2:0:0:
224,64,155336,6,0,P|179:122|171:127,1,44.999998626709,0|0,2:2|2:2,2:2:0:0:
128,208,155561,1,0,2:2:0:0:
128,224,155861,1,0,2:2:0:0:
48,80,156161,6,0,P|100:132|104:141,1,44.999998626709,0|0,2:2|2:2,2:2:0:0:
128,160,156311,1,0,2:2:0:0:
272,64,156461,6,0,P|324:116|328:125,1,44.999998626709,0|0,2:2|2:2,2:2:0:0:
384,176,156611,1,0,2:2:0:0:
160,64,156911,6,0,P|212:116|216:125,1,44.999998626709,0|0,2:2|2:2,2:2:0:0:
128,208,157061,5,0,2:2:0:0:
256,96,157361,6,0,P|240:112|228:131,1,44.999998626709,0|0,2:2|2:2,2:2:0:0:
256,96,157511,6,0,P|271:112|283:131,1,44.999998626709,0|0,2:2|2:2,2:2:0:0:
256,96,157661,6,0,B|271:79|294:64|283:60,1,44.999998626709,0|0,2:2|2:2,2:2:0:0:
256,96,157811,6,0,P|240:79|228:60,1,44.999998626709,0|0,2:2|2:2,2:2:0:0:
368,224,157961,6,0,P|368:297|321:315,1,89.9999972534181,0|0,2:2|2:2,2:2:0:0:
192,336,158261,5,0,2:2:0:0:
272,224,158411,1,0,2:2:0:0:
384,96,158561,5,2,2:2:0:0:
320,32,158711,1,0,2:2:0:0:
288,128,158861,1,0,2:2:0:0:
208,48,159011,1,0,2:2:0:0:
96,64,159161,6,0,P|48:112|48:160,1,89.9999972534181,0|0,2:2|2:2,2:2:0:0:
80,288,159461,2,0,L|16:368,1,89.9999972534181,0|0,2:2|2:2,2:2:0:0:
144,256,159761,2,0,L|96:176,1,89.9999972534181,0|0,2:2|2:2,2:2:0:0:
208,288,160061,2,0,L|160:368,1,89.9999972534181,0|0,2:2|2:2,2:2:0:0:
256,224,160361,2,0,P|288:272|336:288,1,89.9999972534181,0|0,2:2|2:2,2:2:0:0:
416,304,160661,5,0,2:2:0:0:
448,208,160811,1,0,2:2:0:0:
416,144,160961,5,2,2:2:0:0:
288,176,161111,1,0,2:2:0:0:
272,112,161261,5,0,2:2:0:0:
400,32,161411,1,0,2:2:0:0:
112,96,161561,6,0,P|64:144|64:192,1,89.9999972534181,0|0,2:2|2:2,2:2:0:0:
80,240,161861,1,0,2:2:0:0:
112,272,162011,1,0,2:2:0:0:
176,256,162161,5,4,2:2:0:0:
208,288,162311,1,0,2:2:0:0:
272,272,162461,1,0,2:2:0:0:
304,304,162611,1,0,2:2:0:0:
432,208,162761,6,0,P|448:256|400:304,1,89.9999972534181,0|0,2:2|2:2,2:2:0:0:
256,352,163061,1,0,2:2:0:0:
128,256,163211,1,0,2:2:0:0:
288,256,163361,1,2,2:2:0:0:
208,192,163511,1,0,2:2:0:0:
368,208,163661,5,0,2:2:0:0:
240,96,163811,1,0,2:2:0:0:
336,48,163961,6,0,P|380:49|416:76,1,89.9999972534181,0|0,2:2|2:2,2:2:0:0:
448,160,164261,1,0,2:2:0:0:
432,208,164411,1,0,2:2:0:0:
352,224,164561,5,4,2:2:0:0:
336,176,164711,1,0,2:2:0:0:
256,192,164861,1,0,2:2:0:0:
240,240,165011,1,0,2:2:0:0:
384,64,165161,6,0,B|416:48|416:48|432:80|432:80|400:128|400:128,1,89.9999972534181,0|0,2:2|2:2,2:2:0:0:
400,192,165461,1,0,2:2:0:0:
352,240,165611,1,0,2:2:0:0:
256,304,165761,5,2,2:2:0:0:
128,272,165911,1,0,2:2:0:0:
272,208,166061,1,0,2:2:0:0:
176,144,166211,1,0,2:2:0:0:
288,48,166361,6,0,P|353:51|384:80,1,89.9999972534181,0|0,2:2|2:2,2:2:0:0:
416,208,166661,1,0,2:2:0:0:
368,272,166811,1,0,2:2:0:0:
320,208,166961,1,4,2:2:0:0:
272,272,167111,1,0,2:2:0:0:
240,208,167261,5,0,2:2:0:0:
192,272,167411,1,0,2:2:0:0:
80,304,167561,6,0,P|50:289|85:233,1,89.9999972534181,0|0,2:2|2:2,2:2:0:0:
144,144,167861,1,0,2:2:0:0:
304,192,168011,1,0,2:2:0:0:
304,80,168161,5,2,2:2:0:0:
176,112,168311,1,0,2:2:0:0:
208,256,168461,1,0,2:2:0:0:
208,80,168611,1,0,2:2:0:0:
112,48,168761,6,0,P|64:80|80:96,1,89.9999972534181,0|0,2:2|2:2,2:2:0:0:
144,144,169061,1,0,2:2:0:0:
256,192,169211,1,0,2:2:0:0:
240,96,169361,5,4,2:2:0:0:
176,240,169511,1,0,2:2:0:0:
304,176,169661,1,0,2:2:0:0:
112,192,169811,1,0,2:2:0:0:
127,307,169961,6,0,P|163:333|208:336,1,89.9999972534181,0|0,2:2|2:2,2:2:0:0:
352,288,170261,1,0,2:2:0:0:
368,256,170411,1,0,2:2:0:0:
384,288,170561,1,2,2:2:0:0:
320,320,170711,1,0,2:2:0:0:
368,224,170861,5,0,2:2:0:0:
432,320,171011,1,0,2:2:0:0:
208,336,171161,6,0,P|171:310|156:268,1,89.9999972534181,0|0,2:2|2:2,2:2:0:0:
192,160,171461,1,0,2:2:0:0:
256,80,171611,1,0,2:2:0:0:
320,160,171761,2,0,L|341:158,1,22.4999993133545,0|0,2:2|2:2,2:2:0:0:
432,144,171911,1,0,2:2:0:0:
336,64,172061,1,0,2:2:0:0:
240,160,172211,1,0,2:2:0:0:
96,64,172361,6,0,P|64:112|48:160,1,89.9999972534181,0|0,2:2|2:2,2:2:0:0:
64,256,172661,1,0,2:2:0:0:
160,192,172811,1,0,2:2:0:0:
256,144,172961,5,2,2:2:0:0:
288,176,173111,1,0,2:2:0:0:
320,208,173261,1,0,2:2:0:0:
352,240,173411,1,0,2:2:0:0:
432,80,173561,6,0,P|383:32|336:32,1,89.9999972534181,0|0,2:2|2:2,2:2:0:0:
208,48,173861,1,0,2:2:0:0:
140,42,174011,1,0,2:2:0:0:
101,95,174161,1,4,2:2:0:0:
144,144,174311,1,0,2:2:0:0:
208,144,174461,5,0,2:2:0:0:
240,96,174611,1,0,2:2:0:0:
336,48,174761,6,0,P|377:63|403:99,1,89.9999972534181,0|0,2:2|2:2,2:2:0:0:
416,176,175061,5,0,2:2:0:0:
336,288,175211,1,0,2:2:0:0:
144,288,175361,2,0,P|189:310|234:288,1,89.9999972534181,0|0,2:2|2:2,2:2:0:0:
279,242,175661,1,0,2:2:0:0:
291,231,175736,1,0,2:2:0:0:
302,220,175811,1,0,2:2:0:0:
370,106,175961,2,0,P|324:83|279:106,1,89.9999972534181,0|0,2:2|2:2,2:2:0:0:
234,152,176261,1,0,2:2:0:0:
223,163,176336,1,0,2:2:0:0:
211,174,176411,1,0,2:2:0:0:
128,320,176561,2,0,P|85:331|47:308,1,89.9999972534181,0|0,2:2|2:2,2:2:0:0:
47,75,177011,2,0,P|85:52|128:64,2,89.9999972534181,0|0|0,2:2|2:2|2:2,2:2:0:0:
48,176,177461,5,0,2:2:0:0:
64,224,177611,6,0,P|83:274|142:300,2,89.9999972534181,0|0|0,2:2|2:2|2:2,2:2:0:0:
256,192,177986,12,0,180161,2:2:0:0:
256,192,180236,12,0,181286,2:2:0:0:
256,192,181361,12,0,181886,2:2:0:0:
256,192,181961,12,0,184811,2:2:0:0:
256,192,184961,5,0,2:2:0:0:
