osu file format v14

[General]
AudioFilename: audio.mp3
AudioLeadIn: 0
PreviewTime: 52773
Countdown: 0
SampleSet: Soft
StackLeniency: 0.7
Mode: 0
LetterboxInBreaks: 0
WidescreenStoryboard: 1

[Editor]
Bookmarks: 43211,120011
DistanceSpacing: 1
BeatDivisor: 8
GridSize: 4
TimelineZoom: 2

[Metadata]
Title:Indoor Kei Nara Trackmaker (curryrice Remix)
TitleUnicode:インドア系ならトラックメイカー (curryrice Remix)
Artist:Yunomi & nicamoq
ArtistUnicode:ゆのみ & にかもきゅ
Creator:toybot
Version:sing's normal
Source:
Tags:future bass neilperry jounzan evilelvis sing japanese novelty
BeatmapID:1935977
BeatmapSetID:926885

[Difficulty]
HPDrainRate:4
CircleSize:3.5
OverallDifficulty:4.5
ApproachRate:6
SliderMultiplier:1.8
SliderTickRate:1

[Events]
//Background and Video events
0,0,"palace.jpg",0,0
//Break Periods
//Storyboard Layer 0 (Background)
//Storyboard Layer 1 (Fail)
//Storyboard Layer 2 (Pass)
//Storyboard Layer 3 (Foreground)
//Storyboard Sound Samples

[TimingPoints]
11,600,4,2,1,15,1,0
2261,-100,4,2,1,5,0,0
2411,-100,4,2,1,15,0,0
3461,-100,4,2,1,5,0,0
3611,-100,4,2,1,20,0,0
4661,-100,4,2,1,5,0,0
4811,-100,4,2,1,25,0,0
5861,-100,4,2,1,5,0,0
6011,-100,4,2,1,30,0,0
7061,-100,4,2,1,5,0,0
7211,-100,4,2,1,35,0,0
8261,-100,4,2,1,5,0,0
8411,-100,4,2,1,40,0,0
9461,-100,4,2,1,5,0,0
9611,-100,4,2,1,45,0,0
10661,-100,4,2,1,5,0,0
10811,-100,4,2,1,50,0,0
11861,-100,4,2,1,5,0,0
12011,-100,4,2,1,55,0,0
13061,-100,4,2,1,5,0,0
13211,-100,4,2,1,60,0,0
14261,-100,4,2,1,5,0,0
14411,-100,4,2,1,65,0,0
15461,-100,4,2,1,5,0,0
15611,-100,4,2,1,70,0,0
16661,-100,4,2,1,5,0,0
16811,-100,4,2,1,75,0,0
17861,-100,4,2,1,5,0,0
18011,-100,4,2,1,80,0,0
19061,-100,4,2,1,5,0,0
19211,-100,4,2,1,50,0,0
25736,-100,4,2,1,5,0,0
25811,-100,4,2,1,50,0,0
28136,-100,4,2,1,5,0,0
28211,-100,4,2,1,50,0,0
36761,-100,4,2,1,50,0,0
37361,-100,4,2,1,50,0,0
43211,-100,4,2,1,55,0,0
50711,-100,4,2,1,60,0,0
51011,-100,4,2,1,70,0,0
51311,-100,4,2,1,80,0,0
51761,-100,4,2,1,90,0,0
52211,-100,4,2,1,100,0,0
52811,-100,4,2,1,70,0,0
60011,-100,4,2,1,60,0,0
60311,-100,4,2,1,40,0,0
60611,-100,4,2,1,60,0,0
60911,-100,4,2,1,40,0,0
62411,-100,4,2,1,80,0,1
64511,-100,4,2,1,20,0,0
65111,-100,4,2,1,80,0,1
66161,-100,4,2,1,60,0,1
66611,-100,4,2,1,80,0,1
69311,-100,4,2,1,20,0,0
69611,-100,4,2,1,80,0,1
71711,-100,4,2,1,20,0,1
72011,-100,4,2,1,80,0,1
74111,-100,4,2,1,20,0,0
74711,-100,4,2,1,80,0,1
75761,-100,4,2,1,60,0,1
76211,-100,4,2,1,80,0,1
78911,-100,4,2,1,20,0,0
79211,-100,4,2,1,80,0,1
81611,-100,4,2,1,50,0,0
91211,-100,4,2,1,50,0,0
99611,-100,4,2,1,40,0,0
100811,-100,4,2,2,50,0,0
110411,-100,4,2,2,50,0,0
120011,-100,4,2,1,55,0,0
127511,-100,4,2,1,60,0,0
127811,-100,4,2,1,70,0,0
128111,-100,4,2,1,80,0,0
128561,-100,4,2,1,90,0,0
129011,-100,4,2,1,100,0,0
129611,-100,4,2,1,70,0,0
136811,-100,4,2,1,60,0,0
137111,-100,4,2,1,40,0,0
137411,-100,4,2,1,60,0,0
137711,-100,4,2,1,40,0,0
139211,-100,4,2,1,80,0,1
158411,-100,4,2,1,50,0,0
168011,-100,4,2,1,50,0,0
175211,-100,4,2,1,40,0,0
175811,-100,4,2,1,30,0,0

[Colours]
Combo1 : 231,109,119
Combo2 : 239,234,197
Combo3 : 226,163,129
Combo4 : 199,241,69

[HitObjects]
244,357,11,6,0,P|213:275|138:205,1,180,2|0,0:0|0:0,0:0:0:0:
162,31,1211,2,0,P|131:113|56:183,1,180,2|0,0:0|0:0,0:0:0:0:
0,344,2411,6,0,L|190:307,1,180,2|0,0:0|0:0,0:0:0:0:
156,130,3611,2,0,L|346:167,1,180,2|0,0:0|0:0,0:0:0:0:
322,344,4811,6,0,P|353:262|428:192,1,180,2|0,0:0|0:0,0:0:0:0:
417,18,6011,2,0,P|448:100|523:170,1,180,2|0,0:0|0:0,0:0:0:0:
426,322,7211,6,0,L|249:287,1,180,2|0,0:0|0:0,0:0:0:0:
235,108,8411,2,0,L|58:142,1,180,2|0,0:0|0:0,0:0:0:0:
25,319,9611,6,0,P|99:306|95:181,1,180,2|0,0:0|0:0,0:0:0:0:
69,41,10811,2,0,P|143:54|139:179,1,180,2|0,0:0|0:0,0:0:0:0:
224,315,12011,6,0,L|250:128,1,180,2|0,0:0|0:0,0:0:0:0:
369,2,13211,2,0,L|395:189,1,180,2|0,0:0|0:0,0:0:0:0:
446,352,14411,6,0,P|372:339|376:214,1,180,2|0,0:0|0:0,0:0:0:0:
402,74,15611,2,0,P|328:87|332:212,1,180,2|0,0:0|0:0,0:0:0:0:
247,348,16811,6,0,L|221:161,1,180,2|0,0:0|0:0,0:0:0:0:
102,35,18011,2,0,L|76:222,1,180,2|0,0:0|0:0,0:0:0:0:
252,253,19211,5,2,0:0:0:0:
172,294,19511,2,0,P|157:337|164:385,2,90,0|0|0,0:0|0:0|0:0,0:0:0:0:
252,253,20411,2,0,L|237:146,1,90,2|0,0:0|0:0,0:0:0:0:
328,152,21011,2,0,L|343:45,1,90,0|0,0:0|0:0,0:0:0:0:
413,10,21611,6,0,P|456:-5|504:2,2,90,2|0|0,0:0|0:0|0:0,0:0:0:0:
340,62,22511,2,0,L|265:43,1,45,0|0,0:0|0:0,0:0:0:0:
285,6,22811,1,2,0:0:0:0:
285,6,22961,1,0,0:0:0:0:
285,6,23111,2,0,L|178:21,1,90,0|0,0:0|0:0,0:0:0:0:
140,89,23711,1,0,0:0:0:0:
54,62,24011,6,0,P|14:117|28:208,1,135,2|0,0:0|0:0,0:0:0:0:
0,224,24611,2,0,L|100:207,1,90,0|0,0:0|0:0,0:0:0:0:
163,259,25211,2,0,L|180:159,1,90,2|0,0:0|0:0,0:0:0:0:
128,94,25811,2,0,P|173:69|228:73,1,90
294,36,26411,5,2,0:0:0:0:
313,123,26711,1,0,0:0:0:0:
313,123,26861,1,0,0:0:0:0:
313,123,27011,2,0,L|413:140,1,90,0|0,0:0|0:0,0:0:0:0:
471,81,27611,2,0,L|488:181,1,90,2|0,0:0|0:0,0:0:0:0:
502,258,28211,2,0,P|436:262|392:311,1,135
390,356,28811,5,2,0:0:0:0:
300,357,29111,1,0,0:0:0:0:
226,304,29411,1,0,0:0:0:0:
206,216,29711,1,0,0:0:0:0:
234,130,30011,2,0,P|229:85|201:51,2,90,2|0|0,0:0|0:0|0:0,0:0:0:0:
61,181,31211,5,2,0:0:0:0:
61,181,31361,2,0,L|78:293,1,90,0|0,0:0|0:0,0:0:0:0:
47,305,31811,2,0,P|81:332|125:337,1,90,0|0,0:0|0:0,0:0:0:0:
211,307,32411,1,2,0:0:0:0:
212,217,32711,2,0,L|260:227,2,45
123,60,33611,6,0,P|157:32|201:27,1,90,2|0,0:0|0:0,0:0:0:0:
239,53,34061,1,0,0:0:0:0:
239,53,34211,1,0,0:0:0:0:
325,78,34511,1,0,0:0:0:0:
408,43,34811,1,2,0:0:0:0:
408,43,34961,2,0,L|420:154,1,90
394,171,35411,1,0,0:0:0:0:
344,246,35711,2,0,L|333:312,1,45
299,316,36011,5,2,0:0:0:0:
299,316,36161,2,0,P|249:323|209:360,1,90,0|0,0:0|0:0,0:0:0:0:
184,375,36611,1,0,0:0:0:0:
184,375,36761,2,0,P|135:359|103:316,1,90
64,335,37211,6,0,L|80:186,1,135,2|0,0:0|0:0,0:0:0:0:
105,164,37811,1,0,0:0:0:0:
59,86,38111,1,0,0:0:0:0:
136,40,38411,6,0,B|257:18|172:76|323:48,3,180,2|2|2|2,0:0|0:0|0:0|0:0,0:0:0:0:
485,97,40811,5,2,0:0:0:0:
400,234,42761,5,4,3:0:0:0:
400,234,42911,2,4,L|356:229,1,45,4|4,3:0|3:0,3:0:0:0:
319,255,43211,5,4,1:0:0:0:
239,214,43511,1,8,0:1:0:0:
151,223,43811,1,8,0:1:0:0:
81,278,44111,1,8,0:1:0:0:
52,361,44411,2,0,L|36:258,1,90,8|10,0:1|0:0,0:0:0:0:
122,240,45011,2,0,L|138:136,1,90,8|10,0:1|0:0,0:0:0:0:
105,117,45461,1,8,0:1:0:0:
105,117,45611,5,8,0:1:0:0:
146,37,45911,1,8,0:1:0:0:
235,23,46211,2,0,P|257:21|278:28,1,45,8|0,0:1|0:1,0:0:0:0:
309,61,46511,1,8,0:0:0:0:
334,147,46811,1,8,0:1:0:0:
334,147,46961,2,0,P|383:172|436:168,1,90,2|0,0:0|0:1,0:0:0:0:
460,159,47411,2,0,L|446:247,1,90,8|10,0:1|0:0,0:0:0:0:
478,278,47861,1,8,0:1:0:0:
478,278,48011,5,8,0:0:0:0:
412,339,48311,2,0,L|420:383,2,45,8|0|0,0:1|0:1|0:0,0:0:0:0:
334,293,48911,2,0,L|325:248,1,45,8|0,0:1|0:1,0:0:0:0:
287,223,49211,2,0,L|191:248,1,90,8|10,0:1|0:0,0:0:0:0:
173,159,49811,2,0,L|77:134,1,90,8|10,0:1|0:0,0:0:0:0:
45,157,50261,1,8,0:1:0:0:
45,157,50411,6,0,P|14:212|16:263,1,90,10|10,0:1|0:1,0:0:0:0:
55,316,51011,2,0,L|161:299,1,90,10|10,0:1|0:1,0:0:0:0:
210,244,51611,1,10,0:1:0:0:
210,244,51761,2,0,P|179:189|181:138,1,90,0|0,0:1|0:1,0:0:0:0:
211,133,52211,2,0,L|317:150,1,90,10|10,0:1|0:1,0:0:0:0:
370,90,52811,6,0,P|432:98|484:178,2,135,12|4|12,1:1|1:1|1:1,0:0:0:0:
299,147,54011,2,0,L|313:249,1,90,12|8,1:1|0:1,0:0:0:0:
352,254,54461,1,4,1:1:0:0:
352,254,54611,2,0,L|338:356,1,90,10|12,0:1|1:1,0:0:0:0:
256,376,55211,6,0,L|111:348,2,135,12|4|12,1:1|1:1|1:1,0:0:0:0:
339,343,56411,1,12,1:1:0:0:
339,343,56561,2,0,L|352:254,1,90,2|4,0:1|1:1,0:0:0:0:
311,236,57011,2,0,L|299:147,1,90,10|12,0:1|1:1,0:0:0:0:
370,90,57611,6,0,P|333:55|279:48,1,90,12|8,1:1|1:1,0:0:0:0:
219,0,58211,2,0,P|170:14|137:57,1,90,8|8,1:1|1:1,0:0:0:0:
54,53,58811,6,0,L|64:113,3,45,12|0|8|0,1:0|1:0|1:0|1:0,0:0:0:0:
101,116,59411,2,0,L|91:176,3,45,12|0|12|0,1:0|1:0|1:0|1:0,0:0:0:0:
119,197,60011,5,4,1:0:0:0:
296,165,60611,1,4,1:0:0:0:
473,133,61211,1,0,0:0:0:0:
473,133,61361,2,0,P|442:178|442:254,1,90,2|0,0:0|0:0,0:0:0:0:
461,248,61811,2,0,L|360:271,1,90,2|0,0:0|0:0,0:0:0:0:
293,310,62411,6,0,P|262:265|262:189,1,90,4|2,1:0|0:1,0:0:0:0:
283,145,63011,2,0,L|182:168,1,90,8|2,0:0|0:1,0:0:0:0:
127,106,63611,1,0,1:0:0:0:
127,106,63761,2,0,L|107:193,1,90,2|2,0:1|0:1,0:0:0:0:
66,214,64211,1,8,0:0:0:0:
315,317,65111,6,0,L|227:336,2,90,2|8|2,0:1|0:0|0:1,0:0:0:0:
383,376,66011,1,0,1:0:0:0:
383,376,66161,2,0,L|402:288,1,90,2|0,0:1|0:0,0:0:0:0:
444,268,66611,1,8,0:0:0:0:
444,268,66761,2,0,P|446:213|417:162,1,90,2|2,0:0|0:0,0:0:0:0:
432,181,67211,6,0,L|339:167,1,90,4|2,1:0|0:1,0:0:0:0:
288,95,67811,2,0,P|239:101|209:135,1,90,8|2,0:0|0:1,0:0:0:0:
151,197,68411,1,0,1:0:0:0:
151,197,68561,2,0,L|57:182,1,90,2|2,0:1|0:1,0:0:0:0:
35,146,69011,1,8,0:0:0:0:
88,73,69311,2,0,L|82:25,1,45,2|2,0:0|0:0,0:0:0:0:
118,1,69611,6,0,P|166:7|196:41,1,90,0|0,1:0|0:0,0:0:0:0:
236,22,70061,1,2,0:0:0:0:
236,22,70211,2,0,L|247:131,1,90,8|2,0:0|0:0,0:0:0:0:
330,138,70811,1,0,1:0:0:0:
330,138,70961,2,0,L|319:247,1,90,10|8,0:0|0:0,0:0:0:0:
351,261,71411,1,10,0:0:0:0:
433,296,71711,1,2,0:0:0:0:
360,351,72011,6,0,P|316:345|282:317,1,90,4|2,1:0|0:1,0:0:0:0:
235,242,72611,2,0,L|140:255,1,90,8|2,0:0|0:1,0:0:0:0:
73,307,73211,1,0,1:0:0:0:
73,307,73361,2,0,L|53:220,1,90,2|2,0:1|0:1,0:0:0:0:
13,196,73811,1,8,0:0:0:0:
236,93,74711,6,0,L|138:76,2,90,2|8|2,0:1|0:0|0:1,0:0:0:0:
314,147,75611,1,0,1:0:0:0:
314,147,75761,2,0,L|334:60,1,90,2|0,0:1|0:0,0:0:0:0:
370,39,76211,1,8,0:0:0:0:
370,39,76361,2,0,P|413:49|449:76,1,90,2|2,0:0|0:0,0:0:0:0:
449,76,76811,6,0,L|469:163,1,90,4|2,1:0|0:1,0:0:0:0:
411,233,77411,2,0,P|368:243|332:270,1,90,8|2,0:0|0:1,0:0:0:0:
241,263,78011,1,0,1:0:0:0:
241,263,78161,2,0,L|221:350,1,90,2|2,0:1|0:1,0:0:0:0:
179,369,78611,1,8,0:0:0:0:
103,320,78911,2,0,L|96:272,1,45,2|2,0:0|0:0,0:0:0:0:
67,241,79211,6,0,L|170:216,1,90,4|0,1:0|0:0,0:0:0:0:
175,179,79661,1,2,0:0:0:0:
175,179,79811,2,0,P|206:135|212:94,1,90,8|2,0:0|0:0,0:0:0:0:
273,34,80411,1,0,1:0:0:0:
273,34,80561,2,0,P|311:71|324:111,1,90,10|0,0:0|0:0,0:0:0:0:
366,117,81011,1,8,0:0:0:0:
423,200,81311,5,8,0:0:0:0:
423,200,81461,1,8,0:0:0:0:
423,200,81611,2,0,L|415:308,1,90,4|0,1:0|0:0,0:0:0:0:
328,260,82211,2,0,L|336:368,1,90,8|0,0:0|0:0,0:0:0:0:
245,338,82811,1,2,1:0:0:0:
159,366,83111,1,2,0:1:0:0:
77,330,83411,1,10,0:1:0:0:
43,246,83711,1,2,0:1:0:0:
74,162,84011,6,0,P|116:139|143:104,1,90,0|0,1:0|0:0,0:0:0:0:
177,23,84611,2,0,L|239:33,1,45,8|0,0:0|0:0,0:0:0:0:
246,67,84911,2,0,L|308:77,1,45,0|0,0:0|0:0,0:0:0:0:
318,109,85211,1,0,1:0:0:0:
318,109,85361,2,0,P|356:128|383:163,1,90,2|0,0:1|0:0,0:0:0:0:
384,165,85811,2,0,L|485:147,1,90,10|2,0:1|0:1,0:0:0:0:
498,61,86411,5,0,1:0:0:0:
408,51,86711,1,0,0:0:0:0:
408,51,86861,1,0,0:0:0:0:
408,51,87011,1,8,0:0:0:0:
318,41,87311,2,0,L|306:107,1,45,0|0,0:0|0:0,0:0:0:0:
267,99,87611,2,0,L|284:216,1,90,2|2,1:0|0:1,0:0:0:0:
190,196,88211,2,0,L|173:313,1,90,10|2,0:1|0:1,0:0:0:0:
105,339,88811,5,0,1:0:0:0:
105,339,88961,1,0,0:0:0:0:
105,339,89111,2,0,P|58:330|9:277,2,90,0|8|0,0:0|0:0|0:0,0:0:0:0:
186,377,90011,1,0,1:0:0:0:
186,377,90161,2,0,P|221:350|265:342,1,90,2|0,0:1|0:0,0:0:0:0:
301,314,90611,2,0,L|394:331,1,90,10|2,0:1|0:1,0:0:0:0:
473,299,91211,6,0,L|463:238,1,45,4|0,1:0|0:0,0:0:0:0:
429,227,91511,2,0,L|419:166,2,45,2|0|10,0:0|0:0|0:0,0:0:0:0:
339,212,92111,1,2,0:0:0:0:
339,212,92261,1,0,0:0:0:0:
339,212,92411,1,2,1:2:0:0:
266,158,92711,1,2,0:1:0:0:
226,77,93011,1,10,0:0:0:0:
169,146,93311,1,2,0:1:0:0:
86,183,93611,6,0,P|64:134|64:76,1,90,2|2,1:2|0:0,0:0:0:0:
90,13,94211,2,0,L|142:19,1,45,10|0,0:0|0:0,0:0:0:0:
168,48,94511,2,0,L|220:54,1,45,2|0,0:0|0:0,0:0:0:0:
255,81,94811,1,2,1:2:0:0:
255,81,94961,2,0,P|233:130|233:188,1,90,2|0,0:1|0:0,0:0:0:0:
264,194,95411,2,0,L|362:182,1,90,8|2,0:0|0:1,0:0:0:0:
381,97,96011,5,2,1:2:0:0:
468,138,96311,1,2,0:0:0:0:
468,138,96461,1,0,0:0:0:0:
468,138,96611,1,10,0:0:0:0:
503,220,96911,2,0,L|493:270,1,45,2|0,0:0|0:0,0:0:0:0:
455,287,97211,1,2,1:2:0:0:
366,304,97511,1,2,0:1:0:0:
277,321,97811,2,0,L|287:371,2,45,10|0|2,0:0|0:0|0:1,0:0:0:0:
196,360,98411,5,0,1:0:0:0:
157,184,99011,1,8,0:0:0:0:
119,7,99611,1,0,0:0:0:0:
119,7,99761,2,0,P|57:49|44:94,1,90,2|0,0:0|0:0,0:0:0:0:
7,49,100211,2,0,L|29:153,1,90,2|0,0:0|0:0,0:0:0:0:
17,227,100811,6,0,P|77:170|160:169,1,135,4|8,1:0|0:0,0:0:0:0:
162,134,101411,2,0,L|185:237,1,90,2|10,1:2|0:0,0:0:0:0:
267,249,102011,1,2,1:2:0:0:
267,249,102161,2,0,L|244:352,1,90,0|8,0:0|0:0,0:0:0:0:
280,367,102611,2,0,P|332:370|375:337,1,90,2|8,1:2|0:0,0:0:0:0:
453,347,103211,5,2,1:2:0:0:
498,269,103511,1,2,0:0:0:0:
498,269,103661,1,8,0:0:0:0:
498,269,103811,2,0,P|458:248|414:253,1,90,2|10,1:2|0:0,0:0:0:0:
329,225,104411,2,0,L|340:126,1,90,2|0,1:2|0:0,0:0:0:0:
316,96,104861,1,8,0:0:0:0:
316,96,105011,1,0,1:0:0:0:
370,24,105311,1,10,0:0:0:0:
460,35,105611,6,0,P|494:93|492:186,1,135,2|8,1:2|0:0,0:0:0:0:
458,179,106211,2,0,L|358:169,1,90,2|10,1:2|0:0,0:0:0:0:
331,251,106811,1,2,1:2:0:0:
331,251,106961,2,0,L|231:261,1,90,0|8,0:0|0:0,0:0:0:0:
206,288,107411,2,0,P|176:241|172:183,1,90,2|8,1:2|0:0,0:0:0:0:
215,130,108011,6,0,L|276:140,2,45,2|0|2,1:2|0:0|0:0,0:0:0:0:
188,93,108461,1,8,0:0:0:0:
188,93,108611,2,0,L|85:82,1,90,2|10,1:2|0:0,0:0:0:0:
23,133,109211,2,0,L|34:200,1,45,2|0,1:2|0:0,0:0:0:0:
72,192,109511,2,0,L|83:259,1,45,0|8,0:0|0:0,0:0:0:0:
105,273,109811,2,0,P|159:293|186:352,1,90,0|8,1:0|0:0,0:0:0:0:
246,376,110411,5,4,1:0:0:0:
252,286,110711,1,8,0:1:0:0:
259,196,111011,2,0,L|319:184,1,45,8|0,1:0|0:0,0:0:0:0:
326,148,111311,2,0,L|386:136,1,45,10|0,0:0|0:0,0:0:0:0:
399,104,111611,2,0,L|404:6,1,90,2|2,1:2|0:0,0:0:0:0:
490,36,112211,2,0,L|485:125,1,90,2|8,1:2|0:0,0:0:0:0:
498,214,112811,6,0,P|438:222|390:266,1,90,2|8,1:2|0:1,0:0:0:0:
400,280,113261,1,8,0:0:0:0:
400,280,113411,2,0,P|340:272|292:228,1,90,2|10,1:2|0:0,0:0:0:0:
261,185,114011,2,0,L|269:124,1,45,2|0,1:2|0:0,0:0:0:0:
244,100,114311,2,0,L|252:39,1,45,8|8,0:1|0:0,0:0:0:0:
224,17,114611,1,0,1:0:0:0:
137,41,114911,1,10,0:0:0:0:
50,67,115211,6,0,P|78:123|84:184,1,90,2|8,1:2|0:1,0:0:0:0:
119,176,115661,1,8,0:0:0:0:
119,176,115811,2,0,L|102:285,1,90,2|10,1:2|0:0,0:0:0:0:
180,313,116411,2,0,P|122:354|58:341,2,135,2|8|8,1:2|0:0|0:0,0:0:0:0:
258,354,117611,6,0,L|276:250,1,90,2|0,1:2|0:0,0:0:0:0:
317,254,118061,1,8,0:0:0:0:
317,254,118211,2,0,L|299:150,1,90,2|10,0:0|0:0,0:0:0:0:
379,120,118811,1,0,0:0:0:0:
323,48,119111,1,0,0:0:0:0:
323,48,119261,1,8,0:0:0:0:
323,48,119411,2,0,L|244:68,1,45,8|8,0:3|3:0,0:0:0:0:
235,48,119711,1,8,3:0:0:0:
193,129,120011,5,4,1:0:0:0:
273,170,120311,1,8,0:1:0:0:
361,161,120611,1,8,0:1:0:0:
431,106,120911,1,8,0:1:0:0:
460,23,121211,2,0,L|476:126,1,90,8|10,0:1|0:0,0:0:0:0:
390,144,121811,2,0,L|374:248,1,90,8|10,0:1|0:0,0:0:0:0:
407,267,122261,1,8,0:1:0:0:
407,267,122411,5,8,0:1:0:0:
366,347,122711,1,8,0:1:0:0:
276,359,123011,2,0,P|253:359|232:352,1,45,8|0,0:1|0:0,0:0:0:0:
196,324,123311,1,8,0:1:0:0:
178,235,123611,1,8,0:1:0:0:
178,235,123761,2,0,P|129:210|76:214,1,90,2|0,0:0|0:0,0:0:0:0:
53,226,124211,2,0,L|67:138,1,90,8|10,0:1|0:0,0:0:0:0:
31,111,124661,1,8,0:1:0:0:
31,111,124811,5,8,0:1:0:0:
92,45,125111,2,0,L|84:1,2,45,8|0|8,0:1|0:0|0:1,0:0:0:0:
172,88,125711,2,0,L|181:133,1,45,8|0,0:1|0:0,0:0:0:0:
218,158,126011,2,0,L|314:133,1,90,8|10,0:1|0:0,0:0:0:0:
334,221,126611,2,0,L|430:246,1,90,8|10,0:1|0:0,0:0:0:0:
462,223,127061,1,8,0:1:0:0:
462,223,127211,6,0,P|493:168|491:117,1,90,10|10,0:1|0:1,0:0:0:0:
454,63,127811,2,0,L|348:80,1,90,10|10,0:1|0:1,0:0:0:0:
301,141,128411,1,10,0:1:0:0:
301,141,128561,2,0,P|332:196|330:247,1,90,0|0,0:1|0:1,0:0:0:0:
301,251,129011,2,0,L|195:234,1,90,10|10,0:1|0:1,0:0:0:0:
142,294,129611,6,0,P|80:286|28:206,2,135,12|4|12,1:1|1:1|1:1,0:0:0:0:
213,237,130811,2,0,L|199:135,1,90,12|8,1:1|0:1,0:0:0:0:
160,130,131261,1,4,1:1:0:0:
160,130,131411,2,0,L|174:28,1,90,10|12,0:1|1:1,0:0:0:0:
256,8,132011,6,0,L|401:36,2,135,12|4|12,1:1|1:1|1:1,0:0:0:0:
173,41,133211,1,12,1:1:0:0:
173,41,133361,2,0,L|160:130,1,90,2|4,0:1|1:1,0:0:0:0:
201,148,133811,2,0,L|213:237,1,90,10|12,0:1|1:1,0:0:0:0:
142,294,134411,6,0,P|179:329|233:336,1,90,12|8,1:1|1:1,0:0:0:0:
293,384,135011,2,0,P|342:370|375:327,1,90,8|8,1:1|1:1,0:0:0:0:
458,331,135611,6,0,L|448:271,3,45,12|0|8|0,1:0|1:0|1:0|1:0,0:0:0:0:
411,268,136211,2,0,L|421:208,3,45,12|0|12|0,1:0|1:0|1:0|1:0,0:0:0:0:
393,187,136811,5,4,1:0:0:0:
216,219,137411,1,4,1:0:0:0:
39,251,138011,1,0,0:0:0:0:
39,251,138161,2,0,P|70:206|70:130,1,90,2|0,0:0|0:0,0:0:0:0:
51,136,138611,2,0,L|152:113,1,90,2|0,0:0|0:0,0:0:0:0:
178,36,139211,6,0,L|286:48,1,90,4|0,1:0|0:0,0:0:0:0:
295,8,139661,2,0,P|353:60|360:97,1,90,4|0,1:3|0:0,0:0:0:0:
397,87,140111,1,4,1:3:0:0:
507,163,140561,1,0,0:0:0:0:
507,163,140711,2,0,L|498:233,1,45,4|0,1:3|0:0,0:0:0:0:
469,240,141011,2,0,L|361:252,1,90,8|0,0:0|0:0,0:0:0:0:
310,192,141611,6,0,P|287:230|248:252,1,90,4|0,1:0|0:0,0:0:0:0:
208,233,142061,2,0,L|192:353,1,90,4|0,1:3|0:0,0:0:0:0:
157,345,142511,1,4,1:3:0:0:
71,373,142811,2,0,L|55:253,1,90,0|4,0:0|1:3,0:0:0:0:
84,246,143261,1,0,0:0:0:0:
84,246,143411,2,0,L|90:185,1,45,8|2,0:0|0:0,0:0:0:0:
63,163,143711,1,2,0:0:0:0:
112,88,144011,6,0,P|165:60|221:73,1,90,4|0,1:0|0:0,0:0:0:0:
232,37,144461,2,0,L|248:147,1,90,4|0,1:3|0:0,0:0:0:0:
287,141,144911,1,4,1:3:0:0:
212,253,145361,1,0,0:0:0:0:
212,253,145511,2,0,L|157:257,1,45,4|0,1:3|0:0,0:0:0:0:
123,242,145811,2,0,L|107:352,1,90,8|0,0:0|0:0,0:0:0:0:
192,371,146411,5,4,1:0:0:0:
279,351,146711,1,0,0:0:0:0:
279,351,146861,1,4,1:3:0:0:
366,331,147161,1,0,0:0:0:0:
366,331,147311,2,0,L|372:253,1,45,4|0,1:3|0:0,0:0:0:0:
409,265,147611,2,0,L|396:206,3,60,2|2|2|10,0:1|0:1|0:1|0:1,0:0:0:0:
442,128,148511,1,2,0:1:0:0:
393,52,148811,6,0,L|275:38,1,90,4|2,1:0|0:1,0:0:0:0:
272,9,149261,1,4,1:3:0:0:
272,9,149411,2,0,P|229:48|220:113,1,90,8|4,0:0|1:3,0:0:0:0:
207,166,150011,1,0,0:0:0:0:
207,166,150161,2,0,L|251:157,2,45,2|4|2,0:1|1:3|0:1,0:0:0:0:
168,190,150611,2,0,P|125:151|116:86,1,90,8|2,0:0|0:0,0:0:0:0:
27,97,151211,6,0,L|7:203,1,90,4|2,1:0|0:1,0:0:0:0:
36,222,151661,1,4,1:3:0:0:
36,222,151811,2,0,P|80:258|96:329,1,90,8|4,0:0|1:3,0:0:0:0:
157,350,152411,1,2,0:1:0:0:
245,332,152711,1,4,1:3:0:0:
333,314,153011,2,0,L|353:376,2,45,8|2|2,1:0|0:3|0:0,0:0:0:0:
276,243,153611,6,0,L|286:142,1,90,4|2,1:0|0:1,0:0:0:0:
253,121,154061,1,4,1:3:0:0:
253,121,154211,2,0,P|286:72|337:55,1,90,8|4,0:0|1:3,0:0:0:0:
402,63,154811,1,0,0:0:0:0:
402,63,154961,2,0,L|411:6,2,45,2|4|2,0:1|1:3|0:1,0:0:0:0:
435,93,155411,2,0,L|426:182,1,90,8|2,1:0|0:0,0:0:0:0:
485,250,156011,5,4,1:0:0:0:
396,268,156311,1,2,0:1:0:0:
396,268,156461,1,4,1:3:0:0:
307,286,156761,1,2,0:1:0:0:
307,286,156911,2,0,L|297:354,1,45,2|0,1:2|0:0,0:0:0:0:
258,348,157211,1,2,0:1:0:0:
258,348,157361,2,0,L|163:327,1,90,2|0,0:1|0:0,0:0:0:0:
129,348,157811,2,0,P|137:303|115:243,1,90,8|4,0:3|3:0,0:0:0:0:
73,187,158411,6,0,L|81:79,1,90,4|0,1:0|0:0,0:0:0:0:
166,119,159011,2,0,L|158:11,1,90,8|0,0:0|0:0,0:0:0:0:
247,44,159611,1,2,1:0:0:0:
333,16,159911,1,2,0:1:0:0:
417,47,160211,1,10,0:1:0:0:
459,126,160511,1,2,0:1:0:0:
445,214,160811,6,0,P|403:237|376:272,1,90,0|0,1:0|0:0,0:0:0:0:
342,353,161411,2,0,L|280:343,1,45,8|0,0:0|0:0,0:0:0:0:
273,309,161711,2,0,L|211:299,1,45,0|0,0:0|0:0,0:0:0:0:
201,267,162011,1,0,1:0:0:0:
201,267,162161,2,0,P|159:244|132:209,1,90,2|0,0:1|0:0,0:0:0:0:
133,211,162611,2,0,L|32:229,1,90,10|2,0:1|0:1,0:0:0:0:
17,313,163211,5,0,1:0:0:0:
107,323,163511,1,0,0:0:0:0:
107,323,163661,1,0,0:0:0:0:
107,323,163811,1,8,0:0:0:0:
197,333,164111,2,0,L|209:267,1,45,0|0,0:0|0:0,0:0:0:0:
248,275,164411,2,0,L|231:158,1,90,2|2,1:0|0:1,0:0:0:0:
324,190,165011,2,0,L|341:73,1,90,10|2,0:1|0:1,0:0:0:0:
407,45,165611,5,0,1:0:0:0:
407,45,165761,1,0,0:0:0:0:
407,45,165911,2,0,P|454:54|503:107,2,90,0|8|0,0:0|0:0|0:0,0:0:0:0:
326,7,166811,1,0,1:0:0:0:
326,7,166961,2,0,P|291:34|247:42,1,90,2|0,0:0|0:0,0:0:0:0:
211,70,167411,2,0,L|118:53,1,90,10|2,0:0|0:0,0:0:0:0:
39,85,168011,6,0,L|49:146,1,45,4|0,1:0|0:0,0:0:0:0:
83,157,168311,2,0,L|93:218,2,45,2|0|10,0:0|0:0|0:0,0:0:0:0:
173,172,168911,1,0,0:0:0:0:
173,172,169061,1,2,0:0:0:0:
173,172,169211,1,2,1:2:0:0:
246,226,169511,1,2,0:1:0:0:
286,307,169811,1,10,0:0:0:0:
343,238,170111,1,2,0:1:0:0:
426,201,170411,6,0,P|448:250|448:308,1,90,2|2,1:2|0:0,0:0:0:0:
416,369,171011,2,0,L|364:363,1,45,10|0,0:0|0:0,0:0:0:0:
338,335,171311,2,0,L|286:329,1,45,2|0,0:0|0:0,0:0:0:0:
257,303,171611,1,2,1:2:0:0:
257,303,171761,2,0,P|279:254|279:196,1,90,2|0,0:1|0:0,0:0:0:0:
248,190,172211,2,0,L|150:202,1,90,10|2,0:0|0:1,0:0:0:0:
131,287,172811,5,2,1:2:0:0:
50,248,173111,1,2,0:0:0:0:
50,248,173261,1,0,0:0:0:0:
50,248,173411,1,10,0:0:0:0:
12,167,173711,2,0,L|22:117,1,45,2|0,0:0|0:0,0:0:0:0:
57,97,174011,1,2,1:2:0:0:
146,80,174311,1,2,0:1:0:0:
235,63,174611,2,0,L|225:13,2,45,10|0|2,0:0|0:0|0:1,0:0:0:0:
316,24,175211,5,0,1:0:0:0:
355,200,175811,1,8,0:0:0:0:
393,377,176411,1,0,0:0:0:0:
393,377,176561,2,0,P|455:335|468:290,1,90,0|0,0:0|0:0,0:0:0:0:
505,335,177011,2,0,L|483:231,2,90,0|0|2,0:0|0:0|0:0,0:0:0:0:
256,192,178211,12,2,184811,0:0:0:0:
