osu file format v14

[General]
AudioFilename: audio.mp3
AudioLeadIn: 0
PreviewTime: 52773
Countdown: 0
SampleSet: Soft
StackLeniency: 0.3
Mode: 0
LetterboxInBreaks: 0
WidescreenStoryboard: 1

[Editor]
Bookmarks: 43211
DistanceSpacing: 1.3
BeatDivisor: 8
GridSize: 4
TimelineZoom: 2

[Metadata]
Title:Indoor Kei Nara Trackmaker (curryrice Remix)
TitleUnicode:インドア系ならトラックメイカー (curryrice Remix)
Artist:Yunomi & nicamoq
ArtistUnicode:ゆのみ & にかもきゅ
Creator:toybot
Version:sing's master
Source:
Tags:future bass neilperry jounzan evilelvis sing japanese novelty
BeatmapID:1935933
BeatmapSetID:926885

[Difficulty]
HPDrainRate:6
CircleSize:4
OverallDifficulty:8
ApproachRate:9
SliderMultiplier:2.8
SliderTickRate:1

[Events]
//Background and Video events
0,0,"palace.jpg",0,0
//Break Periods
//Storyboard Layer 0 (Background)
//Storyboard Layer 1 (Fail)
//Storyboard Layer 2 (Pass)
//Storyboard Layer 3 (Foreground)
//Storyboard Sound Samples

[TimingPoints]
11,600,4,2,1,5,1,0
11,-1000,4,2,1,5,0,0
1211,-666.666666666667,4,2,1,10,0,0
2411,-500,4,2,1,15,0,0
3611,-400,4,2,1,20,0,0
4811,-333.333333333333,4,2,1,25,0,0
6011,-285.714285714286,4,2,1,30,0,0
7211,-250,4,2,1,35,0,0
8411,-222.222222222222,4,2,1,40,0,0
9611,-200,4,2,1,45,0,0
10811,-181.818181818182,4,2,1,50,0,0
12011,-166.666666666667,4,2,1,55,0,0
13211,-153.846153846154,4,2,1,60,0,0
14411,-142.857142857143,4,2,1,65,0,0
15611,-133.333333333333,4,2,1,70,0,0
16811,-125,4,2,1,75,0,0
18011,-117.647058823529,4,2,1,80,0,0
19211,-117.647058823529,4,2,1,50,0,0
36761,-133.333333333333,4,2,1,50,0,0
37361,-153.846153846153,4,2,1,50,0,0
43211,-100,4,2,1,55,0,0
50711,-90.9090909090909,4,2,1,60,0,0
51011,-83.3333333333333,4,2,1,70,0,0
51311,-76.9230769230769,4,2,1,80,0,0
51761,-71.4285714285714,4,2,1,90,0,0
52211,-66.6666666666667,4,2,1,100,0,0
52811,-86.9565217391304,4,2,1,60,0,0
60011,-500,4,2,1,40,0,0
60461,-50,4,2,1,40,0,0
60611,-333.333333333333,4,2,1,40,0,0
61061,-33.3333333333333,4,2,1,40,0,0
61211,-1000,4,2,1,40,0,0
62411,-66.6666666666667,4,2,1,80,0,1
64511,-200,4,2,1,20,0,0
65111,-66.6666666666667,4,2,1,80,0,1
66161,-200,4,2,1,40,0,0
66611,-66.6666666666667,4,2,1,80,0,1
69311,-200,4,2,1,20,0,0
69611,-66.6666666666667,4,2,1,80,0,1
71711,-200,4,2,1,20,0,0
72011,-66.6666666666667,4,2,1,80,0,1
74111,-200,4,2,1,20,0,0
74711,-66.6666666666667,4,2,1,80,0,1
75761,-200,4,2,1,20,0,0
76211,-66.6666666666667,4,2,1,80,0,1
78911,-200,4,2,1,20,0,0
79211,-66.6666666666667,4,2,1,80,0,1
81611,-333.333333333333,4,2,1,50,0,0
91211,-250,4,2,1,50,0,0
99611,-1000,4,2,1,40,0,0
100811,-100,4,2,2,50,0,0
110411,-86.9565217391304,4,2,2,50,0,0
120011,-100,4,2,1,55,0,0
127511,-90.9090909090909,4,2,1,60,0,0
127811,-83.3333333333333,4,2,1,70,0,0
128111,-76.9230769230769,4,2,1,80,0,0
128561,-71.4285714285714,4,2,1,90,0,0
129011,-66.6666666666667,4,2,1,100,0,0
129611,-86.9565217391304,4,2,1,60,0,0
136811,-500,4,2,1,40,0,0
137261,-50,4,2,1,40,0,0
137411,-333.333333333333,4,2,1,40,0,0
137861,-33.3333333333333,4,2,1,40,0,0
138011,-1000,4,2,1,40,0,0
139211,-500,4,2,1,80,0,1
147311,-100,4,2,1,80,0,1
147611,-50,4,2,1,80,0,1
148811,-45.4545454545455,4,2,1,80,0,1
154511,-33.3333333333333,4,2,1,80,0,1
155111,-45.4545454545455,4,2,1,80,0,1
158111,-33.3333333333333,4,2,1,80,0,1
158411,-333.333333333333,4,2,1,50,0,0
168011,-250,4,2,1,50,0,0
175211,-250,4,2,1,40,0,0
175811,-250,4,2,1,30,0,0
176411,-1000,4,2,1,30,0,0
177611,-1000,4,2,1,5,0,0

[Colours]
Combo1 : 231,109,119
Combo2 : 239,234,197
Combo3 : 226,163,129
Combo4 : 199,241,69

[HitObjects]
252,27,11,6,0,P|246:45|247:59,1,28,2|0,0:0|0:0,0:0:0:0:
171,61,1211,6,0,P|173:80|190:106,1,41.9999987182618,2|0,0:0|0:0,0:0:0:0:
377,44,2411,6,0,P|359:43|320:60,1,56,2|0,0:0|0:0,0:0:0:0:
124,69,3611,6,0,P|153:74|186:104,1,70,2|0,0:0|0:0,0:0:0:0:
339,136,4811,6,0,P|322:94|330:39,1,83.9999974365235,2|0,0:0|0:0,0:0:0:0:
223,173,6011,6,0,P|185:152|123:164,1,97.9999970092774,2|0,0:0|0:0,0:0:0:0:
339,136,7211,6,0,P|383:150|451:105,1,112,2|0,0:0|0:0,0:0:0:0:
223,173,8411,6,0,P|244:234|250:315,1,125.999996154785,2|0,0:0|0:0,0:0:0:0:
430,235,9611,6,0,P|367:223|282:223,1,140,2|0,0:0|0:0,0:0:0:0:
99,316,10811,6,0,P|175:295|251:294,1,154.000004699707,2|0,0:0|0:0,0:0:0:0:
430,235,12011,6,0,P|387:281|354:387,1,167.999994873047,2|0,0:0|0:0,0:0:0:0:
99,316,13211,6,0,P|57:256|54:136,1,181.999991668702,2|0,0:0|0:0,0:0:0:0:
246,53,14411,6,0,P|168:62|46:24,1,195.999994018555,2|0,0:0|0:0,0:0:0:0:
489,278,15611,6,0,P|408:238|266:224,1,210.000008010865,2|0,0:0|0:0,0:0:0:0:
37,345,16811,6,0,P|95:253|126:132,1,224,2|0,0:0|0:0,0:0:0:0:
485,0,18011,6,0,P|416:42|369:207,1,238.00000453949,2|0,0:0|0:0,0:0:0:0:
47,45,19211,5,2,0:0:0:0:
220,136,19511,5,0,0:0:0:0:
255,70,19811,1,0,0:0:0:0:
229,0,20111,1,0,0:0:0:0:
49,149,20411,6,0,P|46:116|40:86,2,59.5000011348725,2|0|0,0:0|0:0|0:0,0:0:0:0:
239,151,21011,2,0,P|174:156|115:195,1,119.000002269745,0|0,0:0|0:0,0:0:0:0:
282,280,21611,6,0,P|284:247|291:217,1,59.5000011348725,2|0,0:0|0:0,0:0:0:0:
269,297,21911,2,0,P|321:324|379:328,1,119.000002269745,0|0,0:0|0:0,0:0:0:0:
489,278,22511,1,0,0:0:0:0:
486,266,22661,1,0,0:0:0:0:
484,254,22811,6,0,L|421:263,1,59.5000011348725,2|0,0:0|0:0,0:0:0:0:
379,328,23111,2,0,L|231:345,2,119.000002269745,0|0|0,0:0|0:0|0:0,0:0:0:0:
37,345,24011,5,2,0:0:0:0:
46,329,24161,2,0,L|165:343,1,119.000002269745,0|0,0:0|0:0,0:0:0:0:
237,370,24611,2,0,B|257:291|213:335|235:225,1,119.000002269745,0|0,0:0|0:0,0:0:0:0:
507,109,25211,5,2,0:0:0:0:
434,191,25511,1,0,0:0:0:0:
430,115,25811,1,0,0:0:0:0:
512,185,26111,1,0,0:0:0:0:
289,221,26411,6,0,P|224:208|151:208,1,119.000002269745,2|0,0:0|0:0,0:0:0:0:
117,140,26861,1,0,0:0:0:0:
117,140,27011,2,0,P|52:153|-21:153,1,119.000002269745,0|0,0:0|0:0,0:0:0:0:
353,0,27611,5,2,0:0:0:0:
340,73,27911,1,0,0:0:0:0:
329,146,28211,2,0,P|328:81|315:16,1,119.000002269745,0|0,0:0|0:0,0:0:0:0:
305,17,28661,1,0,0:0:0:0:
305,17,28811,5,2,0:0:0:0:
424,133,29111,1,0,0:0:0:0:
507,21,29411,2,0,L|441:32,1,59.5000011348725,0|0,0:0|0:0,0:0:0:0:
442,44,29711,1,0,0:0:0:0:
211,125,30011,6,0,L|352:150,2,119.000002269745,2|0|0,0:0|0:0|0:0,0:0:0:0:
46,329,31211,5,2,0:0:0:0:
101,274,31361,2,0,P|48:232|37:166,1,119.000002269745,0|0,0:0|0:0,0:0:0:0:
91,136,31811,1,0,0:0:0:0:
172,323,32111,2,0,P|185:288|185:236,1,59.5000011348725,0|0,0:0|0:0,0:0:0:0:
167,127,32411,6,0,P|171:156|182:183,1,59.5000011348725,2|0,0:0|0:0,0:0:0:0:
262,305,32711,1,0,0:0:0:0:
285,230,32861,1,0,0:0:0:0:
262,305,33011,2,0,B|415:272|325:367|508:315,1,238.00000453949,0|2,0:0|0:0,0:0:0:0:
424,133,33911,6,0,P|417:159|414:209,1,59.5000011348725,0|0,0:0|0:0,0:0:0:0:
369,253,34211,1,0,0:0:0:0:
492,92,34511,1,0,0:0:0:0:
305,17,34811,5,2,0:0:0:0:
251,72,34961,2,0,P|192:52|115:35,1,119.000002269745,0|0,0:0|0:0,0:0:0:0:
69,75,35411,1,0,0:0:0:0:
312,123,35711,2,0,P|276:137|245:159,1,59.5000011348725,0|0,0:0|0:0,0:0:0:0:
187,182,36011,5,2,0:0:0:0:
116,148,36161,2,0,L|131:-7,1,119.000002269745,0|0,0:0|0:0,0:0:0:0:
258,148,36611,5,0,0:0:0:0:
187,182,36761,2,0,L|202:337,1,105.000004005432,0|0,0:0|0:0,0:0:0:0:
329,182,37211,5,2,0:0:0:0:
258,148,37361,2,0,L|269:25,1,90.9999958343508,0|0,0:0|0:0,0:0:0:0:
400,148,37811,5,0,0:0:0:0:
266,231,38111,1,0,0:0:0:0:
400,148,38411,5,2,0:0:0:0:
329,182,39011,1,2,0:0:0:0:
258,148,39611,1,2,0:0:0:0:
187,182,40211,1,2,0:0:0:0:
116,148,40811,5,2,0:0:0:0:
116,148,41411,1,2,0:0:0:0:
116,148,42011,5,2,0:0:0:0:
37,164,42161,5,2,0:1:0:0:
31,145,42311,1,2,0:1:0:0:
34,125,42461,1,2,0:1:0:0:
46,110,42611,1,2,0:1:0:0:
85,227,42761,5,4,3:0:0:0:
29,30,42911,1,4,3:0:0:0:
54,306,43061,1,8,3:0:0:0:
107,57,43211,5,4,1:0:0:0:
241,11,43361,5,0,0:1:0:0:
240,24,43511,1,8,0:1:0:0:
239,37,43661,1,0,0:1:0:0:
186,109,43811,5,8,0:1:0:0:
251,148,43961,2,0,P|294:138|327:134,1,70,0|8,0:1|0:1,0:1:0:0:
390,166,44261,1,0,0:1:0:0:
464,30,44411,5,8,0:1:0:0:
390,166,44711,1,10,0:0:0:0:
512,248,45011,1,8,0:1:0:0:
438,384,45311,1,10,0:0:0:0:
444,299,45461,1,8,0:1:0:0:
512,248,45611,5,8,0:1:0:0:
438,384,45911,2,0,P|380:370|332:368,1,70,8|0,0:1|0:1,0:1:0:0:
274,363,46211,5,8,0:1:0:0:
287,360,46361,1,0,0:1:0:0:
184,384,46511,5,8,0:1:0:0:
197,381,46661,1,0,0:1:0:0:
109,372,46811,5,8,0:1:0:0:
8,379,46961,2,0,P|22:330|22:294,1,70,2|8,0:0|0:1,0:1:0:0:
102,281,47261,1,0,0:1:0:0:
190,350,47411,6,0,P|189:279|223:192,1,140,8|10,0:1|0:0,0:1:0:0:
272,165,47861,1,8,0:1:0:0:
230,101,48011,5,8,0:0:0:0:
280,256,48311,2,0,P|315:261|367:281,1,70,8|0,0:1|0:1,0:1:0:0:
512,127,48611,6,0,P|454:161|404:258,1,140,8|8,0:1|0:1,0:1:0:0:
347,271,49061,1,0,0:1:0:0:
347,271,49211,5,8,0:1:0:0:
328,125,49511,1,10,0:0:0:0:
100,152,49811,1,8,0:1:0:0:
81,6,50111,1,10,0:0:0:0:
62,83,50261,1,8,0:1:0:0:
100,152,50411,6,0,P|64:165|19:195,1,70,10|0,0:1|0:1,0:1:0:0:
189,162,50711,6,0,P|153:148|99:142,1,77.0000023498536,10|0,0:1|0:1,0:1:0:0:
256,232,51011,6,0,P|234:196|207:165,1,83.9999974365235,10|0,0:1|0:1,0:1:0:0:
261,335,51311,6,0,P|269:291|267:245,1,90.9999958343508,10|0,0:1|0:1,0:1:0:0:
471,170,51611,5,10,0:1:0:0:
429,233,51761,2,0,P|382:249|341:274,1,97.9999970092774,0|10,0:1|0:1,0:1:0:0:
267,245,52061,1,0,0:1:0:0:
240,132,52211,6,0,P|281:164|327:189,1,105.000004005432,10|0,0:1|0:1,0:1:0:0:
507,241,52511,1,10,0:1:0:0:
261,335,52661,1,0,0:1:0:0:
512,94,52811,5,12,1:1:0:0:
455,40,52961,2,0,P|398:52|345:34,1,80.5000015354157,2|8,0:1|0:1,0:1:0:0:
232,28,53261,5,4,1:1:0:0:
303,2,53411,2,0,P|374:76|388:163,1,161.000003070831,10|12,0:1|1:1,0:1:0:0:
376,147,53861,1,0,0:1:0:0:
376,147,54011,5,12,1:1:0:0:
286,184,54161,2,0,P|345:162|399:166,1,80.5000015354157,2|8,0:1|0:1,0:1:0:0:
500,191,54461,5,4,1:1:0:0:
512,94,54611,2,0,P|501:156|471:200,1,80.5000015354157,10|0,0:1|0:1,0:1:0:0:
476,334,54911,2,0,P|427:293|403:245,1,80.5000015354157,12|0,1:1|0:1,0:1:0:0:
240,252,55211,6,0,B|139:273|198:209|71:243,1,161.000003070831,12|8,1:1|0:1,0:1:0:0:
26,287,55661,1,4,1:1:0:0:
85,239,55811,6,0,P|66:189|22:133,1,80.5000015354157,10|0,0:1|0:1,0:1:0:0:
250,270,56111,2,0,P|229:304|216:342,1,80.5000015354157,12|0,1:1|0:1,0:1:0:0:
101,99,56411,5,12,1:1:0:0:
154,153,56561,2,0,P|184:161|254:162,1,80.5000015354157,2|8,0:1|0:1,0:1:0:0:
78,175,56861,1,4,1:1:0:0:
78,175,57011,5,10,0:1:0:0:
297,117,57311,2,0,B|310:78|310:78|289:34,1,80.5000015354157,12|0,1:1|0:1,0:1:0:0:
124,23,57611,5,12,1:1:0:0:
386,121,57911,2,0,P|387:77|394:24,1,80.5000015354157,8|0,1:1|0:1,0:1:0:0:
468,0,58211,6,0,P|472:40|473:80,1,80.5000015354157,8|0,1:1|0:1,0:1:0:0:
126,128,58511,1,8,1:1:0:0:
201,97,58661,1,0,0:1:0:0:
265,147,58811,5,12,1:0:0:0:
101,120,58961,1,0,1:0:0:0:
203,77,59111,1,8,1:0:0:0:
288,148,59261,1,0,1:0:0:0:
30,187,59411,5,12,1:0:0:0:
124,23,59561,1,0,1:0:0:0:
309,56,59711,1,12,1:0:0:0:
337,242,59861,1,0,1:0:0:0:
11,281,60011,6,0,L|40:289,1,28,4|4,1:0|0:3,0:0:0:0:
115,291,60386,1,4,3:0:0:0:
115,291,60461,2,0,L|102:380,1,70,4|0,3:0|0:0,0:0:0:0:
378,233,60611,6,0,L|332:242,1,41.9999987182618,4|4,1:0|0:3,0:0:0:0:
257,211,60986,1,4,3:0:0:0:
257,211,61061,2,0,L|280:338,1,105.000004005432,4|0,3:0|0:0,0:0:0:0:
512,383,61211,5,0,0:0:0:0:
453,341,61361,2,0,L|438:338,1,14,0|0,0:0|0:0,0:0:0:0:
242,379,61811,1,0,0:0:0:0:
399,272,62111,1,0,0:0:0:0:
242,19,62411,5,4,1:0:0:0:
171,60,62561,2,0,P|113:39|33:37,1,105.000004005432,0|2,0:0|0:1,0:0:0:0:
176,81,62861,1,0,0:0:0:0:
262,103,63011,6,0,P|313:96|362:77,1,105.000004005432,8|0,0:0|0:0,0:0:0:0:
121,229,63311,2,0,L|104:97,1,105.000004005432,2|0,0:1|0:0,0:0:0:0:
277,115,63611,5,0,1:0:0:0:
368,104,63761,2,0,L|381:0,1,105.000004005432,2|0,0:1|0:0,0:0:0:0:
330,182,64061,1,2,0:1:0:0:
382,118,64211,2,0,B|443:110|523:137,1,105.000004005432,8|2,0:0|0:0,0:0:0:0:
370,368,64511,5,2,0:0:0:0:
363,367,64661,1,2,0:0:0:0:
356,366,64811,1,2,0:0:0:0:
350,366,64961,1,2,0:0:0:0:
69,380,65111,6,0,B|130:388|210:361,1,105.000004005432,2|0,0:1|0:0,0:0:0:0:
138,213,65411,2,0,B|100:261|83:344,1,105.000004005432,8|0,0:0|0:0,0:0:0:0:
248,356,65711,2,0,B|224:299|161:243,1,105.000004005432,2|0,0:1|0:0,0:0:0:0:
0,166,66011,5,0,1:0:0:0:
58,116,66161,2,0,L|143:135,1,70,2|0,0:1|0:0,0:0:0:0:
185,288,66611,5,8,0:0:0:0:
136,114,66761,1,0,0:0:0:0:
138,213,66911,2,0,L|266:189,1,105.000004005432,0|0,0:0|0:0,0:0:0:0:
380,74,67211,5,4,1:0:0:0:
444,34,67361,2,0,P|479:80|475:165,1,105.000004005432,0|2,0:0|0:1,0:0:0:0:
317,17,67661,1,0,0:0:0:0:
240,180,67811,6,0,P|262:126|337:87,1,105.000004005432,8|0,0:0|0:0,0:0:0:0:
469,284,68111,2,0,P|411:291|340:245,1,105.000004005432,2|0,0:1|0:0,0:0:0:0:
298,97,68411,5,0,1:0:0:0:
232,37,68561,2,0,L|71:63,1,105.000004005432,2|0,0:1|0:0,0:0:0:0:
39,0,68861,2,0,B|20:51|20:51|59:122,1,105.000004005432,2|8,0:1|0:0,0:0:0:0:
240,180,69161,1,2,0:0:0:0:
116,141,69311,5,2,0:0:0:0:
122,139,69461,1,2,0:0:0:0:
61,294,69611,6,0,P|48:208|6:163,1,105.000004005432,0|0,1:0|0:0,0:0:0:0:
1,351,69911,1,0,0:0:0:0:
146,319,70061,2,0,P|177:238|163:178,1,105.000004005432,2|8,0:0|0:0,0:0:0:0:
1,351,70361,5,0,0:0:0:0:
279,292,70511,1,2,0:0:0:0:
253,376,70661,1,0,0:0:0:0:
216,230,70811,5,0,1:0:0:0:
512,373,70961,2,0,B|471:369|471:369|454:354|454:354|374:349,1,105.000004005432,2|0,0:0|0:0,0:0:0:0:
253,376,71261,1,0,0:0:0:0:
373,294,71411,2,0,B|352:309|339:335|339:335|342:368|363:415,1,105.000004005432,8|0,0:0|0:0,0:0:0:0:
511,293,71711,6,0,L|501:212,1,70,0|4,0:0|1:0,0:0:0:0:
372,203,72161,6,0,P|451:165|475:145,1,105.000004005432,0|2,0:0|0:1,0:0:0:0:
492,81,72461,1,0,0:0:0:0:
286,266,72611,6,0,P|365:304|389:324,1,105.000004005432,8|0,0:0|0:0,0:0:0:0:
227,174,72911,2,0,P|288:111|303:84,1,105.000004005432,2|0,0:1|0:0,0:0:0:0:
146,319,73211,5,0,1:0:0:0:
146,138,73361,2,0,L|164:267,1,105.000004005432,2|0,0:1|0:0,0:0:0:0:
0,124,73661,1,2,0:1:0:0:
0,305,73811,2,0,L|18:176,1,105.000004005432,8|2,0:0|0:0,0:0:0:0:
26,16,74111,5,2,0:0:0:0:
32,18,74261,1,2,0:0:0:0:
38,20,74411,1,2,0:0:0:0:
44,22,74561,1,2,0:0:0:0:
241,0,74711,6,0,L|109:21,1,105.000004005432,2|0,0:1|0:0,0:0:0:0:
52,135,75011,1,8,0:0:0:0:
115,88,75161,2,0,L|247:109,1,105.000004005432,0|2,0:0|0:1,0:0:0:0:
286,266,75461,1,0,0:0:0:0:
296,62,75611,5,0,1:0:0:0:
344,124,75761,2,0,P|337:160|329:207,1,70,2|0,0:1|0:0,0:0:0:0:
408,82,76211,5,8,0:0:0:0:
253,187,76361,1,0,0:0:0:0:
443,274,76511,2,0,P|439:220|427:156,1,105.000004005432,0|0,0:0|0:0,0:0:0:0:
364,11,76811,5,4,1:0:0:0:
408,82,76961,2,0,L|512:64,1,105.000004005432,0|2,0:0|0:1,0:0:0:0:
413,172,77261,1,0,0:0:0:0:
218,104,77411,6,0,P|265:60|287:4,1,105.000004005432,8|0,0:0|0:0,0:0:0:0:
286,266,77711,2,0,P|333:310|355:366,1,105.000004005432,2|0,0:1|0:0,0:0:0:0:
166,166,78011,5,0,1:0:0:0:
103,243,78161,2,0,L|-13:261,1,105.000004005432,2|0,0:1|0:0,0:0:0:0:
220,234,78461,2,0,L|104:252,1,105.000004005432,2|8,0:1|0:0,0:0:0:0:
285,167,78761,1,2,0:0:0:0:
215,320,78911,5,2,0:0:0:0:
217,326,79061,1,2,0:0:0:0:
118,136,79211,6,0,P|180:121|242:87,1,105.000004005432,4|0,1:0|0:0,0:0:0:0:
51,181,79511,1,0,0:0:0:0:
217,326,79661,6,0,P|279:341|341:375,1,105.000004005432,2|8,0:0|0:0,0:0:0:0:
125,220,79961,2,0,P|117:275|111:346,1,105.000004005432,0|2,0:0|0:0,0:0:0:0:
177,158,80261,1,8,0:0:0:0:
43,373,80411,5,0,1:0:0:0:
392,311,80561,1,10,0:0:0:0:
303,254,80711,2,0,P|311:309|317:380,1,105.000004005432,0|0,0:0|0:0,0:0:0:0:
217,155,81011,6,0,B|210:197|210:197|219:215|219:215|207:287,1,105.000004005432,8|0,0:0|0:0,0:0:0:0:
233,25,81311,1,8,0:0:0:0:
202,382,81461,1,8,0:0:0:0:
490,345,81611,5,4,1:0:0:0:
395,224,81761,5,0,0:0:0:0:
395,217,81911,1,0,0:0:0:0:
396,210,82061,1,0,0:0:0:0:
512,253,82211,5,8,0:0:0:0:
505,254,82361,1,0,0:0:0:0:
498,255,82511,1,0,0:0:0:0:
491,256,82661,1,0,0:0:0:0:
392,311,82811,6,0,L|403:350,1,20.9999993591309,2|0,1:0|0:0,0:0:0:0:
318,298,83111,2,0,L|301:334,1,20.9999993591309,2|0,0:1|0:0,0:0:0:0:
269,240,83411,2,0,L|232:257,1,20.9999993591309,10|0,0:1|0:0,0:0:0:0:
268,164,83711,2,0,L|228:154,1,20.9999993591309,2|0,0:1|0:0,0:0:0:0:
175,27,84011,5,0,1:0:0:0:
176,33,84161,1,0,0:0:0:0:
93,41,84311,5,0,0:0:0:0:
94,47,84461,1,0,0:0:0:0:
7,108,84611,5,8,0:0:0:0:
8,100,84761,1,0,0:0:0:0:
9,92,84911,1,0,0:0:0:0:
10,84,85061,1,0,0:0:0:0:
248,83,85211,5,0,1:0:0:0:
318,46,85361,2,0,L|341:54,1,20.9999993591309,2|0,0:1|0:0,0:0:0:0:
380,108,85661,1,0,0:0:0:0:
405,104,85811,2,0,L|428:112,1,20.9999993591309,10|0,0:1|0:0,0:0:0:0:
428,122,86111,2,0,L|451:130,1,20.9999993591309,2|0,0:1|0:0,0:0:0:0:
512,17,86411,5,0,1:0:0:0:
509,23,86561,1,0,0:0:0:0:
414,5,86711,5,0,0:0:0:0:
411,11,86861,1,0,0:0:0:0:
150,95,87011,5,8,0:0:0:0:
153,101,87161,1,0,0:0:0:0:
248,83,87311,5,0,0:0:0:0:
251,89,87461,1,0,0:0:0:0:
331,32,87611,6,0,P|337:52|337:70,1,20.9999993591309,2|0,1:0|0:0,0:0:0:0:
406,83,87911,2,0,P|404:103|398:120,1,20.9999993591309,2|0,0:1|0:0,0:0:0:0:
459,156,88211,2,0,P|450:175|439:188,1,20.9999993591309,10|0,0:1|0:0,0:0:0:0:
483,242,88511,2,0,P|468:257|453:266,1,20.9999993591309,2|0,0:1|0:0,0:0:0:0:
272,354,88811,5,0,1:0:0:0:
224,290,88961,2,0,L|229:262,1,20.9999993591309,0|0,0:0|0:0,0:0:0:0:
210,301,89261,1,0,0:0:0:0:
141,377,89411,6,0,L|136:349,1,20.9999993591309,8|0,0:0|0:0,0:0:0:0:
68,378,89711,2,0,L|63:350,1,20.9999993591309,0|0,0:0|0:0,0:0:0:0:
278,157,90011,5,0,1:0:0:0:
320,227,90161,2,0,P|306:230|287:244,1,20.9999993591309,2|0,0:1|0:0,0:0:0:0:
333,217,90461,1,0,0:0:0:0:
423,211,90611,6,0,P|410:204|386:202,1,20.9999993591309,10|0,0:1|0:0,0:0:0:0:
512,264,90911,2,0,P|506:250|489:234,1,20.9999993591309,2|0,0:1|0:0,0:0:0:0:
278,157,91211,5,4,1:0:0:0:
241,67,91361,5,0,0:0:0:0:
244,75,91511,1,2,0:0:0:0:
248,83,91661,1,0,0:0:0:0:
210,301,91811,5,10,0:0:0:0:
200,303,91961,1,0,0:0:0:0:
190,305,92111,1,2,0:0:0:0:
180,307,92261,1,0,0:0:0:0:
118,170,92411,6,0,P|113:184|112:211,1,28,2|0,1:2|0:0,0:0:0:0:
58,123,92711,2,0,P|45:130|27:150,1,28,2|0,0:1|0:0,0:0:0:0:
201,175,93011,2,0,P|206:188|222:210,1,28,10|0,0:0|0:0,0:0:0:0:
124,177,93311,2,0,P|119:191|118:218,1,28,2|0,0:1|0:0,0:0:0:0:
148,84,93611,5,2,1:2:0:0:
146,74,93761,1,0,0:0:0:0:
7,51,93911,5,2,0:0:0:0:
5,41,94061,1,0,0:0:0:0:
268,58,94211,5,10,0:0:0:0:
259,61,94361,1,0,0:0:0:0:
250,64,94511,1,2,0:0:0:0:
241,67,94661,1,0,0:0:0:0:
380,4,94811,5,2,1:2:0:0:
455,32,94961,2,0,P|472:24|496:9,1,28,2|0,0:1|0:0,0:0:0:0:
319,58,95261,1,0,0:0:0:0:
369,119,95411,2,0,P|387:120|416:119,1,28,8|0,0:0|0:0,0:0:0:0:
220,47,95711,2,0,P|233:60|255:77,1,28,2|2,0:1|0:0,0:0:0:0:
480,103,96011,6,0,L|476:135,1,28,2|0,1:2|0:0,0:0:0:0:
290,154,96311,5,2,0:0:0:0:
288,144,96461,1,0,0:0:0:0:
124,177,96611,6,0,L|128:209,1,28,10|0,0:0|0:0,0:0:0:0:
314,228,96911,5,2,0:0:0:0:
316,218,97061,1,0,0:0:0:0:
476,210,97211,6,0,P|452:218|433:235,1,28,2|0,1:2|0:0,0:0:0:0:
170,270,97511,2,0,P|191:283|206:304,1,28,2|0,0:1|0:0,0:0:0:0:
391,275,97811,5,10,0:0:0:0:
389,284,97961,1,0,0:0:0:0:
275,300,98111,2,0,P|293:317|302:341,1,28,2|0,0:1|0:0,0:0:0:0:
364,376,98411,5,0,1:0:0:0:
362,366,98561,1,0,0:0:0:0:
88,256,98711,2,0,L|86:278,2,14,4|4|4,3:0|3:0|3:0,0:0:0:0:
144,353,99011,5,8,0:0:0:0:
146,343,99161,1,0,0:0:0:0:
389,261,99311,2,0,L|391:283,2,14,4|4|4,3:0|3:0|3:0,0:0:0:0:
265,315,99611,5,0,0:0:0:0:
240,242,99761,2,0,L|242:225,1,14,0|0,0:0|0:0,0:0:0:0:
265,315,100211,2,0,L|263:328,1,14,0|0,0:0|0:0,0:0:0:0:
226,76,100811,6,0,L|207:184,2,70,4|0|2,1:0|0:0|0:0,0:0:0:0:
173,11,101261,1,8,0:0:0:0:
294,129,101411,2,0,B|316:97|324:62|324:62|305:26|252:-26,1,140,2|10,1:2|0:0,0:0:0:0:
145,88,101861,1,0,0:0:0:0:
145,88,102011,5,2,1:2:0:0:
71,69,102161,2,0,L|52:-39,1,70,0|2,0:0|0:0,0:0:0:0:
142,106,102461,1,8,0:0:0:0:
0,95,102611,1,2,1:2:0:0:
285,8,102911,1,8,0:0:0:0:
78,158,103211,6,0,B|169:176|121:123|227:147,1,140,2|2,1:2|0:0,0:0:0:0:
294,129,103661,2,0,P|275:173|272:216,1,70,8|2,0:0|1:2,0:0:0:0:
439,136,103961,2,0,P|409:97|373:73,1,70,0|10,0:0|0:0,0:0:0:0:
360,258,104261,2,0,P|407:251|446:232,1,70,0|2,0:0|1:2,0:0:0:0:
174,310,104561,5,0,0:0:0:0:
178,217,104711,2,0,L|187:317,1,70,0|8,0:0|0:0,0:0:0:0:
33,352,105011,2,0,B|12:327|3:287|3:287|20:251|75:198,1,140,0|10,1:0|0:0,0:0:0:0:
0,170,105461,1,2,0:0:0:0:
0,170,105611,5,2,1:2:0:0:
55,113,105761,2,0,P|40:63|23:37,1,70,0|2,0:0|0:0,0:0:0:0:
42,231,106061,1,8,0:0:0:0:
142,106,106211,2,0,P|190:176|201:248,1,140,2|10,1:2|0:0,0:0:0:0:
412,340,106811,5,2,1:2:0:0:
367,279,106961,2,0,P|384:211|426:156,1,140,0|8,0:0|0:0,0:0:0:0:
397,360,107411,1,2,1:2:0:0:
512,250,107711,1,8,0:0:0:0:
248,378,108011,5,2,1:2:0:0:
237,301,108161,1,0,0:0:0:0:
248,378,108311,2,0,P|210:372|149:366,1,70,2|8,0:0|0:0,0:0:0:0:
159,261,108611,2,0,P|236:258|340:229,1,140,2|10,1:2|0:0,0:0:0:0:
426,156,109061,1,0,0:0:0:0:
426,156,109211,6,0,P|380:184|363:210,1,70,2|0,1:2|0:0,0:0:0:0:
174,105,109511,2,0,P|182:138|201:167,1,70,0|8,0:0|0:0,0:0:0:0:
336,27,109811,2,0,P|301:110|289:191,1,140,0|8,1:0|0:0,0:0:0:0:
512,316,110411,6,0,B|398:340|458:273|339:295,1,161.000003070831,12|8,1:0|0:1,0:0:0:0:
276,321,110861,2,0,P|296:258|293:213,1,80.5000015354157,8|2,0:0|1:2,0:0:0:0:
367,381,111161,1,0,0:0:0:0:
358,291,111311,2,0,P|363:330|378:367,1,80.5000015354157,10|0,0:0|0:0,0:0:0:0:
212,263,111611,5,2,1:2:0:0:
144,305,111761,2,0,L|159:408,1,80.5000015354157,0|8,0:0|0:1,0:0:0:0:
218,248,112061,1,8,0:0:0:0:
71,355,112211,5,2,1:2:0:0:
271,194,112511,2,0,L|286:91,1,80.5000015354157,8|8,0:0|0:1,0:0:0:0:
279,22,112811,5,2,1:2:0:0:
339,61,112961,1,0,0:0:0:0:
406,33,113111,1,8,0:1:0:0:
220,72,113261,5,8,0:0:0:0:
373,144,113411,2,0,P|321:137|275:133,1,80.5000015354157,2|0,1:2|0:0,0:0:0:0:
128,73,113711,2,0,P|168:68|207:63,1,80.5000015354157,10|0,0:0|0:0,0:0:0:0:
279,44,114011,5,2,1:2:0:0:
171,146,114161,1,0,0:0:0:0:
37,102,114311,1,8,0:1:0:0:
145,0,114461,1,8,0:0:0:0:
207,63,114611,6,0,P|199:131|193:246,1,161.000003070831,0|10,1:0|0:0,0:0:0:0:
28,93,115061,1,2,0:0:0:0:
28,93,115211,5,2,1:2:0:0:
83,156,115361,2,0,P|120:146|193:133,1,80.5000015354157,0|8,0:0|0:1,0:0:0:0:
13,199,115661,1,8,0:0:0:0:
279,44,115811,5,2,1:2:0:0:
294,114,115961,1,0,0:0:0:0:
365,147,116111,1,10,0:0:0:0:
380,217,116261,1,0,0:0:0:0:
504,44,116411,6,0,B|451:58|451:58|383:20,2,120.750002303124,2|10|8,1:2|0:0|0:0,0:0:0:0:
279,117,117011,2,0,B|349:86|349:86|446:143,1,161.000003070831,2|8,1:2|0:0,0:0:0:0:
448,199,117461,1,8,0:1:0:0:
448,199,117611,5,2,1:2:0:0:
231,285,117911,1,2,0:0:0:0:
193,223,118061,1,8,0:0:0:0:
229,160,118211,1,2,0:0:0:0:
448,199,118511,1,10,0:0:0:0:
185,358,118811,5,2,0:0:0:0:
229,160,119111,1,0,0:0:0:0:
193,223,119261,1,8,0:0:0:0:
231,285,119411,5,8,0:3:0:0:
42,248,119561,1,8,3:0:0:0:
330,254,119711,5,8,3:0:0:0:
112,376,119861,1,4,0:3:0:0:
297,333,120011,5,4,1:0:0:0:
415,233,120161,5,0,0:1:0:0:
408,214,120311,1,8,0:1:0:0:
401,195,120461,1,0,0:0:0:0:
229,160,120611,5,8,0:1:0:0:
257,43,120761,2,0,P|279:91|307:117,1,70,0|8,0:0|0:1,0:0:0:0:
367,99,121061,1,0,0:0:0:0:
180,85,121211,5,8,0:1:0:0:
157,274,121511,1,10,0:0:0:0:
44,122,121811,1,8,0:1:0:0:
44,122,122111,5,10,0:0:0:0:
123,142,122261,1,8,0:1:0:0:
180,85,122411,1,8,0:1:0:0:
180,85,122711,2,0,P|216:94|257:121,1,70,8|0,0:1|0:0,0:0:0:0:
334,18,123011,5,8,0:1:0:0:
338,33,123161,1,0,0:0:0:0:
416,68,123311,5,8,0:1:0:0:
412,83,123461,1,0,0:0:0:0:
334,119,123611,5,8,0:1:0:0:
389,179,123761,2,0,P|364:257|365:374,1,140,2|0,0:0|0:0,0:0:0:0:
416,362,124211,1,8,0:1:0:0:
162,346,124511,1,10,0:0:0:0:
236,314,124661,1,8,0:1:0:0:
272,241,124811,6,0,P|216:186|143:156,1,140,8|8,0:1|0:1,0:0:0:0:
86,185,125261,1,0,0:0:0:0:
160,160,125411,2,0,P|216:105|289:75,1,140,8|8,0:1|0:1,0:0:0:0:
346,104,125861,1,0,0:0:0:0:
323,24,126011,5,8,0:1:0:0:
98,65,126311,1,10,0:0:0:0:
335,185,126611,1,8,0:1:0:0:
335,185,126911,1,10,0:0:0:0:
346,104,127061,1,8,0:1:0:0:
323,24,127211,6,0,P|288:40|258:71,1,70,10|0,0:1|0:1,0:0:0:0:
98,65,127511,6,0,P|145:105|168:164,1,77.0000023498536,10|0,0:1|0:1,0:0:0:0:
275,67,127811,6,0,P|258:116|258:178,1,83.9999974365235,10|0,0:1|0:1,0:0:0:0:
161,115,128111,6,0,P|186:177|189:222,1,90.9999958343508,10|0,0:1|0:1,0:0:0:0:
267,249,128411,5,10,0:1:0:0:
125,363,128561,2,0,P|191:278|280:271,1,195.999994018555,0|0,0:1|0:1,0:0:0:0:
341,306,129011,6,0,P|377:246|372:168,1,105.000004005432,10|0,0:1|0:1,0:0:0:0:
465,335,129311,1,10,0:1:0:0:
385,122,129461,1,0,0:1:0:0:
188,200,129611,5,12,1:1:0:0:
113,174,129761,2,0,P|97:116|81:81,1,80.5000015354157,2|8,0:1|0:1,0:0:0:0:
66,240,130061,1,4,1:1:0:0:
187,63,130211,6,0,P|255:123|262:209,1,161.000003070831,10|12,0:1|1:1,0:0:0:0:
237,262,130661,1,0,0:1:0:0:
188,200,130811,5,12,1:1:0:0:
178,314,130961,2,0,P|198:285|251:258,1,80.5000015354157,2|8,0:1|0:1,0:0:0:0:
411,173,131261,5,4,1:1:0:0:
318,108,131411,2,0,P|333:139|329:199,1,80.5000015354157,10|0,0:1|0:1,0:0:0:0:
426,332,131711,2,0,P|390:329|341:296,1,80.5000015354157,12|0,1:1|0:1,0:0:0:0:
188,200,132011,6,0,L|14:175,1,161.000003070831,12|8,1:1|0:1,0:0:0:0:
48,101,132461,1,4,1:1:0:0:
16,187,132611,2,0,L|115:199,1,80.5000015354157,10|0,0:1|0:1,0:0:0:0:
67,20,132911,2,0,L|166:8,1,80.5000015354157,12|0,1:1|0:1,0:0:0:0:
334,184,133211,5,12,1:1:0:0:
333,48,133361,2,0,P|303:95|290:133,1,80.5000015354157,2|8,0:1|0:1,0:0:0:0:
218,141,133661,1,4,1:1:0:0:
388,114,133811,1,10,0:1:0:0:
388,114,134111,5,12,1:1:0:0:
218,141,134261,1,0,0:1:0:0:
334,184,134411,6,0,L|349:361,1,161.000003070831,12|8,1:1|1:1,0:0:0:0:
208,374,134861,1,0,0:1:0:0:
358,323,135011,2,0,L|253:340,1,80.5000015354157,8|0,1:1|0:1,0:0:0:0:
132,137,135311,1,8,1:1:0:0:
207,168,135461,1,0,0:1:0:0:
271,118,135611,5,12,1:0:0:0:
107,145,135761,1,0,1:0:0:0:
209,188,135911,1,8,1:0:0:0:
294,117,136061,1,0,1:0:0:0:
36,78,136211,5,12,1:0:0:0:
130,242,136361,1,0,1:0:0:0:
315,209,136511,1,12,1:0:0:0:
343,23,136661,1,0,1:0:0:0:
107,145,136811,6,0,L|115:108,1,28,4|4,1:0|0:3,0:0:0:0:
70,55,137186,1,4,3:0:0:0:
70,55,137261,2,0,P|104:49|152:28,1,70,4|0,3:0|0:0,0:0:0:0:
418,102,137411,6,0,L|412:56,1,41.9999987182618,4|4,1:0|0:3,0:0:0:0:
343,23,137786,1,4,3:0:0:0:
343,23,137861,2,0,P|316:72|321:148,1,105.000004005432,4|0,3:0|0:0,0:0:0:0:
471,189,138011,5,0,0:0:0:0:
412,242,138161,2,0,L|398:238,1,14,0|0,0:0|0:0,0:0:0:0:
211,199,138611,1,0,0:0:0:0:
485,270,138911,1,0,0:0:0:0:
421,17,139211,6,0,L|414:56,1,28,4|0,1:0|0:0,0:0:0:0:
143,11,139661,2,0,L|150:50,1,28,4|0,1:3|0:0,0:0:0:0:
346,0,140111,1,4,1:3:0:0:
346,0,140561,5,0,0:0:0:0:
288,53,140711,1,4,1:3:0:0:
212,33,140861,1,0,0:0:0:0:
502,43,141011,2,0,L|508:82,1,28,8|0,0:0|0:0,0:0:0:0:
234,214,141611,6,0,P|219:209|202:211,1,28,4|0,1:0|0:0,0:0:0:0:
485,156,142061,2,0,P|498:156|512:151,1,28,4|0,1:3|0:0,0:0:0:0:
254,289,142511,1,4,1:3:0:0:
254,289,142811,2,0,P|240:293|226:293,1,28,0|4,0:0|1:3,0:0:0:0:
420,37,143411,1,8,0:0:0:0:
364,84,143561,2,0,L|370:106,2,14,2|2|2,0:0|0:0|0:0,0:0:0:0:
288,53,144011,6,0,L|292:26,1,28,4|0,1:0|0:0,0:0:0:0:
337,297,144461,2,0,L|341:324,1,28,4|0,1:3|0:0,0:0:0:0:
206,57,144911,1,4,1:3:0:0:
206,57,145361,5,0,0:0:0:0:
132,84,145511,1,4,1:3:0:0:
58,112,145661,1,0,0:0:0:0:
112,2,145811,5,8,0:0:0:0:
112,2,146111,1,0,0:0:0:0:
6,197,146411,6,0,P|3:177|-2:166,1,28,4|0,1:0|0:0,0:0:0:0:
96,384,146861,2,0,P|97:370|101:356,1,28,4|0,1:3|0:0,0:0:0:0:
133,176,147311,6,0,L|62:190,2,46.6666666666667,4|2|2,1:3|0:0|0:0,0:0:0:0:
297,216,147611,6,0,L|179:200,2,93.3333333333333,2|2|2,0:1|0:1|0:1,0:1:0:0:
353,273,147911,1,4,1:3:0:0:
374,174,148011,2,0,B|407:296|357:229|388:370,2,186.666666666667,2|10|2,0:1|0:1|0:1,0:0:0:0:
463,384,148511,2,0,P|472:299|492:225,1,140,0|0,0:0|1:0,0:0:0:0:
498,27,148811,6,0,B|284:71|433:-24|176:29,1,308.000009399414,4|2,1:0|0:1,0:0:0:0:
3,82,149261,2,0,P|104:31|133:-18,1,154.000004699707,4|8,1:3|0:0,0:0:0:0:
21,92,149561,1,2,0:1:0:0:
394,64,149711,2,0,B|200:38|315:134|76:80,1,308.000009399414,4|0,1:3|0:0,0:0:0:0:
206,0,150161,1,2,0:1:0:0:
389,196,150311,2,0,P|377:140|378:29,1,154.000004699707,4|2,1:3|0:1,0:0:0:0:
94,83,150611,1,8,0:0:0:0:
94,83,150911,1,0,0:0:0:0:
94,83,151211,6,0,B|112:272|47:164|77:407,1,308.000009399414,4|2,1:0|0:1,0:0:0:0:
228,336,151661,2,0,P|150:311|78:235,1,154.000004699707,4|8,1:3|0:0,0:0:0:0:
416,371,151961,1,2,0:1:0:0:
312,350,152111,2,0,P|370:300|443:278,1,154.000004699707,4|0,1:3|0:0,0:0:0:0:
21,368,152411,5,2,0:1:0:0:
443,277,152711,1,4,1:3:0:0:
176,255,153011,6,0,B|142:324|142:324|201:399,1,154.000004699707,8|0,1:0|0:0,0:0:0:0:
272,378,153311,2,0,B|306:309|306:309|247:234,1,154.000004699707,2|2,0:0|0:0,0:0:0:0:
3,82,153611,6,0,B|225:116|86:16|379:63,1,308.000009399414,4|2,1:0|0:1,0:0:0:0:
475,0,154061,2,0,P|396:39|360:139,1,154.000004699707,4|8,1:3|0:0,0:0:0:0:
495,2,154361,1,2,0:1:0:0:
212,148,154511,2,0,P|210:119|201:56,8,52.5000020027161,4|0|0|0|0|0|0|0|0,1:3|0:0|0:0|0:0|0:0|0:0|0:0|0:0|0:0,0:0:0:0:
3,82,154961,5,2,0:1:0:0:
133,174,155111,2,0,P|92:110|22:79,1,154.000004699707,4|2,1:3|0:1,0:0:0:0:
261,0,155411,2,0,B|291:184|197:78|246:329,1,308.000009399414,8|0,1:0|0:0,0:0:0:0:
240,301,156011,6,0,P|393:280|381:138,1,308.000009399414,4|2,1:0|0:1,0:0:0:0:
467,22,156461,2,0,B|502:111|454:78|494:185,1,154.000004699707,4|8,1:3|0:0,0:0:0:0:
447,36,156761,1,2,0:1:0:0:
322,105,156911,6,0,P|330:52|330:-24,2,102.666669799805,2|0|0,1:2|0:0|0:0,0:0:0:0:
282,173,157211,2,0,P|244:180|206:190,2,77.0000023498536,2|2|2,0:1|0:1|0:1,0:1:0:0:
485,265,157511,2,0,P|407:235|275:229,1,154.000004699707,4|0,1:3|0:0,0:0:0:0:
141,37,157811,5,8,0:3:0:0:
141,37,157961,1,8,0:3:0:0:
141,37,158111,2,0,B|129:178|189:77|163:296,1,210.000008010865,4|4,3:0|0:3,0:0:0:0:
104,286,158411,5,4,1:0:0:0:
248,240,158561,5,0,0:0:0:0:
249,250,158711,1,0,0:0:0:0:
250,260,158861,1,0,0:0:0:0:
186,320,159011,5,8,0:0:0:0:
186,330,159161,1,0,0:0:0:0:
186,340,159311,1,0,0:0:0:0:
186,350,159461,1,0,0:0:0:0:
103,366,159611,6,0,L|65:371,1,20.9999993591309,2|0,1:0|0:0,0:0:0:0:
272,347,159911,2,0,L|292:344,1,20.9999993591309,2|0,0:1|0:0,0:0:0:0:
248,240,160211,6,0,L|210:235,1,20.9999993591309,10|0,0:1|0:0,0:0:0:0:
417,259,160511,2,0,L|437:261,1,20.9999993591309,2|0,0:1|0:0,0:0:0:0:
328,266,160811,5,0,1:0:0:0:
329,255,160961,1,0,0:0:0:0:
336,173,161111,5,0,0:0:0:0:
337,162,161261,1,0,0:0:0:0:
345,81,161411,5,8,0:0:0:0:
346,70,161561,1,0,0:0:0:0:
347,59,161711,1,0,0:0:0:0:
348,48,161861,1,0,0:0:0:0:
250,116,162011,5,0,1:0:0:0:
229,100,162161,2,0,L|204:107,1,20.9999993591309,2|0,0:1|0:0,0:0:0:0:
153,150,162461,5,0,0:0:0:0:
132,134,162611,2,0,L|107:141,1,20.9999993591309,10|0,0:1|0:0,0:0:0:0:
14,173,162911,2,0,L|35:168,1,20.9999993591309,2|0,0:1|0:0,0:0:0:0:
60,20,163211,5,0,1:0:0:0:
70,22,163361,1,0,0:0:0:0:
94,231,163511,5,0,0:0:0:0:
104,229,163661,1,0,0:0:0:0:
158,49,163811,5,8,0:0:0:0:
168,51,163961,1,0,0:0:0:0:
189,170,164111,5,0,0:0:0:0:
199,168,164261,1,0,0:0:0:0:
258,22,164411,6,0,L|255:51,1,20.9999993591309,2|0,1:0|0:0,0:0:0:0:
279,146,164711,2,0,L|276:117,1,20.9999993591309,2|0,0:1|0:0,0:0:0:0:
341,44,165011,6,0,L|338:73,1,20.9999993591309,10|0,0:1|0:0,0:0:0:0:
353,98,165311,2,0,L|350:69,1,20.9999993591309,2|0,0:1|0:0,0:0:0:0:
429,42,165611,5,0,1:0:0:0:
443,56,165761,2,0,L|456:91,1,20.9999993591309,0|0,0:0|0:0,0:0:0:0:
429,149,166061,1,0,0:0:0:0:
347,178,166211,6,0,L|360:213,1,20.9999993591309,8|0,0:0|0:0,0:0:0:0:
500,197,166511,2,0,L|513:232,1,20.9999993591309,0|0,0:0|0:0,0:0:0:0:
285,276,166811,5,0,1:0:0:0:
216,321,166961,1,2,0:0:0:0:
135,303,167111,1,0,0:0:0:0:
94,231,167261,1,0,0:0:0:0:
146,156,167411,6,0,L|141:125,1,20.9999993591309,10|0,0:0|0:0,0:0:0:0:
94,231,167711,2,0,L|89:200,1,20.9999993591309,2|0,0:0|0:0,0:0:0:0:
11,137,168011,5,4,1:0:0:0:
38,323,168161,5,0,0:0:0:0:
51,325,168311,1,2,0:0:0:0:
64,327,168461,1,0,0:0:0:0:
181,233,168611,5,10,0:0:0:0:
194,230,168761,1,0,0:0:0:0:
207,228,168911,1,2,0:0:0:0:
220,226,169061,1,0,0:0:0:0:
280,124,169211,6,0,L|274:157,1,28,2|0,1:2|0:0,0:0:0:0:
362,138,169511,2,0,L|356:171,1,28,2|0,0:1|0:0,0:0:0:0:
353,354,169811,6,0,L|347:321,1,28,10|0,0:0|0:0,0:0:0:0:
435,340,170111,2,0,L|429:307,1,28,2|0,0:1|0:0,0:0:0:0:
476,79,170411,5,2,1:2:0:0:
473,92,170561,1,0,0:0:0:0:
417,237,170711,5,2,0:0:0:0:
420,224,170861,1,0,0:0:0:0:
362,138,171011,5,10,0:0:0:0:
348,133,171161,1,0,0:0:0:0:
334,128,171311,1,2,0:0:0:0:
320,123,171461,1,0,0:0:0:0:
272,40,171611,5,2,1:2:0:0:
231,105,171761,2,0,L|239:145,1,28,2|0,0:1|0:0,0:0:0:0:
195,197,172061,5,0,0:0:0:0:
117,177,172211,2,0,L|84:168,1,28,10|0,0:0|0:0,0:0:0:0:
273,217,172511,2,0,L|306:226,1,28,2|2,0:1|0:0,0:0:0:0:
47,229,172811,6,0,L|53:265,1,28,2|0,1:2|0:0,0:0:0:0:
238,293,173111,1,2,0:0:0:0:
237,306,173261,1,0,0:0:0:0:
430,236,173411,6,0,L|424:272,1,28,10|0,0:0|0:0,0:0:0:0:
238,323,173711,1,2,0:0:0:0:
239,336,173861,1,0,0:0:0:0:
166,374,174011,6,0,L|157:338,1,28,2|0,1:2|0:0,0:0:0:0:
322,370,174311,2,0,L|331:334,1,28,2|0,0:1|0:0,0:0:0:0:
236,209,174611,5,10,0:0:0:0:
235,198,174761,1,0,0:0:0:0:
242,63,174911,2,0,L|246:27,1,28,2|0,0:1|0:0,0:0:0:0:
53,138,175211,5,0,1:0:0:0:
49,124,175361,1,0,0:0:0:0:
169,266,175511,2,0,L|190:275,2,14,4|4|4,3:0|3:0|3:0,0:0:0:0:
329,220,175811,5,8,0:0:0:0:
333,206,175961,1,0,0:0:0:0:
213,348,176111,2,0,L|192:357,2,14,4|4|4,3:0|3:0|3:0,0:0:0:0:
88,215,176411,5,0,0:0:0:0:
13,239,176561,2,0,L|-6:244,1,14,0|0,0:0|0:0,0:0:0:0:
168,189,177011,2,0,L|181:185,2,14,0|0|2,0:0|0:0|0:0,0:0:0:0:
256,192,177761,12,2,184811,0:0:0:0:
