osu file format v14

[General]
AudioFilename: audio.mp3
AudioLeadIn: 0
PreviewTime: 52773
Countdown: 0
SampleSet: Soft
StackLeniency: 0.3
Mode: 0
LetterboxInBreaks: 0
WidescreenStoryboard: 1

[Editor]
Bookmarks: 43211,120011
DistanceSpacing: 1.3
BeatDivisor: 6
GridSize: 4
TimelineZoom: 4.099998

[Metadata]
Title:Indoor Kei Nara Trackmaker (curryrice Remix)
TitleUnicode:インドア系ならトラックメイカー (curryrice Remix)
Artist:Yunomi & nicamoq
ArtistUnicode:ゆのみ & にかもきゅ
Creator:toybot
Version:neilperry's insane
Source:
Tags:future bass neilperry jounzan evilelvis sing japanese novelty
BeatmapID:1935976
BeatmapSetID:926885

[Difficulty]
HPDrainRate:5
CircleSize:4
OverallDifficulty:7.7
ApproachRate:8.7
SliderMultiplier:2.4
SliderTickRate:1

[Events]
//Background and Video events
0,0,"yunomi bg.jpg",0,0
//Break Periods
2,38311,41457
//Storyboard Layer 0 (Background)
//Storyboard Layer 1 (Fail)
//Storyboard Layer 2 (Pass)
//Storyboard Layer 3 (Foreground)
//Storyboard Sound Samples

[TimingPoints]
11,600,4,2,1,15,1,0
11,-1000,4,2,1,15,0,0
1211,-666.666666666667,4,2,1,15,0,0
2261,-666.666666666667,4,2,1,5,0,0
2411,-500,4,2,1,15,0,0
3461,-500,4,2,1,5,0,0
3611,-400,4,2,1,20,0,0
4661,-400,4,2,1,5,0,0
4811,-333.333333333333,4,2,1,25,0,0
5861,-333.333333333333,4,2,1,5,0,0
6011,-285.714285714286,4,2,1,30,0,0
7061,-285.714285714286,4,2,1,5,0,0
7211,-250,4,2,1,35,0,0
8261,-250,4,2,1,5,0,0
8411,-222.222222222222,4,2,1,40,0,0
9461,-222.222222222222,4,2,1,5,0,0
9611,-200,4,2,1,45,0,0
10661,-200,4,2,1,5,0,0
10811,-181.818181818182,4,2,1,50,0,0
11861,-181.818181818182,4,2,1,5,0,0
12011,-166.666666666667,4,2,1,55,0,0
13061,-166.666666666667,4,2,1,5,0,0
13211,-153.846153846154,4,2,1,60,0,0
14261,-153.846153846154,4,2,1,5,0,0
14411,-142.857142857143,4,2,1,65,0,0
15461,-142.857142857143,4,2,1,5,0,0
15611,-133.333333333333,4,2,1,70,0,0
16661,-133.333333333333,4,2,1,5,0,0
16811,-125,4,2,1,75,0,0
17861,-125,4,2,1,5,0,0
18011,-117.647058823529,4,2,1,80,0,0
19061,-117.647058823529,4,2,1,5,0,0
19211,-117.647058823529,4,2,1,50,0,0
25736,-117.647058823529,4,2,1,5,0,0
25811,-117.647058823529,4,2,1,50,0,0
28136,-117.647058823529,4,2,1,5,0,0
28211,-117.647058823529,4,2,1,50,0,0
42161,-333.333333333333,4,2,1,50,0,0
43211,-100,4,2,1,55,0,0
50711,-90.9090909090909,4,2,1,60,0,0
51011,-83.3333333333333,4,2,1,70,0,0
51311,-76.9230769230769,4,2,1,80,0,0
51761,-71.4285714285714,4,2,1,90,0,0
52211,-66.6666666666667,4,2,1,100,0,0
52811,-86.9565217391304,4,2,1,70,0,0
60011,-500,4,2,1,60,0,0
60311,-500,4,2,1,40,0,0
60461,-50,4,2,1,40,0,0
60611,-333.333333333333,4,2,1,60,0,0
60911,-333.333333333333,4,2,1,40,0,0
62411,-66.6666666666667,4,2,1,80,0,1
64511,-500,4,2,1,20,0,0
65111,-66.6666666666667,4,2,1,80,0,1
66161,-100,4,2,1,60,0,0
66611,-66.6666666666667,4,2,1,80,0,1
69311,-500,4,2,1,20,0,0
69611,-66.6666666666667,4,2,1,80,0,1
71711,-133.333333333333,4,2,1,20,0,0
72011,-66.6666666666667,4,2,1,80,0,1
74111,-500,4,2,1,20,0,0
74711,-66.6666666666667,4,2,1,80,0,1
75761,-100,4,2,1,60,0,0
76211,-66.6666666666667,4,2,1,80,0,1
78911,-500,4,2,1,20,0,0
79211,-66.6666666666667,4,2,1,80,0,1
81011,-55.5555555555556,4,2,1,80,0,1
81611,-333.333333333333,4,2,1,50,0,0
82211,-83.3333333333333,4,2,1,50,0,0
82811,-333.333333333333,4,2,1,50,0,0
84611,-83.3333333333333,4,2,1,50,0,0
85211,-333.333333333333,4,2,1,50,0,0
85811,-83.3333333333333,4,2,1,50,0,0
86411,-333.333333333333,4,2,1,50,0,0
87011,-83.3333333333333,4,2,1,50,0,0
87611,-333.333333333333,4,2,1,50,0,0
89411,-83.3333333333333,4,2,1,50,0,0
89711,-333.333333333333,4,2,1,50,0,0
90611,-83.3333333333333,4,2,1,50,0,0
91211,-250,4,2,1,50,0,0
91811,-66.6666666666667,4,2,1,50,0,0
92411,-250,4,2,1,50,0,0
94211,-66.6666666666667,4,2,1,50,0,0
94811,-250,4,2,1,50,0,0
95411,-66.6666666666667,4,2,1,50,0,0
96011,-250,4,2,1,50,0,0
96611,-66.6666666666667,4,2,1,50,0,0
97211,-250,4,2,1,50,0,0
99611,-250,4,2,1,40,0,0
100811,-100,4,2,2,50,0,0
110411,-90.9090909090909,4,2,2,50,0,0
120011,-100,4,2,1,55,0,0
127511,-90.9090909090909,4,2,1,60,0,0
127811,-83.3333333333333,4,2,1,70,0,0
128111,-76.9230769230769,4,2,1,80,0,0
128561,-71.4285714285714,4,2,1,90,0,0
129011,-66.6666666666667,4,2,1,100,0,0
129611,-86.9565217391304,4,2,1,70,0,0
136811,-500,4,2,1,60,0,0
137111,-500,4,2,1,40,0,0
137261,-50,4,2,1,40,0,0
137411,-333.333333333333,4,2,1,60,0,0
137711,-333.333333333333,4,2,1,40,0,0
139211,-55.5555555555556,4,2,1,80,0,1
139511,-333.333333333333,4,2,1,80,0,1
139661,-55.5555555555556,4,2,1,80,0,1
139961,-333.333333333333,4,2,1,80,0,1
140111,-55.5555555555556,4,2,1,80,0,1
141911,-333.333333333333,4,2,1,80,0,1
142061,-55.5555555555556,4,2,1,80,0,1
142361,-333.333333333333,4,2,1,80,0,1
142511,-55.5555555555556,4,2,1,80,0,1
143411,-133.333333333333,4,2,1,80,0,1
144011,-55.5555555555556,4,2,1,80,0,1
144311,-333.333333333333,4,2,1,80,0,1
144461,-55.5555555555556,4,2,1,80,0,1
144761,-333.333333333333,4,2,1,80,0,1
144911,-55.5555555555556,4,2,1,80,0,1
146711,-333.333333333333,4,2,1,80,0,1
146861,-55.5555555555556,4,2,1,80,0,1
147161,-333.333333333333,4,2,1,80,0,1
147311,-66.6666666666667,4,2,1,80,0,1
147611,-55.5555555555556,4,2,1,80,0,1
147711,-55.5555555555556,4,2,1,5,0,1
147811,-55.5555555555556,4,2,1,80,0,1
147911,-55.5555555555556,4,2,1,5,0,1
148011,-55.5555555555556,4,2,1,80,0,1
148111,-55.5555555555556,4,2,1,5,0,1
148211,-200,4,2,1,80,0,1
148811,-38.4615384615385,4,2,1,80,0,1
150161,-333.333333333333,4,2,1,80,0,1
150611,-38.4615384615385,4,2,1,80,0,1
153011,-66.6666666666667,4,2,1,80,0,1
153611,-38.4615384615385,4,2,1,80,0,1
154661,-333.333333333333,4,2,1,80,0,1
155411,-38.4615384615385,4,2,1,80,0,1
157211,-55.5555555555556,4,2,1,80,0,1
157511,-333.333333333333,4,2,1,80,0,1
158111,-33.3333333333333,4,2,1,80,0,1
158411,-333.333333333333,4,2,1,50,0,0
159011,-66.6666666666667,4,2,1,50,0,0
159611,-333.333333333333,4,2,1,50,0,0
161411,-66.6666666666667,4,2,1,50,0,0
162011,-333.333333333333,4,2,1,50,0,0
162611,-66.6666666666667,4,2,1,50,0,0
163211,-333.333333333333,4,2,1,50,0,0
163811,-66.6666666666667,4,2,1,50,0,0
164411,-333.333333333333,4,2,1,50,0,0
166211,-66.6666666666667,4,2,1,50,0,0
166511,-333.333333333333,4,2,1,50,0,0
167411,-66.6666666666667,4,2,1,50,0,0
168011,-250,4,2,1,50,0,0
168611,-66.6666666666667,4,2,1,50,0,0
169211,-250,4,2,1,50,0,0
171011,-66.6666666666667,4,2,1,50,0,0
171611,-250,4,2,1,50,0,0
172211,-66.6666666666667,4,2,1,50,0,0
172811,-250,4,2,1,50,0,0
173411,-66.6666666666667,4,2,1,50,0,0
174011,-250,4,2,1,50,0,0
175211,-250,4,2,1,40,0,0
175811,-250,4,2,1,30,0,0
176411,-1000,4,2,1,30,0,0
177011,-1000,4,2,1,30,0,0

[Colours]
Combo1 : 128,255,255
Combo2 : 0,128,0
Combo3 : 0,255,128
Combo4 : 0,128,192

[HitObjects]
135,153,11,6,0,L|173:142,1,36,2|0,0:0|0:0,0:0:0:0:
135,153,1211,6,0,L|109:208,1,53.9999983520508,2|0,0:0|0:0,0:0:0:0:
135,153,2411,6,0,L|104:83,1,72,2|0,0:0|0:0,0:0:0:0:
135,153,3611,6,0,P|100:180|70:224,1,90,2|0,0:0|0:0,0:0:0:0:
135,153,4811,6,0,P|179:171|238:175,1,107.999996704102,2|0,0:0|0:0,0:0:0:0:
135,153,6011,6,0,P|127:95|96:31,1,125.999996154785,2|0,0:0|0:0,0:0:0:0:
135,153,7211,6,0,P|84:197|36:271,1,144,2|0,0:0|0:0,0:0:0:0:
135,153,8411,6,0,P|204:177|301:182,1,161.999995056153,2|0,0:0|0:0,0:0:0:0:
135,153,9611,6,0,P|107:75|39:9,1,180,2|0,0:0|0:0,0:0:0:0:
135,153,10811,6,0,P|94:190|183:237,1,198.000006042481,2|0,0:0|0:0,0:0:0:0:
135,153,12011,6,0,P|189:160|150:60,1,215.999993408203,2|0,0:0|0:0,0:0:0:0:
135,153,13211,6,0,P|91:119|94:226,1,233.999989288331,2|0,0:0|0:0,0:0:0:0:
135,153,14411,6,0,B|268:128|229:267|384:219,1,251.999992309571,2|0,0:0|0:0,0:0:0:0:
135,153,15611,6,0,B|97:106|133:-6|133:-6|125:58|135:112,1,270.000010299683,2|0,0:0|0:0,0:0:0:0:
135,153,16811,6,0,B|127:219|12:278|12:278|68:234|103:184,1,288,2|0,0:0|0:0,0:0:0:0:
135,153,18011,6,0,B|182:62|285:63|285:63|214:85|174:130,1,306.000005836487,2|0,0:0|0:0,0:0:0:0:
419,258,19211,6,0,P|372:263|313:286,1,102.000001945496,2|0,0:0|0:0,0:0:0:0:
265,339,19811,1,0,0:0:0:0:
262,345,20111,1,0,0:0:0:0:
419,258,20411,6,0,L|454:124,1,102.000001945496,2|0,0:0|0:0,0:0:0:0:
427,81,21011,1,0,0:0:0:0:
425,73,21311,1,0,0:0:0:0:
422,67,21611,5,2,0:0:0:0:
352,112,21761,1,0,0:0:0:0:
288,55,21911,1,0,0:0:0:0:
284,59,22211,5,0,0:0:0:0:
282,63,22511,5,0,0:0:0:0:
218,108,22661,1,0,0:0:0:0:
153,64,22811,1,2,0:0:0:0:
147,60,23111,5,0,0:0:0:0:
140,57,23411,1,0,0:0:0:0:
133,55,23711,2,0,P|98:48|70:45,1,51.0000009727478,0|0,0:0|0:0,0:0:0:0:
64,135,24011,6,0,P|79:180|91:252,1,102.000001945496,2|0,0:0|0:0,0:0:0:0:
73,319,24461,2,0,P|62:342|44:369,2,51.0000009727478,0|0|0,0:0|0:0|0:0,0:0:0:0:
157,286,24911,1,0,0:0:0:0:
363,255,25211,6,0,L|219:278,1,102.000001945496,2|0,0:0|0:0,0:0:0:0:
225,340,25811,1,0,0:0:0:0:
222,346,26111,1,0,0:0:0:0:
430,189,26411,5,2,0:0:0:0:
434,184,26711,5,0,0:0:0:0:
471,109,26861,1,0,0:0:0:0:
430,33,27011,1,0,0:0:0:0:
426,27,27311,5,0,0:0:0:0:
226,46,27611,6,0,L|361:63,1,102.000001945496,2|0,0:0|0:0,0:0:0:0:
376,139,28211,1,0,0:0:0:0:
377,145,28511,1,0,0:0:0:0:
136,100,28811,6,0,P|139:57|152:-13,1,102.000001945496,2|0,0:0|0:0,0:0:0:0:
45,29,29411,1,0,0:0:0:0:
40,22,29711,1,0,0:0:0:0:
71,154,30011,6,0,L|87:279,1,102.000001945496,2|0,0:0|0:0,0:0:0:0:
33,348,30611,1,0,0:0:0:0:
33,348,31211,5,2,0:0:0:0:
112,339,31361,2,0,P|159:351|227:384,1,102.000001945496,0|0,0:0|0:0,0:0:0:0:
277,331,31811,1,0,0:0:0:0:
280,323,32111,1,0,0:0:0:0:
105,253,32411,5,2,0:0:0:0:
111,248,32711,5,0,0:0:0:0:
182,205,32861,1,0,0:0:0:0:
260,236,33011,1,0,0:0:0:0:
260,236,33611,5,2,0:0:0:0:
265,231,33911,5,0,0:0:0:0:
299,157,34061,1,0,0:0:0:0:
263,87,34211,1,0,0:0:0:0:
258,80,34511,5,0,0:0:0:0:
39,13,34811,6,0,P|97:18|201:52,1,153.000002918243,2|0,0:0|0:0,0:0:0:0:
188,131,35411,1,0,0:0:0:0:
183,137,35711,5,0,0:0:0:0:
105,153,35861,1,0,0:0:0:0:
40,102,36011,1,2,0:0:0:0:
102,164,36161,2,0,P|91:193|75:230,1,51.0000009727478,0|0,0:0|0:0,0:0:0:0:
128,330,36461,5,0,0:0:0:0:
190,268,36611,2,0,P|179:239|163:202,1,51.0000009727478,0|0,0:0|0:0,0:0:0:0:
190,268,37061,5,0,0:0:0:0:
269,239,37211,2,0,P|310:252|379:292,1,102.000001945496,2|0,0:0|0:0,0:0:0:0:
438,243,37661,1,0,0:0:0:0:
382,180,37811,1,0,0:0:0:0:
385,174,38111,5,0,0:0:0:0:
251,332,42161,6,0,L|223:326,2,17.9999994506836,2|2|2,0:1|0:1|0:1,0:0:0:0:
326,347,42611,1,2,0:1:0:0:
171,273,42761,5,4,3:0:0:0:
157,195,42911,1,4,3:0:0:0:
143,117,43061,1,8,3:0:0:0:
269,70,43211,6,0,P|301:80|343:89,1,60,4|0,1:0|0:1,0:0:0:0:
183,20,43511,1,8,0:1:0:0:
183,20,43811,1,8,0:1:0:0:
183,20,44111,1,8,0:1:0:0:
183,20,44411,1,8,0:1:0:0:
183,20,44711,1,10,0:0:0:0:
183,20,45011,1,8,0:1:0:0:
183,20,45311,5,10,0:0:0:0:
208,109,45461,1,8,0:1:0:0:
276,175,45611,1,8,0:1:0:0:
276,175,45911,1,8,0:1:0:0:
276,175,46211,1,8,0:1:0:0:
276,175,46511,1,8,0:1:0:0:
276,175,46811,1,8,0:1:0:0:
276,175,47111,1,8,0:1:0:0:
276,175,47411,1,8,0:1:0:0:
276,175,47711,5,10,0:0:0:0:
333,111,47861,1,8,0:1:0:0:
359,31,48011,1,8,0:0:0:0:
359,31,48311,1,8,0:1:0:0:
359,31,48611,1,8,0:1:0:0:
359,31,48911,1,8,0:1:0:0:
359,31,49211,1,8,0:1:0:0:
359,31,49511,1,10,0:0:0:0:
359,31,49811,1,8,0:1:0:0:
359,31,50111,5,10,0:0:0:0:
296,97,50261,1,8,0:1:0:0:
209,118,50411,2,0,P|185:123|144:142,1,60,10|0,0:1|0:1,0:0:0:0:
142,275,50711,6,0,P|127:242|121:198,1,66.0000020141602,10|0,0:1|0:1,0:0:0:0:
142,275,51011,6,0,P|168:299|208:318,1,71.9999978027344,10|0,0:1|0:1,0:0:0:0:
142,275,51311,6,0,P|117:301|98:341,1,77.9999964294435,10|0,0:1|0:0,0:0:0:0:
213,224,51611,5,10,0:1:0:0:
275,166,51761,2,0,P|288:134|300:74,1,83.9999974365235,0|10,0:1|0:1,0:0:0:0:
198,149,52061,5,0,0:1:0:0:
275,166,52211,2,0,P|302:187|342:237,1,90.0000034332277,10|0,0:1|0:0,0:0:0:0:
440,173,52511,5,10,0:1:0:0:
335,223,52661,1,8,0:1:0:0:
467,332,52811,5,12,1:1:0:0:
425,240,52961,2,0,L|447:134,1,69.0000013160706,2|8,0:1|0:1,0:0:0:0:
274,289,53261,5,4,1:1:0:0:
335,223,53411,2,0,P|310:235|244:282,1,69.0000013160706,10|0,0:1|0:0,0:0:0:0:
364,124,53711,6,0,P|356:95|351:35,1,69.0000013160706,12|0,1:1|0:1,0:0:0:0:
215,131,54011,2,0,L|284:152,1,69.0000013160706,12|2,1:1|0:1,0:0:0:0:
205,42,54311,1,8,0:1:0:0:
130,188,54461,1,4,1:1:0:0:
114,109,54611,6,0,L|94:16,1,69.0000013160706,10|0,0:1|0:1,0:0:0:0:
57,247,54911,2,0,P|98:265|139:299,1,69.0000013160706,12|0,1:1|0:1,0:0:0:0:
296,331,55211,5,12,1:1:0:0:
209,335,55361,2,0,P|168:353|127:387,1,69.0000013160706,2|8,0:1|0:1,0:0:0:0:
293,337,55661,5,4,1:1:0:0:
321,252,55811,2,0,L|348:160,1,69.0000013160706,10|0,0:1|0:1,0:0:0:0:
384,333,56111,2,0,P|418:347|450:373,1,69.0000013160706,12|0,1:1|0:1,0:0:0:0:
492,126,56411,5,12,1:1:0:0:
442,190,56561,2,0,L|417:273,1,69.0000013160706,2|8,0:1|0:1,0:0:0:0:
383,133,56861,5,4,1:1:0:0:
318,85,57011,2,0,P|301:44|307:7,1,69.0000013160706,10|0,0:1|0:0,0:0:0:0:
216,77,57311,2,0,P|188:112|153:125,1,69.0000013160706,12|0,1:1|0:1,0:0:0:0:
20,68,57611,6,0,P|69:84|88:101,1,69.0000013160706,12|2,1:1|0:0,0:0:0:0:
76,243,57911,2,0,P|96:205|102:172,1,69.0000013160706,8|2,1:1|0:0,0:0:0:0:
129,13,58211,6,0,P|159:48|173:80,1,69.0000013160706,8|2,1:1|0:0,0:0:0:0:
124,315,58511,2,0,P|154:280|168:248,1,69.0000013160706,8|2,1:1|0:0,0:0:0:0:
257,140,58811,5,12,1:0:0:0:
183,177,58961,1,0,1:0:0:0:
106,145,59111,1,8,1:0:0:0:
35,188,59261,1,0,1:0:0:0:
112,150,59411,5,12,1:0:0:0:
189,182,59561,1,0,1:0:0:0:
263,145,59711,1,12,1:0:0:0:
327,197,59861,1,0,1:0:0:0:
411,175,60011,6,0,L|419:156,1,18,4|0,1:0|0:0,0:0:0:0:
441,89,60311,1,4,0:3:0:0:
441,89,60386,1,4,3:0:0:0:
441,89,60461,1,4,3:0:0:0:
445,264,60611,6,0,L|420:274,1,26.9999991760254,4|0,1:0|0:0,0:0:0:0:
352,301,60911,1,4,0:3:0:0:
352,301,60986,1,4,3:0:0:0:
352,301,61061,1,4,3:0:0:0:
78,144,62411,5,4,1:0:0:0:
152,91,62561,2,0,P|167:58|188:-14,1,90.0000034332277,0|2,0:0|0:1,0:0:0:0:
312,179,62861,1,0,0:0:0:0:
223,152,63011,2,0,P|179:172|133:216,1,90.0000034332277,8|0,0:0|0:0,0:0:0:0:
160,381,63311,2,0,P|131:341|114:280,1,90.0000034332277,2|0,0:1|0:0,0:0:0:0:
60,228,63611,5,0,1:0:0:0:
193,271,63761,2,0,L|281:299,1,90.0000034332277,2|0,0:1|0:0,0:0:0:0:
373,236,64061,1,2,0:1:0:0:
351,350,64211,2,0,B|376:308|376:308|365:269,1,90.0000034332277,8|2,0:0|0:0,0:0:0:0:
280,213,64511,6,0,L|262:205,3,12,2|2|2|2,0:0|0:0|0:0|0:0,0:0:0:0:
426,164,65111,6,0,P|442:125|462:59,1,90.0000034332277,2|0,0:1|0:0,0:0:0:0:
297,6,65411,2,0,P|340:32|369:72,1,90.0000034332277,8|0,0:0|0:0,0:0:0:0:
227,66,65711,2,0,P|190:81|136:115,1,90.0000034332277,2|0,0:1|0:0,0:0:0:0:
292,129,66011,5,0,1:0:0:0:
297,213,66161,2,0,L|301:286,1,60,2|0,0:1|0:0,0:0:0:0:
311,351,66461,1,0,0:0:0:0:
422,314,66611,6,0,B|271:231|298:398|145:330,1,270.000010299683,8|2,0:0|0:0,0:0:0:0:
58,209,67211,5,4,1:0:0:0:
100,296,67361,2,0,P|93:251|86:177,1,90.0000034332277,0|2,0:0|0:1,0:0:0:0:
40,125,67661,1,0,0:0:0:0:
177,133,67811,2,0,P|139:111|98:70,1,90.0000034332277,8|0,0:0|0:0,0:0:0:0:
270,194,68111,2,0,P|226:201|174:226,1,90.0000034332277,2|0,0:1|0:0,0:0:0:0:
339,119,68411,5,0,1:0:0:0:
382,192,68561,2,0,L|360:297,1,90.0000034332277,2|0,0:1|0:0,0:0:0:0:
339,119,68861,1,2,0:1:0:0:
512,102,69011,2,0,L|411:128,1,90.0000034332277,8|2,0:0|0:0,0:0:0:0:
443,34,69311,6,0,L|448:16,1,12,2|2,0:0|0:0,0:0:0:0:
359,20,69611,6,0,P|319:30|274:55,1,90.0000034332277,0|0,1:0|0:0,0:0:0:0:
339,119,69911,5,0,0:0:0:0:
250,155,70061,2,0,P|278:184|322:211,1,90.0000034332277,2|8,0:0|0:0,0:0:0:0:
339,119,70361,5,0,0:0:0:0:
199,85,70511,2,0,L|90:57,1,90.0000034332277,2|0,0:0|0:0,0:0:0:0:
117,231,70811,5,0,1:0:0:0:
214,251,70961,1,10,0:0:0:0:
204,239,71111,2,0,P|161:257|102:288,1,90.0000034332277,0|8,0:0|0:0,0:0:0:0:
289,318,71411,2,0,L|307:226,1,90.0000034332277,10|0,0:0|0:0,0:0:0:0:
206,333,71711,6,0,L|213:381,1,45.0000017166138,2|0,0:0|0:0,0:0:0:0:
384,257,72011,5,4,1:0:0:0:
409,179,72161,2,0,B|422:147|422:147|405:53,1,90.0000034332277,0|2,0:0|0:1,0:0:0:0:
504,168,72461,1,0,0:0:0:0:
320,143,72611,2,0,P|279:157|235:179,1,90.0000034332277,8|0,0:0|0:0,0:0:0:0:
191,265,72911,1,2,0:1:0:0:
198,275,73061,1,0,0:0:0:0:
145,124,73211,5,0,1:0:0:0:
152,114,73361,2,0,L|170:5,1,90.0000034332277,2|0,0:1|0:0,0:0:0:0:
248,74,73661,1,2,0:1:0:0:
58,138,73811,2,0,B|39:103|39:103|52:54,1,90.0000034332277,8|2,0:0|0:0,0:0:0:0:
140,196,74111,6,0,L|142:217,3,12,2|2|2|2,0:0|0:0|0:0|0:0,0:0:0:0:
213,245,74711,6,0,P|269:254|328:272,1,90.0000034332277,2|0,0:1|0:0,0:0:0:0:
471,311,75011,2,0,P|419:339|395:376,1,90.0000034332277,8|0,0:0|0:0,0:0:0:0:
375,207,75311,2,0,P|372:175|343:119,1,90.0000034332277,2|0,0:1|0:0,0:0:0:0:
156,93,75611,5,0,1:0:0:0:
143,176,75761,2,0,L|132:245,1,60,2|0,0:1|0:0,0:0:0:0:
120,319,76061,1,0,0:0:0:0:
292,282,76211,5,8,0:0:0:0:
48,290,76361,2,0,B|112:263|112:263|242:316,1,180.000006866455,2|2,0:0|0:0,0:0:0:0:
429,370,76811,5,4,1:0:0:0:
341,355,76961,2,0,P|310:320|289:270,1,90.0000034332277,0|2,0:0|0:1,0:0:0:0:
303,149,77261,1,0,0:0:0:0:
465,198,77411,2,0,L|447:294,1,90.0000034332277,8|0,0:0|0:0,0:0:0:0:
369,63,77711,2,0,L|387:159,1,90.0000034332277,2|0,0:1|0:0,0:0:0:0:
244,249,78011,5,0,1:0:0:0:
333,222,78161,2,0,P|292:242|259:272,1,90.0000034332277,2|0,0:1|0:0,0:0:0:0:
201,330,78461,1,2,0:1:0:0:
226,150,78611,2,0,P|215:108|176:36,1,90.0000034332277,8|2,0:0|0:0,0:0:0:0:
157,220,78911,6,0,L|174:227,1,12,2|2,0:0|0:0,0:0:0:0:
41,270,79211,6,0,L|142:309,1,90.0000034332277,4|0,1:0|0:0,0:0:0:0:
244,249,79511,1,0,0:0:0:0:
201,330,79661,1,2,0:0:0:0:
79,185,79811,6,0,L|66:89,1,90.0000034332277,8|0,0:0|0:0,0:0:0:0:
117,29,80111,1,2,0:0:0:0:
59,182,80261,6,0,L|46:86,1,90.0000034332277,8|0,0:0|1:0,0:0:0:0:
204,49,80561,5,10,0:0:0:0:
161,131,80711,2,0,B|205:153|205:153|317:132,1,135.000005149841,0|0,0:0|0:0,0:0:0:0:
317,52,81011,6,0,L|201:73,1,107.999996704102,8|0,0:0|0:0,0:0:0:0:
186,225,81311,1,8,0:0:0:0:
369,128,81461,1,8,0:0:0:0:
255,267,81611,6,0,L|262:286,3,17.9999994506836,4|0|0|0,1:0|0:0|0:0|0:0,0:0:0:0:
406,280,82211,6,0,L|320:266,1,71.9999978027344,8|0,0:0|0:0,0:0:0:0:
316,347,82511,1,0,0:0:0:0:
314,355,82661,1,0,0:0:0:0:
406,369,82811,6,0,L|424:356,1,17.9999994506836,2|0,1:0|0:0,0:0:0:0:
485,307,83111,2,0,L|494:286,1,17.9999994506836,2|0,0:1|0:0,0:0:0:0:
458,98,83411,6,0,L|469:113,1,17.9999994506836,10|0,0:1|0:0,0:0:0:0:
504,191,83711,2,0,L|506:209,1,17.9999994506836,2|0,0:1|0:0,0:0:0:0:
397,187,84011,6,0,L|415:190,3,17.9999994506836,0|0|0|0,1:0|0:0|0:0|0:0,0:0:0:0:
304,137,84611,6,0,L|316:228,1,71.9999978027344,8|0,0:0|0:0,0:0:0:0:
243,267,84911,1,0,0:0:0:0:
233,265,85061,1,0,0:0:0:0:
393,270,85211,6,0,L|411:273,2,17.9999994506836,0|2|0,1:0|0:1|0:0,0:0:0:0:
337,335,85661,1,0,0:0:0:0:
190,373,85811,6,0,L|293:349,1,71.9999978027344,10|0,0:1|0:0,0:0:0:0:
54,289,86111,2,0,L|157:313,1,71.9999978027344,2|0,0:1|0:0,0:0:0:0:
39,194,86411,6,0,L|34:171,3,17.9999994506836,0|0|0|0,1:0|0:0|0:0|0:0,0:0:0:0:
180,101,87011,6,0,P|145:107|83:132,1,71.9999978027344,8|0,0:0|0:0,0:0:0:0:
45,41,87311,1,0,0:0:0:0:
43,34,87461,1,0,0:0:0:0:
146,23,87611,6,0,P|157:13|164:1,1,17.9999994506836,2|0,1:0|0:0,0:0:0:0:
233,38,87911,2,0,P|247:34|259:27,1,17.9999994506836,2|0,0:1|0:0,0:0:0:0:
237,196,88211,6,0,P|229:193|220:191,1,17.9999994506836,10|0,0:1|0:0,0:0:0:0:
148,221,88512,2,0,P|143:215|136:209,1,17.9999994506836,2|0,0:1|0:0,0:0:0:0:
312,123,88811,6,0,L|320:101,3,17.9999994506836,0|0|0|0,1:0|0:0|0:0|0:0,0:0:0:0:
334,289,89411,6,0,L|320:194,1,71.9999978027344,8|0,0:0|0:0,0:0:0:0:
277,346,89711,6,0,P|282:359|289:372,1,17.9999994506836,0|0,0:0|0:0,0:0:0:0:
407,244,90011,2,0,P|416:232|424:220,2,17.9999994506836,0|2|0,1:0|0:1|0:0,0:0:0:0:
424,324,90461,1,0,0:0:0:0:
472,163,90611,6,0,L|491:71,1,71.9999978027344,10|0,0:1|0:0,0:0:0:0:
386,72,90911,2,0,L|367:-20,1,71.9999978027344,2|0,0:1|0:0,0:0:0:0:
351,186,91211,6,0,P|334:195|318:206,3,24,4|0|2|0,1:0|0:0|0:0|0:0,0:0:0:0:
286,362,91811,6,0,P|307:319|304:273,1,90.0000034332277,10|0,0:0|0:0,0:0:0:0:
248,213,92111,1,2,0:0:0:0:
234,207,92261,1,0,0:0:0:0:
388,261,92411,6,0,P|405:260|428:251,1,24,2|0,1:2|0:0,0:0:0:0:
476,201,92711,2,0,P|483:185|487:161,1,24,2|0,0:1|0:0,0:0:0:0:
410,5,93011,6,0,P|404:15|401:27,1,24,10|0,0:0|0:0,0:0:0:0:
405,112,93311,2,0,P|411:122|420:132,1,24,2|0,0:1|0:0,0:0:0:0:
315,75,93611,6,0,L|282:81,3,24,2|0|2|0,1:2|0:0|0:0|0:0,0:0:0:0:
215,180,94211,6,0,L|316:160,1,90.0000034332277,10|0,0:0|0:0,0:0:0:0:
371,238,94511,1,2,0:0:0:0:
376,247,94661,1,0,0:0:0:0:
397,142,94811,6,0,L|409:115,2,24,2|2|0,1:2|0:1|0:0,0:0:0:0:
466,223,95261,1,0,0:0:0:0:
313,344,95411,6,0,P|330:302|363:272,1,90.0000034332277,8|0,0:0|0:0,0:0:0:0:
239,278,95711,2,0,P|226:230|190:191,1,90.0000034332277,2|2,0:1|0:0,0:0:0:0:
309,186,96011,6,0,P|310:172|313:159,3,24,2|0|2|0,1:2|0:0|0:0|0:0,0:0:0:0:
433,66,96611,6,0,P|385:75|321:91,1,90.0000034332277,10|0,0:0|0:0,0:0:0:0:
264,33,96911,1,2,0:0:0:0:
260,26,97061,1,0,0:0:0:0:
179,37,97211,6,0,P|161:44|139:54,1,24,2|0,1:2|0:0,0:0:0:0:
79,14,97511,2,0,P|61:7|39:-3,1,24,2|0,0:1|0:0,0:0:0:0:
160,145,97811,6,0,P|178:152|200:162,1,24,10|0,0:0|0:0,0:0:0:0:
260,122,98111,2,0,P|278:115|300:105,1,24,2|0,0:1|0:0,0:0:0:0:
248,214,98411,6,0,L|242:252,1,24,0|0,1:0|0:0,0:0:0:0:
244,319,98636,1,0,0:0:0:0:
244,319,98711,1,4,3:0:0:0:
244,319,98786,1,4,3:0:0:0:
71,134,99011,6,0,L|74:157,1,24,8|0,0:0|0:0,0:0:0:0:
94,239,99236,1,0,0:0:0:0:
94,239,99311,1,4,3:0:0:0:
94,239,99386,1,4,3:0:0:0:
173,192,100811,6,0,P|174:119|160:54,1,120,4|2,1:0|0:0,0:0:0:0:
84,96,101261,1,8,0:0:0:0:
17,46,101411,2,0,P|50:58|81:74,1,60,2|0,1:2|0:0,0:0:0:0:
20,167,101711,1,10,0:0:0:0:
20,167,102011,6,0,P|20:224|35:300,1,120,2|2,1:2|0:0,0:0:0:0:
61,365,102461,1,8,0:0:0:0:
198,331,102611,2,0,P|166:334|129:352,1,60,2|0,1:2|0:0,0:0:0:0:
287,272,102911,2,0,P|265:270|241:263,1,30,8|0,0:0|0:0,0:0:0:0:
287,272,103211,6,0,P|338:271|424:320,1,120,2|2,1:2|0:0,0:0:0:0:
466,212,103661,1,8,0:0:0:0:
484,296,103811,2,0,P|488:266|481:211,1,60,2|0,1:2|0:0,0:0:0:0:
429,133,104111,1,10,0:0:0:0:
429,133,104411,6,0,B|443:5,1,120,2|0,1:2|0:0,0:0:0:0:
356,84,104861,1,8,0:0:0:0:
350,169,105011,2,0,L|282:181,1,60,0|0,1:0|0:0,0:0:0:0:
248,66,105311,2,0,L|302:75,1,30,10|0,0:0|0:0,0:0:0:0:
165,362,105611,6,0,P|162:291|173:235,1,120,2|2,1:2|0:0,0:0:0:0:
195,162,106061,1,8,0:0:0:0:
109,180,106211,2,0,P|83:187|40:195,1,60,2|0,1:2|0:0,0:0:0:0:
170,243,106511,1,10,0:0:0:0:
170,243,106811,6,0,P|224:250|304:265,1,120,2|0,1:2|0:0,0:0:0:0:
375,273,107261,1,8,0:0:0:0:
360,183,107411,2,0,L|352:113,1,60,2|0,1:2|0:0,0:0:0:0:
373,280,107711,2,0,L|366:336,1,30,8|0,0:0|0:0,0:0:0:0:
429,75,108011,6,0,L|437:5,2,60,2|0|2,1:2|0:0|0:0,0:0:0:0:
330,102,108461,1,8,0:0:0:0:
477,162,108611,2,0,P|425:165|337:192,1,120,2|10,1:2|0:0,0:0:0:0:
251,145,109061,1,0,0:0:0:0:
265,240,109211,6,0,L|256:310,2,60,2|0|0,1:2|0:0|0:0,0:0:0:0:
326,357,109661,1,8,0:0:0:0:
171,337,109811,2,0,P|141:348|102:368,1,60,0|0,1:0|0:0,0:0:0:0:
265,240,110111,2,0,L|260:283,1,30,8|0,0:0|0:0,0:0:0:0:
265,240,110411,6,0,L|282:94,1,132.00000402832,4|8,1:0|0:1,0:0:0:0:
327,25,110861,1,8,0:0:0:0:
198,109,111011,2,0,L|120:121,1,66.0000020141602,8|0,1:0|0:0,0:0:0:0:
346,192,111311,2,0,L|424:204,1,66.0000020141602,10|0,0:0|0:0,0:0:0:0:
508,255,111611,6,0,P|480:274|452:306,2,66.0000020141602,2|0|2,1:2|0:0|0:0,0:0:0:0:
488,60,112061,1,8,0:0:0:0:
476,149,112211,2,0,L|468:61,1,66.0000020141602,2|0,1:2|0:0,0:0:0:0:
379,10,112511,2,0,L|405:57,1,33.0000010070801,8|0,0:0|0:0,0:0:0:0:
199,60,112811,6,0,L|101:47,2,66.0000020141602,2|0|8,1:2|0:0|0:1,0:0:0:0:
213,193,113261,1,8,0:0:0:0:
142,139,113411,2,0,L|44:152,1,66.0000020141602,2|0,1:2|0:0,0:0:0:0:
214,199,113711,1,10,0:0:0:0:
400,87,114011,6,0,P|403:54|401:0,2,66.0000020141602,2|0|8,1:2|0:0|0:1,0:0:0:0:
396,198,114461,1,8,0:0:0:0:
475,151,114611,2,0,P|441:161|398:182,1,66.0000020141602,0|0,1:0|0:0,0:0:0:0:
437,299,114911,2,0,L|443:261,1,33.0000010070801,10|0,0:0|0:0,0:0:0:0:
246,338,115211,6,0,P|296:342|401:368,1,132.00000402832,2|8,1:2|0:1,0:0:0:0:
310,231,115661,1,8,0:0:0:0:
285,147,115811,2,0,P|267:108|248:74,1,66.0000020141602,2|0,1:2|0:0,0:0:0:0:
372,63,116111,2,0,P|387:33|400:3,1,66.0000020141602,10|0,0:0|0:0,0:0:0:0:
497,156,116411,6,0,P|444:146|344:152,2,132.00000402832,2|8|2,1:2|0:1|1:2,0:0:0:0:
497,156,117311,1,8,0:0:0:0:
195,337,117611,6,0,P|259:342|316:275,1,132.00000402832,2|0,1:2|0:0,0:0:0:0:
388,145,118061,1,8,0:0:0:0:
306,136,118211,2,0,P|281:170|282:208,1,66.0000020141602,2|0,0:0|0:0,0:0:0:0:
396,285,118511,2,0,P|390:252|368:228,1,66.0000020141602,10|0,0:0|0:0,0:0:0:0:
196,152,118811,1,0,0:0:0:0:
196,152,119111,6,0,P|193:120|187:78,1,66.0000020141602,0|8,0:0|0:0,0:0:0:0:
121,36,119411,1,8,0:3:0:0:
114,31,119561,1,8,3:0:0:0:
66,110,119711,1,8,3:0:0:0:
60,117,119861,1,4,0:3:0:0:
100,198,120011,6,0,P|101:155|97:114,1,60,4|0,1:0|0:1,0:0:0:0:
25,25,120311,1,8,0:1:0:0:
25,25,120611,1,8,0:1:0:0:
25,25,120911,1,8,0:1:0:0:
25,25,121211,1,8,0:1:0:0:
25,25,121511,1,10,0:0:0:0:
25,25,121811,1,8,0:1:0:0:
25,25,122111,5,10,0:0:0:0:
80,105,122261,1,8,0:1:0:0:
171,149,122411,1,8,0:1:0:0:
171,149,122711,1,8,0:1:0:0:
171,149,123011,1,8,0:1:0:0:
171,149,123311,1,8,0:1:0:0:
171,149,123611,1,8,0:1:0:0:
171,149,123911,1,0,0:0:0:0:
171,149,124211,1,8,0:1:0:0:
171,149,124511,5,10,0:0:0:0:
254,105,124661,1,8,0:1:0:0:
293,23,124811,1,8,0:1:0:0:
293,23,125111,1,8,0:1:0:0:
293,23,125411,1,8,0:1:0:0:
293,23,125711,1,8,0:1:0:0:
293,23,126011,1,8,0:1:0:0:
293,23,126311,1,10,0:0:0:0:
293,23,126611,1,8,0:1:0:0:
293,23,126911,5,10,0:0:0:0:
290,119,127061,1,8,0:1:0:0:
285,209,127211,2,0,L|278:310,1,60,10|0,0:1|0:1,0:0:0:0:
268,284,127511,2,0,L|275:183,1,66.0000020141602,10|0,0:1|0:1,0:0:0:0:
401,114,127811,6,0,L|373:212,1,71.9999978027344,10|0,0:1|0:1,0:0:0:0:
364,191,128111,2,0,L|392:93,1,77.9999964294435,10|0,0:1|0:0,0:0:0:0:
482,33,128411,5,10,0:1:0:0:
395,18,128561,2,0,P|357:27|317:66,1,83.9999974365235,0|2,0:1|0:1,0:0:0:0:
461,219,128861,5,0,0:1:0:0:
485,140,129011,2,0,P|492:95|481:24,1,90.0000034332277,10|0,0:1|0:0,0:0:0:0:
364,191,129311,5,10,0:1:0:0:
480,320,129461,1,0,0:1:0:0:
322,356,129611,5,12,1:1:0:0:
362,275,129761,2,0,L|375:187,1,69.0000013160706,2|8,0:1|0:1,0:0:0:0:
288,144,130061,5,4,1:1:0:0:
210,97,130211,2,0,L|197:9,1,69.0000013160706,10|0,0:1|0:0,0:0:0:0:
174,174,130511,6,0,P|142:200|118:241,1,69.0000013160706,12|0,1:1|0:1,0:0:0:0:
141,373,130811,2,0,P|161:327|159:292,1,69.0000013160706,12|2,1:1|0:1,0:0:0:0:
68,303,131111,1,8,0:1:0:0:
229,243,131261,1,4,1:1:0:0:
320,263,131411,6,0,L|403:280,1,69.0000013160706,10|0,0:1|0:1,0:0:0:0:
244,369,131711,2,0,L|327:352,1,69.0000013160706,12|0,1:1|0:1,0:0:0:0:
452,204,132011,5,12,1:1:0:0:
476,124,132161,2,0,P|469:81|447:46,1,69.0000013160706,2|8,0:1|0:1,0:0:0:0:
443,203,132461,5,4,1:1:0:0:
385,142,132611,2,0,P|344:126|302:128,1,69.0000013160706,10|0,0:1|0:1,0:0:0:0:
224,35,132911,2,0,P|258:32|289:18,1,69.0000013160706,12|0,1:1|0:1,0:0:0:0:
161,105,133211,5,12,1:1:0:0:
201,183,133361,2,0,L|188:95,1,69.0000013160706,2|8,0:1|0:1,0:0:0:0:
93,56,133661,5,4,1:1:0:0:
57,126,133811,2,0,B|46:154|46:154|66:201,1,69.0000013160706,10|0,0:1|0:0,0:0:0:0:
144,304,134111,2,0,L|131:216,1,69.0000013160706,12|0,1:1|0:1,0:0:0:0:
224,336,134411,6,0,L|302:381,1,69.0000013160706,12|2,1:1|0:0,0:0:0:0:
67,338,134711,2,0,L|-11:383,1,69.0000013160706,8|2,1:1|0:0,0:0:0:0:
237,223,135011,6,0,P|265:238|284:281,1,69.0000013160706,8|2,1:1|0:0,0:0:0:0:
54,230,135311,2,0,P|26:245|7:288,1,69.0000013160706,8|2,1:1|0:0,0:0:0:0:
149,277,135611,5,12,1:0:0:0:
139,290,135761,1,0,1:0:0:0:
152,294,135911,1,8,1:0:0:0:
157,279,136061,1,0,1:0:0:0:
144,271,136211,5,12,1:0:0:0:
74,330,136361,1,0,1:0:0:0:
156,377,136511,1,12,1:0:0:0:
226,315,136661,1,0,1:0:0:0:
114,187,136811,6,0,L|97:176,1,18,4|0,1:0|0:0,0:0:0:0:
35,141,137111,1,4,0:3:0:0:
35,141,137186,1,4,3:0:0:0:
35,141,137261,1,4,3:0:0:0:
205,98,137411,6,0,L|219:73,1,26.9999991760254,4|0,1:0|0:0,0:0:0:0:
258,12,137711,1,4,0:3:0:0:
258,12,137786,1,4,3:0:0:0:
258,12,137861,1,4,3:0:0:0:
205,98,139211,6,0,L|78:109,1,107.999996704102,4|0,1:0|0:0,0:0:0:0:
290,89,139511,2,0,L|295:75,1,8.99999972534181,0|0,0:0|0:0,0:0:0:0:
326,6,139661,2,0,L|294:137,1,107.999996704102,4|0,1:3|0:0,0:0:0:0:
282,273,139961,2,0,L|277:259,1,8.99999972534181,0|0,0:0|0:0,0:0:0:0:
246,190,140111,2,0,L|278:321,1,107.999996704102,4|0,1:3|0:0,0:0:0:0:
243,369,140561,5,0,0:0:0:0:
158,327,140711,1,4,1:3:0:0:
150,342,140861,1,0,0:0:0:0:
168,238,141011,6,0,P|150:152|96:86,1,161.999995056153,8|0,0:0|0:0,0:0:0:0:
105,94,141311,2,0,P|133:144|190:157,1,107.999996704102,0|0,0:0|0:0,0:0:0:0:
356,43,141611,6,0,P|306:60|282:107,1,107.999996704102,4|0,1:0|0:0,0:0:0:0:
251,244,141911,2,0,L|258:257,1,8.99999972534181,0|0,0:0|0:0,0:0:0:0:
288,328,142061,2,0,L|270:197,1,107.999996704102,4|0,1:3|0:0,0:0:0:0:
442,130,142361,2,0,L|435:143,1,8.99999972534181,0|0,0:0|0:0,0:0:0:0:
405,214,142511,2,0,L|423:83,1,107.999996704102,4|0,1:3|0:0,0:0:0:0:
458,316,142811,6,0,P|407:333|364:380,1,107.999996704102,0|0,0:0|0:0,0:0:0:0:
369,370,143111,2,0,P|420:353|463:306,1,107.999996704102,4|0,1:3|0:0,0:0:0:0:
512,207,143411,6,0,P|496:215|481:240,1,45.0000017166138,8|2,0:0|0:0,0:0:0:0:
481,237,143711,2,0,P|497:229|512:204,1,45.0000017166138,2|2,0:0|0:0,0:0:0:0:
405,214,144011,6,0,L|282:228,1,107.999996704102,4|0,1:0|0:0,0:0:0:0:
313,94,144311,2,0,L|316:81,1,8.99999972534181,0|0,0:0|0:0,0:0:0:0:
353,15,144461,2,0,L|335:135,1,107.999996704102,4|0,1:3|0:0,0:0:0:0:
222,222,144761,2,0,L|219:209,1,8.99999972534181,0|0,0:0|0:0,0:0:0:0:
182,143,144911,2,0,L|200:263,1,107.999996704102,4|0,1:3|0:0,0:0:0:0:
210,331,145361,5,0,0:0:0:0:
295,289,145511,1,4,1:3:0:0:
292,305,145661,1,0,0:0:0:0:
372,358,145811,6,0,P|450:355|501:266,1,161.999995056153,8|0,0:0|0:0,0:0:0:0:
498,292,146111,2,0,P|446:294|408:364,1,107.999996704102,0|0,0:0|0:0,0:0:0:0:
476,199,146411,6,0,L|495:86,1,107.999996704102,4|0,1:0|0:0,0:0:0:0:
359,170,146711,2,0,L|344:172,1,8.99999972534181,0|0,0:0|0:0,0:0:0:0:
259,147,146861,2,0,L|388:132,1,107.999996704102,4|0,1:3|0:0,0:0:0:0:
504,15,147161,2,0,L|489:17,1,8.99999972534181,0|0,0:0|0:0,0:0:0:0:
362,59,147311,2,0,L|429:50,2,60.0000022888184,4|0|0,1:3|0:0|0:0,0:0:0:0:
281,11,147611,6,0,P|235:28|219:88,1,107.999996704102,2|0,0:1|0:0,0:0:0:0:
189,83,147811,2,0,P|205:129|266:145,1,107.999996704102,2|0,0:1|0:0,0:0:0:0:
241,183,148011,2,0,P|287:167|303:106,1,107.999996704102,2|10,0:1|0:1,0:0:0:0:
299,104,148211,6,0,L|284:74,3,20
387,121,148661,1,0,1:0:0:0:
471,134,148811,6,0,P|407:160|340:243,1,155.999992858887,4|0,1:0|0:0,0:0:0:0:
260,374,149111,1,2,0:1:0:0:
323,315,149261,2,0,P|247:344|140:313,1,155.999992858887,4|8,1:3|0:0,0:0:0:0:
102,162,149561,1,2,0:1:0:0:
25,200,149711,2,0,P|127:204|186:262,1,155.999992858887,4|0,1:3|0:0,0:0:0:0:
167,234,150161,6,0,L|177:245,1,8.99999972534181,2|0,0:1|0:0,0:0:0:0:
221,301,150311,2,0,L|227:314,1,8.99999972534181,4|0,1:3|0:0,0:0:0:0:
259,375,150461,2,0,L|262:389,1,8.99999972534181,2|0,0:1|0:0,0:0:0:0:
382,315,150611,6,0,P|286:309|164:402,1,233.999989288331,8|0,0:0|0:0,0:0:0:0:
35,293,150911,2,0,P|132:273|170:225,1,155.999992858887,2|0,0:0|0:0,0:0:0:0:
275,17,151211,6,0,L|255:209,1,155.999992858887,4|0,1:0|0:0,0:0:0:0:
422,237,151511,1,2,0:1:0:0:
382,315,151661,2,0,P|395:253|356:151,1,155.999992858887,4|8,1:3|0:0,0:0:0:0:
219,369,151961,1,2,0:1:0:0:
157,309,152111,2,0,P|229:348|307:345,1,155.999992858887,4|0,1:3|0:0,0:0:0:0:
422,237,152411,6,0,L|243:257,1,155.999992858887,2|0,0:1|0:0,0:0:0:0:
258,245,152711,2,0,L|437:225,1,155.999992858887,4|0,1:3|0:0,0:0:0:0:
475,135,153011,6,0,L|350:121,1,90.0000034332277,8|2,1:0|0:3,0:0:0:0:
373,117,153311,2,0,L|497:130,1,90.0000034332277,2|2,0:0|0:3,0:0:0:0:
327,39,153611,6,0,P|246:42|148:96,1,155.999992858887,4|0,1:0|0:0,0:0:0:0:
123,240,153911,1,2,0:1:0:0:
42,262,154061,2,0,P|108:215|134:132,1,155.999992858887,4|8,1:3|0:0,0:0:0:0:
166,308,154361,1,2,0:1:0:0:
154,384,154511,2,0,P|125:340|104:331,1,77.9999964294435,4|0,1:3|0:0,0:0:0:0:
29,359,154661,6,0,L|25:372,2,8.99999972534181,0|0|0,0:0|0:0|0:0,0:0:0:0:
256,271,154961,6,0,L|261:257,1,8.99999972534181,2|0,0:1|0:0,0:0:0:0:
283,189,155111,2,0,L|284:174,1,8.99999972534181,4|0,1:3|0:0,0:0:0:0:
294,107,155261,2,0,L|292:92,1,8.99999972534181,2|0,0:1|0:0,0:0:0:0:
190,200,155411,6,0,P|278:171|365:61,1,233.999989288331,8|0,1:0|0:0,0:0:0:0:
246,31,155711,2,0,P|174:56|142:126,1,155.999992858887,2|0,0:0|0:0,0:0:0:0:
100,384,156011,6,0,P|133:315|106:243,1,155.999992858887,4|0,1:0|0:0,0:0:0:0:
310,255,156311,1,2,0:1:0:0:
393,278,156461,2,0,P|313:278|232:316,1,155.999992858887,4|8,1:3|0:0,0:0:0:0:
100,384,156761,1,2,0:1:0:0:
17,361,156911,2,0,P|97:361|178:323,1,155.999992858887,2|0,1:2|0:0,0:0:0:0:
316,163,157211,6,0,L|334:94,2,53.9999983520508,2|2|2,0:1|0:1|0:1,0:0:0:0:
310,255,157511,6,0,L|306:231,1,17.9999994506836,4|0,1:3|0:0,0:0:0:0:
230,235,157811,1,8,0:3:0:0:
227,247,157961,1,8,0:3:0:0:
165,303,158111,6,0,B|270:269|240:370|362:329,1,180.000006866455,4|4,3:0|0:3,0:0:0:0:
475,186,158411,6,0,L|481:167,3,17.9999994506836,4|0|0|0,1:0|0:0|0:0|0:0,0:0:0:0:
506,270,159011,6,0,P|443:280|414:315,1,90.0000034332277,8|0,0:0|0:0,0:0:0:0:
434,373,159311,1,0,0:0:0:0:
442,383,159461,1,0,0:0:0:0:
354,346,159611,6,0,L|334:351,1,17.9999994506836,2|0,1:0|0:0,0:0:0:0:
255,366,159911,2,0,L|237:361,1,17.9999994506836,2|0,0:1|0:0,0:0:0:0:
119,291,160211,6,0,L|139:286,1,17.9999994506836,10|0,0:1|0:0,0:0:0:0:
218,271,160511,2,0,L|235:275,1,17.9999994506836,2|0,0:1|0:0,0:0:0:0:
148,372,160811,6,0,L|128:377,3,17.9999994506836,0|0|0|0,1:0|0:0|0:0|0:0,0:0:0:0:
218,271,161411,6,0,L|236:168,1,90.0000034332277,8|0,0:0|0:0,0:0:0:0:
192,108,161711,1,0,0:0:0:0:
185,100,161861,1,0,0:0:0:0:
291,117,162011,6,0,L|313:112,2,17.9999994506836,0|2|0,1:0|0:1|0:0,0:0:0:0:
248,40,162461,1,0,0:0:0:0:
414,0,162611,6,0,P|372:15|322:42,1,90.0000034332277,10|0,0:1|0:0,0:0:0:0:
498,132,162911,2,0,P|456:117|406:90,1,90.0000034332277,2|0,0:1|0:0,0:0:0:0:
357,191,163211,6,0,L|361:210,3,17.9999994506836,0|0|0|0,1:0|0:0|0:0|0:0,0:0:0:0:
210,299,163811,6,0,P|252:284|302:257,1,90.0000034332277,8|0,0:0|0:0,0:0:0:0:
276,180,164111,1,0,0:0:0:0:
268,171,164261,1,0,0:0:0:0:
188,201,164411,6,0,P|176:211|172:218,1,17.9999994506836,2|0,1:0|0:0,0:0:0:0:
129,280,164711,2,0,P|123:294|123:302,1,17.9999994506836,2|0,0:1|0:0,0:0:0:0:
121,139,165011,6,0,P|133:129|137:122,1,17.9999994506836,10|0,0:1|0:0,0:0:0:0:
180,60,165311,2,0,P|185:45|185:37,1,17.9999994506836,2|0,0:1|0:0,0:0:0:0:
59,46,165611,6,0,P|61:61|65:68,3,17.9999994506836,0|0|0|0,1:0|0:0|0:0|0:0,0:0:0:0:
121,139,166211,6,0,L|240:157,1,90.0000034332277,8|0,0:0|0:0,0:0:0:0:
255,251,166511,6,0,L|251:231,1,17.9999994506836,0|0,0:0|0:0,0:0:0:0:
219,354,166811,2,0,L|223:334,2,17.9999994506836,0|2|0,1:0|0:0|0:0,0:0:0:0:
167,269,167261,1,0,0:0:0:0:
395,300,167411,6,0,L|304:317,1,90.0000034332277,10|0,0:0|0:0,0:0:0:0:
475,208,167711,2,0,L|384:190,1,90.0000034332277,2|0,0:0|0:0,0:0:0:0:
342,95,168011,6,0,L|332:64,3,24,4|0|2|0,1:0|0:0|0:0|0:0,0:0:0:0:
203,196,168611,6,0,P|236:189|286:164,1,90.0000034332277,10|0,0:0|0:0,0:0:0:0:
257,89,168911,1,0,0:0:0:0:
246,85,169061,1,2,0:0:0:0:
161,109,169211,6,0,P|149:120|142:135,1,24,2|0,1:2|0:0,0:0:0:0:
107,10,169511,2,0,P|114:24|127:35,1,24,2|0,0:1|0:0,0:0:0:0:
74,167,169811,6,0,P|62:156|55:141,1,24,10|0,0:0|0:0,0:0:0:0:
20,266,170111,2,0,P|27:251|40:240,1,24,2|0,0:1|0:0,0:0:0:0:
99,335,170411,6,0,P|107:348|110:365,3,24,2|0|2|0,1:2|0:0|0:0|0:0,0:0:0:0:
181,297,171011,6,0,P|186:251|212:192,1,90.0000034332277,10|0,0:0|0:0,0:0:0:0:
291,206,171311,1,2,0:0:0:0:
288,218,171461,1,0,0:0:0:0:
240,136,171611,6,0,L|231:111,2,24,2|2|0,1:2|0:1|0:0,0:0:0:0:
325,133,172061,1,0,0:0:0:0:
457,182,172211,6,0,P|405:194|361:224,1,90.0000034332277,10|0,0:0|0:0,0:0:0:0:
412,66,172511,2,0,P|360:54|316:24,1,90.0000034332277,2|2,0:1|0:0,0:0:0:0:
204,16,172811,6,0,L|213:41,3,24,2|0|2|0,1:2|0:0|0:0|0:0,0:0:0:0:
21,35,173411,6,0,L|111:46,1,90.0000034332277,10|0,0:0|0:0,0:0:0:0:
177,114,173711,1,2,0:0:0:0:
180,125,173861,1,0,0:0:0:0:
134,206,174011,6,0,P|122:209|101:208,1,24,2|0,1:2|0:0,0:0:0:0:
29,179,174311,2,0,P|17:175|0:164,1,24,2|0,0:1|0:0,0:0:0:0:
184,32,174611,6,0,P|196:29|217:30,1,24,10|0,0:0|0:0,0:0:0:0:
289,59,174911,2,0,P|300:62|318:73,1,24,2|0,0:1|0:0,0:0:0:0:
357,165,175211,6,0,P|354:183|349:201,1,36,0|0,1:0|0:0,0:0:0:0:
312,270,175511,1,4,3:0:0:0:
312,270,175586,1,4,3:0:0:0:
312,270,175661,1,4,3:0:0:0:
419,46,175811,6,0,P|422:64|427:82,1,36,8|0,0:0|0:0,0:0:0:0:
464,151,176111,1,4,3:0:0:0:
464,151,176186,1,4,3:0:0:0:
464,151,176261,1,4,3:0:0:0:
328,42,176411,6,0,L|321:25,1,18,0|0,0:0|0:0,0:0:0:0:
321,25,177011,1,0,0:0:0:0:
321,25,177311,1,0,0:0:0:0:
256,192,177611,12,2,184811,0:0:0:0:
