osu file format v14

[General]
AudioFilename: audio.mp3
AudioLeadIn: 0
PreviewTime: 52773
Countdown: 0
SampleSet: Soft
StackLeniency: 0.3
Mode: 0
LetterboxInBreaks: 0
WidescreenStoryboard: 1

[Editor]
Bookmarks: 43211
DistanceSpacing: 1.3
BeatDivisor: 8
GridSize: 4
TimelineZoom: 2

[Metadata]
Title:Indoor Kei Nara Trackmaker (curryrice Remix)
TitleUnicode:インドア系ならトラックメイカー (curryrice Remix)
Artist:Yunomi & nicamoq
ArtistUnicode:ゆのみ & にかもきゅ
Creator:toybot
Version:jounzan's another
Source:
Tags:future bass neilperry jounzan evilelvis sing japanese novelty
BeatmapID:1935975
BeatmapSetID:926885

[Difficulty]
HPDrainRate:5.5
CircleSize:4.5
OverallDifficulty:8
ApproachRate:9
SliderMultiplier:2.8
SliderTickRate:1

[Events]
//Background and Video events
0,0,"yunomi bg.jpg",0,0
//Break Periods
//Storyboard Layer 0 (Background)
//Storyboard Layer 1 (Fail)
//Storyboard Layer 2 (Pass)
//Storyboard Layer 3 (Foreground)
//Storyboard Sound Samples

[TimingPoints]
11,600,4,2,1,15,1,0
1211,-100,4,2,1,15,0,0
2261,-100,4,2,1,5,0,0
2411,-100,4,2,1,15,0,0
3461,-100,4,2,1,5,0,0
3611,-100,4,2,1,20,0,0
4661,-100,4,2,1,5,0,0
4811,-100,4,2,1,25,0,0
5861,-100,4,2,1,5,0,0
6011,-100,4,2,1,30,0,0
7061,-100,4,2,1,5,0,0
7211,-100,4,2,1,35,0,0
8261,-100,4,2,1,5,0,0
8411,-100,4,2,1,40,0,0
9461,-100,4,2,1,5,0,0
9611,-100,4,2,1,45,0,0
10661,-100,4,2,1,5,0,0
10811,-100,4,2,1,50,0,0
11861,-100,4,2,1,5,0,0
12011,-100,4,2,1,55,0,0
13061,-100,4,2,1,5,0,0
13211,-100,4,2,1,60,0,0
14261,-100,4,2,1,5,0,0
14411,-100,4,2,1,65,0,0
15461,-100,4,2,1,5,0,0
15611,-100,4,2,1,70,0,0
16661,-100,4,2,1,5,0,0
16811,-100,4,2,1,75,0,0
17861,-100,4,2,1,5,0,0
18011,-100,4,2,1,80,0,0
19061,-100,4,2,1,5,0,0
19211,-100,4,2,1,50,0,0
19511,-200,4,2,1,50,0,0
25736,-200,4,2,1,5,0,0
25811,-200,4,2,1,50,0,0
28136,-200,4,2,1,5,0,0
28211,-200,4,2,1,50,0,0
43211,-200,4,2,1,55,0,0
50711,-200,4,2,1,60,0,0
51011,-200,4,2,1,70,0,0
51311,-200,4,2,1,80,0,0
51761,-200,4,2,1,90,0,0
52211,-200,4,2,1,100,0,0
52811,-76.9230769230769,4,2,1,70,0,0
60011,-66.6666666666667,4,2,1,60,0,0
60311,-66.6666666666667,4,2,1,40,0,0
60611,-66.6666666666667,4,2,1,60,0,0
60911,-200,4,2,1,40,0,0
62411,-90.9090909090909,4,2,1,80,0,1
64511,-90.9090909090909,4,2,1,20,0,0
65111,-90.9090909090909,4,2,1,80,0,1
66161,-90.9090909090909,4,2,1,60,0,1
66611,-90.9090909090909,4,2,1,80,0,1
69311,-90.9090909090909,4,2,1,20,0,0
69611,-66.6666666666667,4,2,1,80,0,1
71711,-200,4,2,1,20,0,0
72011,-90.9090909090909,4,2,1,80,0,1
74111,-90.9090909090909,4,2,1,20,0,0
74711,-90.9090909090909,4,2,1,80,0,1
75761,-90.9090909090909,4,2,1,60,0,1
76211,-90.9090909090909,4,2,1,80,0,1
78911,-90.9090909090909,4,2,1,20,0,0
79211,-66.6666666666667,4,2,1,80,0,1
81611,-100,4,2,1,50,0,0
86111,-200,4,2,1,50,0,0
86411,-100,4,2,1,50,0,0
95711,-200,4,2,1,50,0,0
96011,-100,4,2,1,50,0,0
98411,-66.6666666666667,4,2,1,50,0,0
99311,-200,4,2,1,50,0,0
99611,-200,4,2,1,40,0,0
100811,-200,4,2,2,50,0,0
120011,-200,4,2,1,55,0,0
127511,-200,4,2,1,60,0,0
127811,-200,4,2,1,70,0,0
128111,-200,4,2,1,80,0,0
128561,-200,4,2,1,90,0,0
129011,-200,4,2,1,100,0,0
129611,-76.9230769230769,4,2,1,70,0,0
136811,-66.6666666666667,4,2,1,60,0,0
137111,-66.6666666666667,4,2,1,40,0,0
137411,-66.6666666666667,4,2,1,60,0,0
137711,-200,4,2,1,40,0,0
139211,-333.333333333333,4,2,1,80,0,1
147611,-100,4,2,1,80,0,1
148811,-76.9230769230769,4,2,1,80,0,1
157211,-100,4,2,1,80,0,1
157811,-76.9230769230769,4,2,1,80,0,1
158411,-100,4,2,1,50,0,0
162911,-200,4,2,1,50,0,0
163211,-100,4,2,1,50,0,0
172511,-200,4,2,1,50,0,0
172811,-100,4,2,1,50,0,0
175211,-66.6666666666667,4,2,1,40,0,0
175811,-66.6666666666667,4,2,1,30,0,0
176111,-200,4,2,1,30,0,0

[Colours]
Combo1 : 128,255,255
Combo2 : 0,128,0
Combo3 : 0,255,128
Combo4 : 0,128,192

[HitObjects]
91,68,19511,6,0,P|146:53|190:53,2,70,0|0|0,0:0|0:0|0:0,0:0:0:0:
217,103,20411,2,0,P|202:158|179:195,1,70,2|0,0:0|0:0,0:0:0:0:
75,143,21011,2,0,P|96:170|123:194,1,70,0|0,0:0|0:0,0:0:0:0:
405,118,21611,6,0,P|349:103|305:103,2,70,2|0|0,0:0|0:0|0:0,0:0:0:0:
279,153,22511,1,0,0:0:0:0:
279,153,22661,1,0,0:0:0:0:
279,153,22811,2,0,P|285:180|293:208,2,35,2|0|0,0:0|0:0|0:0,0:0:0:0:
420,193,23411,2,0,P|398:220|372:243,1,70,0|0,0:0|0:0,0:0:0:0:
264,372,24011,6,0,P|256:290|259:239,1,105,2|0,0:0|0:0,0:0:0:0:
256,267,24611,2,0,P|212:255|182:249,1,70,0|0,0:0|0:0,0:0:0:0:
131,296,25211,1,2,0:0:0:0:
131,296,25511,1,0,0:0:0:0:
75,143,25811,1,0,0:0:0:0:
75,143,26111,1,0,0:0:0:0:
6,176,26411,5,2,0:0:0:0:
217,103,26711,1,0,0:0:0:0:
217,103,26861,1,0,0:0:0:0:
217,103,27011,2,0,P|230:166|231:202,1,70,0|0,0:0|0:0,0:0:0:0:
389,148,27611,2,0,P|376:85|375:49,1,70,2|0,0:0|0:0,0:0:0:0:
295,73,28211,2,0,B|316:149|294:112|313:188,1,105,0|0,0:0|0:0,0:0:0:0:
310,176,28811,6,0,L|309:263,1,70,2|0,0:0|0:0,0:0:0:0:
488,361,29411,2,0,L|488:291,1,70,0|0,0:0|0:0,0:0:0:0:
244,307,30011,1,2,0:0:0:0:
318,331,30311,1,0,0:0:0:0:
391,305,30611,1,0,0:0:0:0:
157,180,31211,5,2,0:0:0:0:
157,180,31361,2,0,P|98:189|52:206,1,105,0|0,0:0|0:0,0:0:0:0:
12,268,32111,1,0,0:0:0:0:
12,268,32261,1,0,0:0:0:0:
12,268,32411,1,2,0:0:0:0:
75,314,32711,2,0,L|64:354,2,35,0|0|0,0:0|0:0|0:0,0:0:0:0:
236,208,33611,5,2,0:0:0:0:
226,132,33911,1,0,0:0:0:0:
226,132,34061,1,0,0:0:0:0:
226,132,34211,1,0,0:0:0:0:
319,173,34511,2,0,L|331:96,1,70,0|2,0:0|0:0,0:0:0:0:
349,99,34961,2,0,L|361:22,1,70,0|0,0:0|0:0,0:0:0:0:
375,22,35411,1,0,0:0:0:0:
492,151,35711,6,0,L|445:158,1,35,0|0,0:0|0:0,0:0:0:0:
387,167,36011,1,2,0:0:0:0:
387,167,36161,2,0,P|357:209|349:258,1,70,0|0,0:0|0:0,0:0:0:0:
226,132,36611,1,0,0:0:0:0:
226,132,36761,2,0,P|256:90|264:41,1,70,0|0,0:0|0:0,0:0:0:0:
239,238,37211,5,2,0:0:0:0:
239,238,37361,2,0,L|145:254,1,70,0|0,0:0|0:0,0:0:0:0:
37,198,37811,2,0,L|107:210,1,70,0|0,0:0|0:0,0:0:0:0:
165,147,38411,6,0,B|189:44|156:100|179:-1,4,140,2|2|2|2|2,0:0|0:0|0:0|0:0|0:0,0:0:0:0:
256,192,41411,5,2,0:0:0:0:
256,192,42011,1,2,0:0:0:0:
74,226,42161,5,2,0:1:0:0:
184,163,42311,5,2,0:1:0:0:
108,136,42461,5,2,0:1:0:0:
182,107,42611,5,2,0:1:0:0:
154,81,42761,5,4,3:0:0:0:
177,68,42911,5,4,3:0:0:0:
158,51,43061,5,8,3:0:0:0:
52,40,43211,5,4,1:0:0:0:
120,40,43511,1,8,0:1:0:0:
188,40,43811,1,8,0:1:0:0:
256,40,44111,1,8,0:1:0:0:
324,40,44411,1,8,0:1:0:0:
392,40,44711,1,10,0:0:0:0:
460,40,45011,1,8,0:1:0:0:
361,192,45311,5,10,0:0:0:0:
486,193,45461,5,8,0:1:0:0:
473,60,45611,5,8,0:1:0:0:
405,60,45911,1,8,0:1:0:0:
337,60,46211,1,8,0:1:0:0:
269,60,46511,1,8,0:1:0:0:
201,60,46811,1,8,0:1:0:0:
133,60,47111,1,8,0:1:0:0:
65,60,47411,1,8,0:1:0:0:
194,211,47711,5,10,0:0:0:0:
69,212,47861,5,8,0:1:0:0:
71,78,48011,5,8,0:0:0:0:
139,78,48311,1,8,0:1:0:0:
207,78,48611,1,8,0:1:0:0:
275,78,48911,1,8,0:1:0:0:
343,78,49211,1,8,0:1:0:0:
411,78,49511,1,10,0:0:0:0:
479,78,49811,1,8,0:1:0:0:
351,229,50111,5,10,0:0:0:0:
476,230,50261,5,8,0:1:0:0:
467,93,50411,5,10,0:1:0:0:
399,93,50711,1,10,0:1:0:0:
331,93,51011,1,10,0:1:0:0:
263,93,51311,1,10,0:1:0:0:
195,93,51611,1,10,0:1:0:0:
127,93,51911,1,10,0:1:0:0:
59,93,52211,1,10,0:1:0:0:
175,233,52511,5,10,0:1:0:0:
56,240,52661,5,8,0:1:0:0:
271,203,52811,6,0,B|378:185|330:265|467:238,1,181.999991668702,12|8,1:1|0:1,0:0:0:0:
475,45,53261,2,0,P|389:101|422:178,1,181.999991668702,4|0,1:1|0:0,0:0:0:0:
293,367,53711,2,0,B|307:323|307:323|289:267,1,90.9999958343508,12|0,1:1|0:1,0:0:0:0:
166,94,54011,2,0,L|178:297,1,181.999991668702,12|8,1:1|0:1,0:0:0:0:
48,355,54461,2,0,B|21:271|21:271|71:174,1,181.999991668702,4|0,1:1|0:1,0:0:0:0:
176,275,54911,2,0,L|178:367,1,90.9999958343508,12|0,1:1|0:1,0:0:0:0:
418,144,55211,6,0,B|322:170|326:106|220:128,1,181.999991668702,12|8,1:1|0:1,0:0:0:0:
375,238,55661,2,0,P|442:256|462:359,1,181.999991668702,4|0,1:1|0:1,0:0:0:0:
308,287,56111,2,0,P|267:277|201:291,1,90.9999958343508,12|0,1:1|0:1,0:0:0:0:
279,200,56411,1,12,1:1:0:0:
287,365,56561,1,2,0:1:0:0:
287,365,56861,1,4,1:1:0:0:
147,285,57011,2,0,B|153:238|153:238|141:184,1,90.9999958343508,10|0,0:1|0:0,0:0:0:0:
44,197,57311,2,0,B|34:239|34:239|40:286,1,90.9999958343508,12|0,1:1|0:1,0:0:0:0:
216,164,57611,6,0,L|219:61,1,90.9999958343508,12|2,1:1|0:0,0:0:0:0:
223,30,57911,2,0,L|232:142,1,90.9999958343508,8|2,1:1|0:0,0:0:0:0:
313,208,58211,2,0,L|316:105,1,90.9999958343508,8|2,1:1|0:0,0:0:0:0:
320,74,58511,2,0,L|329:186,1,90.9999958343508,8|2,1:1|0:0,0:0:0:0:
40,286,58811,5,12,1:0:0:0:
39,193,58961,1,0,1:0:0:0:
226,297,59111,5,8,1:0:0:0:
122,343,59261,1,0,1:0:0:0:
147,143,59411,5,12,1:0:0:0:
233,190,59561,1,0,1:0:0:0:
141,242,59711,5,12,1:0:0:0:
141,242,59861,1,0,1:0:0:0:
64,90,60011,6,0,P|133:38|226:133,1,210.000008010865,4|4,1:0|0:3,0:0:0:0:
260,120,60386,1,4,3:0:0:0:
238,155,60461,1,4,3:0:0:0:
251,194,60536,1,4,3:0:0:0:
239,234,60611,2,0,P|315:296|363:261,1,157.500006008148,4|0,1:0|0:0,0:0:0:0:
380,204,60911,6,0,B|375:177|375:177|381:137,1,52.5,4|0,0:3|0:0,0:0:0:0:
378,152,62411,6,0,L|373:62,1,77.0000023498536,4|0,1:0|0:0,0:0:0:0:
378,152,62711,1,2,0:1:0:0:
432,27,62861,1,0,0:0:0:0:
264,217,63011,6,0,L|269:126,1,77.0000023498536,8|0,0:0|0:0,0:0:0:0:
264,216,63311,1,2,0:1:0:0:
210,91,63461,1,0,0:0:0:0:
361,245,63611,5,0,1:0:0:0:
378,351,63761,2,0,L|368:235,1,115.50000352478,2|0,0:1|0:0,0:0:0:0:
375,225,64061,1,2,0:1:0:0:
396,358,64211,1,8,0:0:0:0:
46,55,65111,6,0,P|85:50|134:56,1,77.0000023498536,2|0,0:1|0:0,0:0:0:0:
122,202,65411,2,0,P|83:205|45:200,1,77.0000023498536,8|0,0:0|0:0,0:0:0:0:
193,126,65711,2,0,L|320:131,1,115.50000352478,2|0,0:1|0:0,0:0:0:0:
335,133,66011,1,0,1:0:0:0:
174,105,66161,2,0,L|266:108,1,77.0000023498536,2|0,0:1|0:0,0:0:0:0:
411,108,66461,1,0,0:0:0:0:
411,108,66761,2,0,B|447:196|380:176|419:280,1,154.000004699707,2|2,0:0|0:0,0:0:0:0:
492,126,67211,6,0,B|501:87|501:87|487:36,1,77.0000023498536,4|0,1:0|0:0,0:0:0:0:
512,138,67511,1,2,0:1:0:0:
499,33,67661,1,0,0:0:0:0:
315,52,67811,6,0,B|306:91|306:91|320:142,1,77.0000023498536,8|0,0:0|0:0,0:0:0:0:
295,40,68111,1,2,0:1:0:0:
308,145,68261,1,0,0:0:0:0:
173,207,68411,5,0,1:0:0:0:
195,318,68561,2,0,L|196:184,1,115.50000352478,2|0,0:1|0:0,0:0:0:0:
218,205,68861,1,2,0:1:0:0:
195,349,69011,1,8,0:0:0:0:
481,68,69611,6,0,B|360:90|402:3|272:32,1,210.000008010865,0|0,1:0|0:0,0:0:0:0:
282,58,70061,2,0,B|401:80|358:-6|479:19,1,210.000008010865,2|0,0:0|0:0,0:0:0:0:
386,133,70511,2,0,B|377:184|377:184|392:239,1,105.000004005432,2|0,0:0|0:0,0:0:0:0:
460,175,70811,1,0,1:0:0:0:
304,182,70961,1,10,0:0:0:0:
391,313,71111,1,0,0:0:0:0:
391,313,71261,1,8,0:0:0:0:
391,235,71411,6,0,L|384:55,1,157.500006008148,10|0,0:0|0:0,0:0:0:0:
358,22,71711,6,0,B|352:52|352:52|360:84,1,52.5,2|0,0:0|0:0,0:0:0:0:
291,117,72011,6,0,P|295:154|290:210,1,77.0000023498536,4|0,1:0|0:0,0:0:0:0:
218,69,72311,1,2,0:1:0:0:
218,69,72461,1,0,0:0:0:0:
129,290,72611,6,0,P|125:253|131:199,1,77.0000023498536,8|0,0:0|0:0,0:0:0:0:
202,338,72911,1,2,0:1:0:0:
202,338,73061,1,0,0:0:0:0:
6,189,73211,5,0,1:0:0:0:
43,126,73361,2,0,L|50:266,1,115.50000352478,2|0,0:1|0:0,0:0:0:0:
50,272,73661,1,2,0:1:0:0:
41,93,73811,1,8,0:0:0:0:
438,210,74711,6,0,L|443:302,1,77.0000023498536,2|0,0:1|0:0,0:0:0:0:
252,239,75011,2,0,L|248:321,1,77.0000023498536,8|0,0:0|0:0,0:0:0:0:
60,234,75311,2,0,L|70:370,1,115.50000352478,2|0,0:1|0:0,0:0:0:0:
73,372,75611,1,0,1:0:0:0:
126,191,75761,2,0,B|164:196|164:196|207:188,1,77.0000023498536,2|0,0:1|0:0,0:0:0:0:
126,58,76061,1,0,0:0:0:0:
126,58,76361,2,0,P|177:49|230:138,1,154.000004699707,2|2,0:0|0:0,0:0:0:0:
362,225,76811,6,0,B|352:265|352:265|362:311,1,77.0000023498536,4|0,1:0|0:0,0:0:0:0:
391,161,77111,1,2,0:1:0:0:
460,145,77261,1,0,0:0:0:0:
244,273,77411,6,0,B|254:313|254:313|244:359,1,77.0000023498536,8|0,0:0|0:0,0:0:0:0:
215,209,77711,1,2,0:1:0:0:
146,193,77861,1,0,0:0:0:0:
387,77,78011,5,0,1:0:0:0:
179,82,78161,2,0,L|313:80,1,115.50000352478,2|0,0:1|0:0,0:0:0:0:
316,82,78461,1,2,0:1:0:0:
153,81,78611,1,8,0:0:0:0:
490,300,79211,6,0,P|395:244|349:342,1,210.000008010865,4|0,1:0|0:0,0:0:0:0:
344,306,79661,2,0,P|419:365|489:299,1,210.000008010865,2|0,0:0|0:0,0:0:0:0:
274,264,80111,1,2,0:0:0:0:
274,264,80261,2,0,B|282:210|282:210|268:160,1,105.000004005432,8|0,0:0|1:0,0:0:0:0:
267,90,80561,1,10,0:0:0:0:
153,205,80711,1,0,0:0:0:0:
277,350,80861,1,0,0:0:0:0:
388,203,81011,2,0,P|421:196|493:208,1,105.000004005432,8|0,0:0|0:0,0:0:0:0:
505,138,81311,1,8,0:0:0:0:
505,138,81461,1,8,0:0:0:0:
392,28,81611,5,4,1:0:0:0:
337,135,81761,1,0,0:0:0:0:
447,86,81911,1,0,0:0:0:0:
320,61,82061,1,0,0:0:0:0:
248,184,82211,5,8,0:0:0:0:
271,249,82361,1,0,0:0:0:0:
335,267,82511,1,0,0:0:0:0:
396,229,82661,1,0,0:0:0:0:
228,36,82811,6,0,L|152:46,1,70,2|0,1:0|0:0,0:0:0:0:
44,65,83111,6,0,L|101:108,1,70,2|0,0:1|0:0,0:0:0:0:
161,194,83411,6,0,L|190:110,1,70,10|0,0:1|0:0,0:0:0:0:
143,265,83711,1,2,0:1:0:0:
143,265,83861,1,0,0:0:0:0:
74,180,84011,5,0,1:0:0:0:
249,247,84161,1,0,0:0:0:0:
109,357,84311,1,0,0:0:0:0:
143,265,84461,1,0,0:0:0:0:
289,179,84611,5,8,0:0:0:0:
299,308,84761,1,0,0:0:0:0:
370,191,84911,5,0,0:0:0:0:
374,276,85061,1,0,0:0:0:0:
448,230,85211,5,0,1:0:0:0:
448,230,85361,2,0,P|446:280|448:310,1,70,2|0,0:1|0:0,0:0:0:0:
444,157,85661,1,0,0:0:0:0:
447,367,85811,1,10,0:1:0:0:
447,367,85961,1,0,0:0:0:0:
284,263,86111,6,0,P|285:290|284:324,1,52.5,2|0,0:1|0:0,0:0:0:0:
262,247,86411,6,0,P|263:287|260:324,1,70,0|0,1:0|0:0,0:0:0:0:
188,160,86711,1,0,0:0:0:0:
341,165,86861,1,0,0:0:0:0:
132,223,87011,5,8,0:0:0:0:
59,243,87161,1,0,0:0:0:0:
127,248,87311,1,0,0:0:0:0:
63,211,87461,1,0,0:0:0:0:
258,57,87611,6,0,L|261:133,1,70,2|0,1:0|0:0,0:0:0:0:
122,48,87911,6,0,L|185:19,1,70,2|0,0:1|0:0,0:0:0:0:
181,167,88211,6,0,L|115:123,1,70,10|0,0:1|0:0,0:0:0:0:
191,95,88511,1,2,0:1:0:0:
191,95,88661,1,0,0:0:0:0:
105,214,88811,5,0,1:0:0:0:
44,169,88961,1,0,0:0:0:0:
283,189,89111,5,0,0:0:0:0:
190,234,89261,1,0,0:0:0:0:
473,244,89411,5,8,0:0:0:0:
360,180,89561,1,0,0:0:0:0:
473,244,89711,1,0,0:0:0:0:
360,180,89861,1,0,0:0:0:0:
339,326,90011,5,0,1:0:0:0:
387,258,90161,1,2,0:1:0:0:
307,252,90311,1,0,0:0:0:0:
420,328,90461,1,0,0:0:0:0:
290,145,90611,5,10,0:1:0:0:
214,169,90761,1,0,0:0:0:0:
140,200,90911,2,0,L|148:284,1,70,2|0,0:1|0:0,0:0:0:0:
244,365,91211,5,4,1:0:0:0:
277,305,91361,1,0,0:0:0:0:
225,259,91511,1,2,0:0:0:0:
225,259,91661,1,0,0:0:0:0:
143,70,91811,5,10,0:0:0:0:
71,103,91961,1,0,0:0:0:0:
68,181,92111,1,2,0:0:0:0:
68,181,92261,1,0,0:0:0:0:
359,219,92411,6,0,B|364:183|364:183|356:142,1,70,2|0,1:2|0:0,0:0:0:0:
192,122,92711,6,0,B|185:155|185:155|190:191,1,70,2|0,0:1|0:0,0:0:0:0:
285,94,93011,6,0,L|280:16,1,70,10|0,0:0|0:0,0:0:0:0:
295,167,93311,1,2,0:1:0:0:
295,167,93461,1,0,0:0:0:0:
84,305,93611,5,2,1:2:0:0:
47,244,93761,1,0,0:0:0:0:
93,194,93911,1,2,0:0:0:0:
158,222,94061,1,0,0:0:0:0:
304,363,94211,5,10,0:0:0:0:
197,346,94361,1,0,0:0:0:0:
297,351,94511,1,2,0:0:0:0:
207,335,94661,1,0,0:0:0:0:
402,299,94811,5,2,1:2:0:0:
402,299,94961,2,0,L|397:220,1,70,2|0,0:1|0:0,0:0:0:0:
397,162,95261,1,0,0:0:0:0:
320,235,95411,1,8,0:0:0:0:
491,235,95561,1,0,0:0:0:0:
397,71,95711,6,0,B|370:76|370:76|337:71,1,52.5,2|0,0:1|0:0,0:0:0:0:
317,89,96011,5,2,1:2:0:0:
326,159,96161,1,0,0:0:0:0:
263,195,96311,1,2,0:0:0:0:
263,195,96461,1,0,0:0:0:0:
137,78,96611,5,10,0:0:0:0:
189,18,96761,1,0,0:0:0:0:
267,21,96911,1,2,0:0:0:0:
267,21,97061,1,0,0:0:0:0:
166,169,97211,6,0,L|89:163,1,70,2|0,1:2|0:0,0:0:0:0:
356,234,97511,6,0,L|433:228,1,70,2|0,0:1|0:0,0:0:0:0:
177,293,97811,5,10,0:0:0:0:
124,346,97961,1,0,0:0:0:0:
196,377,98111,1,2,0:1:0:0:
249,324,98261,1,0,0:0:0:0:
342,59,98411,6,0,P|249:97|274:205,1,210.000008010865,0|4,1:0|3:0,0:0:0:0:
290,187,98786,1,4,3:0:0:0:
318,201,98861,1,4,3:0:0:0:
347,189,98936,1,4,3:0:0:0:
378,191,99011,2,0,P|434:261|389:320,1,157.500006008148,8|0,0:0|0:0,0:0:0:0:
338,343,99311,6,0,B|340:280,1,52.5,4|0,3:0|0:0,0:0:0:0:
173,100,100811,5,4,1:0:0:0:
173,100,101261,1,8,0:0:0:0:
339,284,101411,1,2,1:2:0:0:
339,284,101711,1,10,0:0:0:0:
121,205,102011,5,2,1:2:0:0:
350,160,102161,1,0,0:0:0:0:
121,205,102311,1,2,0:0:0:0:
350,160,102461,1,8,0:0:0:0:
210,312,102611,5,2,1:2:0:0:
210,312,102911,1,8,0:0:0:0:
283,51,103211,5,2,1:2:0:0:
283,51,103661,1,8,0:0:0:0:
185,219,103811,1,2,1:2:0:0:
185,219,104111,1,10,0:0:0:0:
52,63,104411,5,2,1:2:0:0:
195,99,104561,1,0,0:0:0:0:
57,152,104711,1,0,0:0:0:0:
127,35,104861,1,8,0:0:0:0:
263,209,105011,5,0,1:0:0:0:
263,209,105311,1,10,0:0:0:0:
332,178,105461,1,0,0:0:0:0:
485,256,105611,5,2,1:2:0:0:
485,256,106061,1,8,0:0:0:0:
271,299,106211,1,2,1:2:0:0:
271,299,106511,1,10,0:0:0:0:
412,182,106811,5,2,1:2:0:0:
348,368,106961,1,0,0:0:0:0:
412,182,107111,1,0,0:0:0:0:
348,368,107261,1,8,0:0:0:0:
279,183,107411,5,2,1:2:0:0:
279,183,107711,1,8,0:0:0:0:
453,56,108011,5,2,1:2:0:0:
453,56,108461,1,8,0:0:0:0:
259,114,108611,1,2,1:2:0:0:
259,114,108911,1,10,0:0:0:0:
427,174,109211,5,2,1:2:0:0:
331,18,109361,1,0,0:0:0:0:
427,174,109511,1,0,0:0:0:0:
331,18,109661,1,8,0:0:0:0:
322,236,109811,5,0,1:0:0:0:
322,236,110111,1,8,0:0:0:0:
255,33,110411,6,0,L|255:72,1,35,4|0,1:0|0:0,0:0:0:0:
259,343,110711,1,8,0:1:0:0:
259,343,110861,1,8,0:0:0:0:
259,343,111311,2,0,L|259:304,1,35,10|0,0:0|0:0,0:0:0:0:
168,135,111611,5,2,1:2:0:0:
125,189,111761,1,0,0:0:0:0:
163,248,111911,2,0,L|165:197,1,35,2|8,0:0|0:0,0:0:0:0:
93,110,112211,5,2,1:2:0:0:
146,57,112361,1,0,0:0:0:0:
80,24,112511,1,8,0:0:0:0:
80,24,112661,1,8,0:1:0:0:
25,260,112811,6,0,L|70:258,1,35,2|0,1:2|0:0,0:0:0:0:
357,257,113111,1,8,0:1:0:0:
357,257,113261,1,8,0:0:0:0:
357,257,113711,2,0,L|312:260,1,35,10|0,0:0|0:0,0:0:0:0:
133,333,114011,5,2,1:2:0:0:
201,319,114161,1,0,0:0:0:0:
269,334,114311,2,0,P|303:342|323:354,1,35,8|8,0:1|0:0,0:0:0:0:
401,335,114611,5,0,1:0:0:0:
449,284,114761,1,0,0:0:0:0:
429,216,114911,1,10,0:0:0:0:
429,216,115061,1,0,0:0:0:0:
385,68,115211,6,0,L|376:101,1,35,2|0,1:2|0:0,0:0:0:0:
334,288,115511,1,8,0:1:0:0:
334,288,115661,1,8,0:0:0:0:
334,288,116111,2,0,L|343:255,1,35,10|0,0:0|0:0,0:0:0:0:
229,34,116411,6,0,P|238:57|242:100,2,52.5,2|0|8,1:2|0:0|0:0,0:0:0:0:
312,42,117011,1,2,1:2:0:0:
162,74,117311,1,8,0:0:0:0:
162,74,117461,1,8,0:1:0:0:
162,74,117611,6,0,L|151:117,1,35,2|0,1:2|0:0,0:0:0:0:
78,79,117911,2,0,L|67:122,1,35,2|8,0:0|0:0,0:0:0:0:
225,160,118361,2,0,L|214:203,1,35,2|10,0:0|0:0,0:0:0:0:
32,171,118811,5,2,0:0:0:0:
264,271,119111,2,0,L|253:314,1,35,2|8,0:0|0:0,0:0:0:0:
173,338,119411,5,8,0:3:0:0:
247,376,119561,1,8,3:0:0:0:
324,344,119711,1,8,3:0:0:0:
399,380,119861,1,4,0:3:0:0:
460,344,120011,5,4,1:0:0:0:
392,344,120311,1,8,0:1:0:0:
324,344,120611,1,8,0:1:0:0:
256,344,120911,1,8,0:1:0:0:
188,344,121211,1,8,0:1:0:0:
120,344,121511,1,10,0:0:0:0:
52,344,121811,1,8,0:1:0:0:
151,192,122111,5,10,0:0:0:0:
26,191,122261,5,8,0:1:0:0:
39,324,122411,5,8,0:1:0:0:
107,324,122711,1,8,0:1:0:0:
175,324,123011,1,8,0:1:0:0:
243,324,123311,1,8,0:1:0:0:
311,324,123611,1,8,0:1:0:0:
379,324,123911,1,0,0:0:0:0:
447,324,124211,1,8,0:1:0:0:
318,173,124511,5,10,0:0:0:0:
443,172,124661,5,8,0:1:0:0:
441,306,124811,5,8,0:1:0:0:
373,306,125111,1,8,0:1:0:0:
305,306,125411,1,8,0:1:0:0:
237,306,125711,1,8,0:1:0:0:
169,306,126011,1,8,0:1:0:0:
101,306,126311,1,10,0:0:0:0:
33,306,126611,1,8,0:1:0:0:
156,156,126911,5,10,0:0:0:0:
31,155,127061,5,8,0:1:0:0:
45,291,127211,5,10,0:1:0:0:
113,291,127511,1,10,0:1:0:0:
181,291,127811,1,10,0:1:0:0:
249,291,128111,1,10,0:1:0:0:
317,291,128411,1,10,0:1:0:0:
385,291,128711,1,2,0:1:0:0:
453,291,129011,1,10,0:1:0:0:
337,151,129311,5,10,0:1:0:0:
456,148,129461,5,0,0:1:0:0:
334,376,129611,6,0,B|341:307|341:307|385:283|385:283|396:194,1,181.999991668702,12|8,1:1|0:1,0:0:0:0:
161,153,130061,2,0,P|230:216|343:231,1,181.999991668702,4|0,1:1|0:0,0:0:0:0:
468,53,130511,2,0,B|482:97|482:97|468:139,1,90.9999958343508,12|0,1:1|0:1,0:0:0:0:
247,124,130811,2,0,P|277:35|318:102,1,181.999991668702,12|8,1:1|0:1,0:0:0:0:
233,258,131261,2,0,B|149:285|149:285|52:235,1,181.999991668702,4|0,1:1|0:1,0:0:0:0:
160,31,131711,2,0,P|154:82|158:121,1,90.9999958343508,12|0,1:1|0:1,0:0:0:0:
289,201,132011,6,0,B|385:175|381:239|487:217,1,181.999991668702,12|8,1:1|0:1,0:0:0:0:
321,376,132461,2,0,P|254:358|234:255,1,181.999991668702,4|0,1:1|0:1,0:0:0:0:
424,139,132911,2,0,P|465:149|531:135,1,90.9999958343508,12|0,1:1|0:1,0:0:0:0:
363,230,133211,1,12,1:1:0:0:
392,68,133361,1,2,0:1:0:0:
392,68,133661,1,4,1:1:0:0:
323,23,133811,2,0,B|317:70|317:70|329:124,1,90.9999958343508,10|0,0:1|0:0,0:0:0:0:
462,309,134111,2,0,B|472:267|472:267|466:220,1,90.9999958343508,12|0,1:1|0:1,0:0:0:0:
296,220,134411,6,0,L|293:323,1,90.9999958343508,12|2,1:1|0:0,0:0:0:0:
289,354,134711,2,0,L|280:242,1,90.9999958343508,8|2,1:1|0:0,0:0:0:0:
199,176,135011,2,0,L|196:279,1,90.9999958343508,8|2,1:1|0:0,0:0:0:0:
192,310,135311,2,0,L|183:198,1,90.9999958343508,8|2,1:1|0:0,0:0:0:0:
472,98,135611,5,12,1:0:0:0:
473,191,135761,1,0,1:0:0:0:
286,87,135911,5,8,1:0:0:0:
390,41,136061,1,0,1:0:0:0:
365,241,136211,5,12,1:0:0:0:
279,194,136361,1,0,1:0:0:0:
371,142,136511,5,12,1:0:0:0:
371,142,136661,1,0,1:0:0:0:
448,294,136811,6,0,P|379:346|286:251,1,210.000008010865,4|4,1:0|0:3,0:0:0:0:
252,264,137186,1,4,3:0:0:0:
274,229,137261,1,4,3:0:0:0:
261,190,137336,1,4,3:0:0:0:
273,150,137411,2,0,P|197:88|149:123,1,157.500006008148,4|0,1:0|0:0,0:0:0:0:
132,180,137711,6,0,B|137:207|137:207|131:247,1,52.5,4|0,0:3|0:0,0:0:0:0:
133,231,139211,6,0,L|81:240,1,41.9999987182618,4|0,1:0|0:0,0:0:0:0:
16,252,139661,1,4,1:3:0:0:
213,243,139961,2,0,L|242:236,1,20.9999993591309,0|4,0:0|1:3,0:0:0:0:
233,238,140561,6,0,L|213:243,2,20.9999993591309,0|4|0,0:0|1:3|0:0,0:0:0:0:
313,229,141011,1,8,0:0:0:0:
313,229,141311,1,0,0:0:0:0:
350,45,141611,6,0,L|402:54,1,41.9999987182618,4|0,1:0|0:0,0:0:0:0:
467,66,142061,1,4,1:3:0:0:
270,57,142361,2,0,L|241:50,1,20.9999993591309,0|4,0:0|1:3,0:0:0:0:
249,52,142811,2,0,P|243:79|243:97,1,41.9999987182618,0|4,0:0|1:3,0:0:0:0:
284,153,143261,1,0,0:0:0:0:
313,229,143411,5,8,0:0:0:0:
379,196,143561,1,2,0:0:0:0:
451,206,143711,2,0,L|459:228,1,20.9999993591309,2|2,0:0|0:0,0:0:0:0:
332,370,144011,6,0,L|335:310,1,41.9999987182618,4|0,1:0|0:0,0:0:0:0:
388,279,144461,1,4,1:3:0:0:
279,132,144761,2,0,L|287:166,1,20.9999993591309,0|4,0:0|1:3,0:0:0:0:
283,152,145361,2,0,L|279:132,2,20.9999993591309,0|4|0,0:0|1:3|0:0,0:0:0:0:
231,213,145811,1,8,0:0:0:0:
231,213,146111,1,0,0:0:0:0:
91,238,146411,6,0,L|88:178,1,41.9999987182618,4|0,1:0|0:0,0:0:0:0:
35,147,146861,1,4,1:3:0:0:
144,0,147161,2,0,L|136:34,1,20.9999993591309,0|4,0:0|1:3,0:0:0:0:
112,90,147411,1,2,0:0:0:0:
112,90,147511,1,2,0:0:0:0:
112,90,147611,6,0,P|162:94|257:111,2,93.3333333333333,2|2|2,0:1|0:1|0:1,0:0:0:0:
375,86,148211,2,0,P|324:81|230:65,2,93.3333333333333,10|0|0,0:1|0:0|0:0,0:0:0:0:
438,30,148811,6,0,P|476:125|480:216,1,181.999991668702,4|2,1:0|0:1,0:0:0:0:
238,154,149261,2,0,P|262:101|298:58,1,90.9999958343508,4|8,1:3|0:0,0:0:0:0:
431,265,149561,1,2,0:1:0:0:
366,226,149711,2,0,B|239:206|319:257|163:225,1,181.999991668702,4|0,1:3|0:0,0:0:0:0:
145,322,150161,1,2,0:1:0:0:
186,229,150311,2,0,P|162:282|126:325,1,90.9999958343508,4|2,1:3|0:1,0:0:0:0:
17,276,150611,1,8,0:0:0:0:
17,276,150911,1,2,0:0:0:0:
17,276,151211,6,0,B|91:329|91:329|192:319,1,181.999991668702,4|2,1:0|0:1,0:0:0:0:
143,56,151661,2,0,L|157:160,1,90.9999958343508,4|8,1:3|0:0,0:0:0:0:
368,257,151961,1,2,0:1:0:0:
350,184,152111,2,0,B|259:175|259:175|185:228,1,181.999991668702,4|2,1:3|0:1,0:0:0:0:
185,228,152711,2,0,L|157:22,1,181.999991668702,4|8,1:3|1:0,0:0:0:0:
143,56,153161,5,2,0:3:0:0:
314,35,153311,1,2,0:0:0:0:
485,17,153461,1,2,0:3:0:0:
470,95,153611,6,0,P|366:82|274:32,1,181.999991668702,4|2,1:0|0:1,0:0:0:0:
143,56,154061,2,0,P|183:67|241:113,1,90.9999958343508,4|8,1:3|0:0,0:0:0:0:
352,182,154361,1,2,0:1:0:0:
292,132,154511,2,0,P|277:158|277:165,8,22.7499989585877,4|0|0|0|0|0|0|0|0,1:3|0:0|0:0|0:0|0:0|0:0|0:0|0:0|0:0,0:0:0:0:
291,230,154961,1,2,0:1:0:0:
364,267,155111,2,0,P|404:256|462:210,1,90.9999958343508,4|2,1:3|0:1,0:0:0:0:
296,308,155411,1,8,1:0:0:0:
296,308,155711,1,2,0:0:0:0:
296,308,156011,6,0,L|286:176,1,90.9999958343508,4|0,1:0|0:0,0:0:0:0:
187,174,156311,1,2,0:1:0:0:
158,58,156461,6,0,L|165:149,1,90.9999958343508,4|8,1:3|0:0,0:0:0:0:
73,192,156761,1,2,0:1:0:0:
108,272,156911,2,0,L|102:212,2,60.6666638895672,2|0|0,1:2|0:0|0:0,0:0:0:0:
13,131,157211,6,0,P|61:112|114:113,2,105,2|0|0,0:1|0:0|0:0,0:0:0:0:
183,58,157811,2,0,P|198:103|195:167,1,90.9999958343508,8|8,0:3|0:3,0:0:0:0:
7,246,158111,1,4,3:0:0:0:
7,246,158261,1,4,0:3:0:0:
120,356,158411,5,4,1:0:0:0:
175,249,158561,1,0,0:0:0:0:
65,298,158711,1,0,0:0:0:0:
192,323,158861,1,0,0:0:0:0:
238,189,159011,5,8,0:0:0:0:
215,124,159161,1,0,0:0:0:0:
151,106,159311,1,0,0:0:0:0:
90,144,159461,1,0,0:0:0:0:
279,349,159611,6,0,L|348:339,1,70,2|0,1:0|0:0,0:0:0:0:
469,322,159911,6,0,L|413:279,1,70,2|0,0:1|0:0,0:0:0:0:
347,191,160211,6,0,L|324:257,1,70,10|0,0:1|0:0,0:0:0:0:
369,119,160511,1,2,0:1:0:0:
369,119,160661,1,0,0:0:0:0:
438,204,160811,5,0,1:0:0:0:
263,137,160961,1,0,0:0:0:0:
403,27,161111,1,0,0:0:0:0:
369,119,161261,1,0,0:0:0:0:
223,205,161411,5,8,0:0:0:0:
213,76,161561,1,0,0:0:0:0:
142,193,161711,5,0,0:0:0:0:
138,108,161861,1,0,0:0:0:0:
64,154,162011,5,0,1:0:0:0:
64,154,162161,2,0,P|66:104|64:74,1,70,2|0,0:1|0:0,0:0:0:0:
68,227,162461,1,0,0:0:0:0:
65,17,162611,1,10,0:1:0:0:
65,17,162761,1,0,0:0:0:0:
228,121,162911,6,0,P|227:94|228:60,1,52.5,2|0,0:1|0:0,0:0:0:0:
250,137,163211,6,0,P|249:97|252:60,1,70,0|0,1:0|0:0,0:0:0:0:
324,224,163511,1,0,0:0:0:0:
171,219,163661,1,0,0:0:0:0:
380,161,163811,5,8,0:0:0:0:
453,141,163961,1,0,0:0:0:0:
385,136,164111,1,0,0:0:0:0:
449,173,164261,1,0,0:0:0:0:
254,327,164411,6,0,L|251:251,1,70,2|0,1:0|0:0,0:0:0:0:
390,336,164711,6,0,L|327:365,1,70,2|0,0:1|0:0,0:0:0:0:
335,211,165011,6,0,L|401:255,1,70,10|0,0:1|0:0,0:0:0:0:
321,289,165311,1,2,0:1:0:0:
321,289,165461,1,0,0:0:0:0:
407,166,165611,5,0,1:0:0:0:
468,211,165761,1,0,0:0:0:0:
229,189,165911,5,0,0:0:0:0:
322,144,166061,1,0,0:0:0:0:
39,140,166211,5,8,0:0:0:0:
152,204,166361,1,0,0:0:0:0:
39,140,166511,1,0,0:0:0:0:
152,204,166661,1,0,0:0:0:0:
173,58,166811,5,0,1:0:0:0:
125,126,166961,1,2,0:0:0:0:
205,132,167111,1,0,0:0:0:0:
92,56,167261,1,0,0:0:0:0:
222,239,167411,5,10,0:0:0:0:
298,215,167561,1,0,0:0:0:0:
372,187,167711,2,0,L|364:103,1,70,2|0,0:0|0:0,0:0:0:0:
271,17,168011,5,4,1:0:0:0:
231,75,168161,1,0,0:0:0:0:
287,125,168311,1,2,0:0:0:0:
287,125,168461,1,0,0:0:0:0:
370,322,168611,5,10,0:0:0:0:
446,282,168761,1,0,0:0:0:0:
449,199,168911,1,0,0:0:0:0:
449,199,169061,1,2,0:0:0:0:
153,165,169211,6,0,B|148:201|148:201|156:242,1,70,2|0,1:2|0:0,0:0:0:0:
320,262,169511,6,0,B|327:229|327:229|322:193,1,70,2|0,0:1|0:0,0:0:0:0:
240,288,169811,6,0,L|245:366,1,70,10|0,0:0|0:0,0:0:0:0:
230,215,170111,1,2,0:1:0:0:
230,215,170261,1,0,0:0:0:0:
428,79,170411,5,2,1:2:0:0:
465,140,170561,1,0,0:0:0:0:
419,190,170711,1,2,0:0:0:0:
354,162,170861,1,0,0:0:0:0:
208,21,171011,5,10,0:0:0:0:
315,38,171161,1,0,0:0:0:0:
213,38,171311,1,2,0:0:0:0:
304,54,171461,1,0,0:0:0:0:
110,85,171611,5,2,1:2:0:0:
110,85,171761,2,0,L|115:164,1,70,2|0,0:1|0:0,0:0:0:0:
115,228,172061,1,0,0:0:0:0:
195,148,172211,1,10,0:0:0:0:
24,165,172361,1,0,0:0:0:0:
115,313,172511,6,0,B|142:308|142:308|175:313,1,52.5,2|0,0:1|0:0,0:0:0:0:
195,295,172811,5,2,1:2:0:0:
186,225,172961,1,0,0:0:0:0:
249,189,173111,1,2,0:0:0:0:
249,189,173261,1,0,0:0:0:0:
375,306,173411,5,10,0:0:0:0:
323,366,173561,1,0,0:0:0:0:
245,363,173711,1,2,0:0:0:0:
245,363,173861,1,0,0:0:0:0:
346,215,174011,6,0,L|423:221,1,70,2|0,1:2|0:0,0:0:0:0:
156,150,174311,6,0,L|79:156,1,70,2|0,0:1|0:0,0:0:0:0:
335,91,174611,5,10,0:0:0:0:
388,38,174761,1,0,0:0:0:0:
316,7,174911,1,2,0:1:0:0:
263,60,175061,1,0,0:0:0:0:
170,325,175211,6,0,P|263:287|238:179,1,210.000008010865,0|4,1:0|3:0,0:0:0:0:
222,197,175586,1,4,3:0:0:0:
194,183,175661,1,4,3:0:0:0:
165,195,175736,1,4,3:0:0:0:
134,193,175811,2,0,P|78:123|123:64,1,157.500006008148,8|0,0:0|0:0,0:0:0:0:
174,41,176111,6,0,B|172:104,1,52.5,4|0,3:0|0:0,0:0:0:0:
172,93,176411,5,0,0:0:0:0:
250,101,176561,2,0,P|290:102|332:110,1,70,0|0,0:0|0:0,0:0:0:0:
392,79,177011,2,0,P|395:106|405:161,2,70,0|0|2,0:0|0:0|0:0,0:0:0:0:
256,192,177761,12,2,184811,0:0:0:0:
