osu file format v14

[General]
AudioFilename: audio.mp3
AudioLeadIn: 0
PreviewTime: 52773
Countdown: 0
SampleSet: Soft
StackLeniency: 0.4
Mode: 0
LetterboxInBreaks: 0
WidescreenStoryboard: 1

[Editor]
Bookmarks: 43211,120011
DistanceSpacing: 1.3
BeatDivisor: 8
GridSize: 4
TimelineZoom: 2

[Metadata]
Title:Indoor Kei Nara Trackmaker (curryrice Remix)
TitleUnicode:インドア系ならトラックメイカー (curryrice Remix)
Artist:Yunomi & nicamoq
ArtistUnicode:ゆのみ & にかもきゅ
Creator:toybot
Version:hard
Source:
Tags:future bass neilperry jounzan evilelvis sing japanese novelty
BeatmapID:1936116
BeatmapSetID:926885

[Difficulty]
HPDrainRate:5
CircleSize:4
OverallDifficulty:6
ApproachRate:7.5
SliderMultiplier:2.1
SliderTickRate:1

[Events]
//Background and Video events
0,0,"yunomi bg.jpg",0,0
//Break Periods
//Storyboard Layer 0 (Background)
//Storyboard Layer 1 (Fail)
//Storyboard Layer 2 (Pass)
//Storyboard Layer 3 (Foreground)
//Storyboard Sound Samples

[TimingPoints]
11,600,4,2,1,15,1,0
11,-200,4,2,1,15,0,0
2261,-200,4,2,1,5,0,0
2411,-200,4,2,1,15,0,0
3461,-200,4,2,1,5,0,0
3611,-200,4,2,1,20,0,0
4661,-200,4,2,1,5,0,0
4811,-200,4,2,1,25,0,0
5861,-200,4,2,1,5,0,0
6011,-200,4,2,1,30,0,0
7061,-200,4,2,1,5,0,0
7211,-200,4,2,1,35,0,0
8261,-200,4,2,1,5,0,0
8411,-200,4,2,1,40,0,0
9461,-200,4,2,1,5,0,0
9611,-200,4,2,1,45,0,0
10661,-200,4,2,1,5,0,0
10811,-200,4,2,1,50,0,0
11861,-200,4,2,1,5,0,0
12011,-200,4,2,1,55,0,0
13061,-200,4,2,1,5,0,0
13211,-200,4,2,1,60,0,0
14261,-200,4,2,1,5,0,0
14411,-200,4,2,1,65,0,0
15461,-200,4,2,1,5,0,0
15611,-200,4,2,1,70,0,0
16661,-200,4,2,1,5,0,0
16811,-200,4,2,1,75,0,0
17861,-200,4,2,1,5,0,0
18011,-200,4,2,1,80,0,0
19061,-200,4,2,1,5,0,0
19211,-200,4,2,1,50,0,0
19511,-133.333333333333,4,2,1,50,0,0
25736,-133.333333333333,4,2,1,5,0,0
25811,-133.333333333333,4,2,1,50,0,0
28136,-133.333333333333,4,2,1,5,0,0
28211,-133.333333333333,4,2,1,50,0,0
43211,-100,4,2,1,55,0,0
50711,-90.9090909090909,4,2,1,60,0,0
51011,-83.3333333333333,4,2,1,70,0,0
51311,-76.9230769230769,4,2,1,80,0,0
51761,-76.9230769230769,4,2,1,90,0,0
52211,-76.9230769230769,4,2,1,100,0,0
52811,-83.3333333333333,4,2,1,70,0,0
60011,-83.3333333333333,4,2,1,60,0,0
60311,-83.3333333333333,4,2,1,40,0,0
60611,-83.3333333333333,4,2,1,60,0,0
60911,-83.3333333333333,4,2,1,40,0,0
61811,-111.111111111111,4,2,1,40,0,0
62411,-71.4285714285714,4,2,1,80,0,1
64511,-133.333333333333,4,2,1,20,0,0
65111,-71.4285714285714,4,2,1,80,0,1
66161,-71.4285714285714,4,2,1,60,0,1
66611,-71.4285714285714,4,2,1,80,0,1
69311,-133.333333333333,4,2,1,20,0,0
69611,-83.3333333333333,4,2,1,80,0,1
71711,-83.3333333333333,4,2,1,20,0,1
72011,-71.4285714285714,4,2,1,80,0,1
74111,-133.333333333333,4,2,1,20,0,0
74711,-71.4285714285714,4,2,1,80,0,1
75761,-71.4285714285714,4,2,1,60,0,1
76211,-71.4285714285714,4,2,1,80,0,1
78911,-133.333333333333,4,2,1,20,0,0
79211,-83.3333333333333,4,2,1,80,0,1
81611,-133.333333333333,4,2,1,50,0,0
98411,-100,4,2,1,50,0,0
99611,-100,4,2,1,40,0,0
100811,-100,4,2,2,50,0,0
120011,-100,4,2,1,55,0,0
127511,-90.9090909090909,4,2,1,60,0,0
127811,-83.3333333333333,4,2,1,70,0,0
128111,-76.9230769230769,4,2,1,80,0,0
128561,-76.9230769230769,4,2,1,90,0,0
129011,-76.9230769230769,4,2,1,100,0,0
129611,-83.3333333333333,4,2,1,70,0,0
136811,-83.3333333333333,4,2,1,60,0,0
137111,-83.3333333333333,4,2,1,40,0,0
137411,-83.3333333333333,4,2,1,60,0,0
137711,-83.3333333333333,4,2,1,40,0,0
138611,-111.111111111111,4,2,1,40,0,0
139211,-200,4,2,1,80,0,1
147311,-133.333333333333,4,2,1,80,0,1
147611,-100,4,2,1,80,0,1
148211,-100,4,2,1,80,0,0
148811,-76.9230769230769,4,2,1,80,0,1
157811,-100,4,2,1,80,0,1
158411,-133.333333333333,4,2,1,50,0,0
175211,-100,4,2,1,40,0,0
175811,-133.333333333333,4,2,1,30,0,0
177011,-200,4,2,1,30,0,0

[Colours]
Combo1 : 128,255,255
Combo2 : 0,128,0
Combo3 : 0,255,128
Combo4 : 0,128,192

[HitObjects]
286,59,11,6,0,P|181:65|78:47,1,210,2|2,0:0|0:0,0:0:0:0:
96,70,2411,2,0,P|28:142|67:234,1,210,2|2,0:0|0:0,0:0:0:0:
50,255,4811,2,0,B|105:268|138:241|106:191|169:172|198:192|223:201|221:236,1,210,2|2,0:0|0:0,0:0:0:0:
203,242,7211,5,2,0:0:0:0:
209,320,8411,1,2,0:0:0:0:
457,351,9611,6,0,P|448:251|461:140,1,210,2|2,0:0|0:0,0:0:0:0:
441,163,12011,2,0,P|375:89|283:127,1,210,2|2,0:0|0:0,0:0:0:0:
262,118,14411,2,0,B|260:167|321:177|348:148|349:107|353:69|303:41,1,210,2|2,0:0|0:0,0:0:0:0:
286,59,16811,5,2,0:0:0:0:
208,53,18011,1,2,0:0:0:0:
130,47,19211,1,2,0:0:0:0:
81,179,19511,6,0,P|78:139|69:101,2,78.7500030040742,0|0|0,0:0|0:0|0:0,0:0:0:0:
136,278,20411,2,0,P|137:252|140:238,2,39.3750015020371,2|0|0,0:0|0:0|0:0,0:0:0:0:
101,360,21011,1,0,0:0:0:0:
101,360,21311,1,0,0:0:0:0:
239,291,21611,6,0,P|243:311|245:330,1,39.3750015020371,2|0,0:0|0:0,0:0:0:0:
320,349,21911,2,0,P|320:309|325:270,1,78.7500030040742,0|0,0:0|0:0,0:0:0:0:
247,105,22511,2,0,P|248:126|252:147,1,39.3750015020371,0|0,0:0|0:0,0:0:0:0:
320,178,22811,2,0,L|368:169,1,39.3750015020371,2|0,0:0|0:0,0:0:0:0:
431,144,23111,5,0,0:0:0:0:
425,223,23411,1,0,0:0:0:0:
420,303,23711,1,0,0:0:0:0:
312,347,24011,5,2,0:0:0:0:
312,347,24161,2,0,P|275:332|236:327,1,78.7500030040742,0|0,0:0|0:0,0:0:0:0:
159,339,24611,2,0,P|140:345|120:347,2,39.3750015020371,0|0|0,0:0|0:0|0:0,0:0:0:0:
218,229,25211,5,2,0:0:0:0:
197,132,25511,1,0,0:0:0:0:
98,121,25811,1,0,0:0:0:0:
58,213,26111,1,0,0:0:0:0:
131,279,26411,6,0,P|171:279|209:287,1,78.7500030040742,2|0,0:0|0:0,0:0:0:0:
285,269,26861,2,0,L|289:313,2,39.3750015020371,0|0|0,0:0|0:0|0:0,0:0:0:0:
360,273,27311,1,0,0:0:0:0:
232,210,27611,5,2,0:0:0:0:
209,93,27911,1,0,0:0:0:0:
327,74,28211,1,0,0:0:0:0:
350,191,28511,2,0,L|341:231,1,39.3750015020371,0|0,0:0|0:0,0:0:0:0:
367,257,28811,6,0,P|405:247|444:246,1,78.7500030040742,2|0,0:0|0:0,0:0:0:0:
313,325,29411,2,0,P|274:334|235:335,1,78.7500030040742,0|0,0:0|0:0,0:0:0:0:
174,293,29861,1,0,0:0:0:0:
225,236,30011,2,0,L|231:144,2,78.7500030040742,2|0|0,0:0|0:0|0:0,0:0:0:0:
46,126,31211,5,2,0:0:0:0:
73,145,31361,2,0,P|112:145|147:128,1,78.7500030040742,0|0,0:0|0:0,0:0:0:0:
195,65,31811,2,0,P|182:32|151:49,1,78.7500030040742,0|0,0:0|0:0,0:0:0:0:
227,141,32261,1,0,0:0:0:0:
297,107,32411,6,0,L|343:97,1,39.3750015020371,2|0,0:0|0:0,0:0:0:0:
437,148,32711,2,0,L|391:138,1,39.3750015020371,0|0,0:0|0:0,0:0:0:0:
403,62,33011,1,0,0:0:0:0:
337,229,33611,6,0,P|341:269|347:308,1,78.7500030040742,2|0,0:0|0:0,0:0:0:0:
283,351,34061,1,0,0:0:0:0:
215,308,34211,2,0,P|176:307|138:299,1,78.7500030040742,0|0,0:0|0:0,0:0:0:0:
80,245,34661,1,0,0:0:0:0:
191,198,34811,5,2,0:0:0:0:
118,172,34961,2,0,P|114:133|127:96,1,78.7500030040742,0|0,0:0|0:0,0:0:0:0:
207,90,35411,2,0,P|210:51|197:14,1,78.7500030040742,0|0,0:0|0:0,0:0:0:0:
197,14,35861,1,0,0:0:0:0:
288,37,36011,6,0,L|333:31,1,39.3750015020371,2|0,0:0|0:0,0:0:0:0:
400,145,36461,1,0,0:0:0:0:
326,170,36611,6,0,L|281:164,1,39.3750015020371,0|0,0:0|0:0,0:0:0:0:
254,290,37061,1,0,0:0:0:0:
289,301,37211,6,0,L|334:295,1,39.3750015020371,2|0,0:0|0:0,0:0:0:0:
435,208,37661,1,0,0:0:0:0:
488,265,37811,5,0,0:0:0:0:
357,224,38111,1,0,0:0:0:0:
457,132,38411,1,2,0:0:0:0:
256,192,38486,12,2,40811,0:0:0:0:
110,63,41411,5,2,0:0:0:0:
110,63,42011,1,2,0:0:0:0:
177,100,42161,6,0,L|216:93,1,39.3750015020371,2|2,0:1|0:1,0:0:0:0:
284,122,42461,2,0,L|245:115,1,39.3750015020371,2|2,0:1|0:1,0:0:0:0:
198,178,42761,5,4,3:0:0:0:
251,251,42911,1,4,3:0:0:0:
222,338,43061,1,8,3:0:0:0:
222,338,43211,6,0,L|162:347,1,52.5,4|0,1:0|0:1,0:0:0:0:
100,311,43511,2,0,L|91:251,1,52.5,8|0,0:1|0:1,0:0:0:0:
207,204,43811,2,0,L|147:213,1,52.5,8|0,0:1|0:1,0:0:0:0:
85,177,44111,2,0,L|76:117,1,52.5,8|0,0:1|0:1,0:0:0:0:
112,47,44411,5,8,0:1:0:0:
1,169,44711,1,10,0:0:0:0:
189,230,45011,2,0,P|200:181|183:122,1,105,8|10,0:1|0:0,0:0:0:0:
262,91,45461,1,8,0:1:0:0:
348,149,45611,6,0,L|402:158,1,52.5,8|0,0:1|0:0,0:0:0:0:
444,268,45911,2,0,L|452:216,1,52.5,8|0,0:1|0:1,0:0:0:0:
265,214,46211,2,0,L|319:223,1,52.5,8|0,0:1|0:1,0:0:0:0:
361,333,46511,2,0,L|369:281,1,52.5,8|0,0:1|0:1,0:0:0:0:
277,306,46811,5,8,0:1:0:0:
209,349,46961,2,0,P|164:324|112:323,1,105,2|0,0:0|0:1,0:0:0:0:
50,276,47411,2,0,P|101:275|147:249,1,105,8|10,0:1|0:0,0:0:0:0:
99,179,47861,1,8,0:1:0:0:
161,119,48011,6,0,L|152:58,1,52.5,8|0,0:0|0:0,0:0:0:0:
242,125,48311,2,0,L|233:64,1,52.5,8|0,0:1|0:1,0:0:0:0:
330,201,48611,2,0,L|339:140,1,52.5,8|0,0:1|0:0,0:0:0:0:
249,207,48911,2,0,L|258:146,1,52.5,8|0,0:1|0:1,0:0:0:0:
314,73,49211,5,8,0:1:0:0:
333,280,49511,1,10,0:0:0:0:
427,167,49811,1,8,0:1:0:0:
220,186,50111,1,10,0:0:0:0:
220,186,50261,1,8,0:1:0:0:
180,255,50411,6,0,P|204:264|231:263,1,52.5,10|0,0:1|0:1,0:0:0:0:
175,114,50711,2,0,P|152:132|140:157,1,57.7500017623902,10|0,0:1|0:1,0:0:0:0:
302,187,51011,2,0,P|298:155|282:129,1,62.9999980773926,10|0,0:1|0:1,0:0:0:0:
173,257,51311,2,0,P|207:270|241:268,1,68.2499968757631,10|0,0:1|0:0,0:0:0:0:
382,216,51611,5,10,0:1:0:0:
454,246,51761,2,0,P|393:246|332:295,1,136.499993751526,0|0,0:1|0:1,0:0:0:0:
277,356,52211,2,0,B|258:284|309:300|284:214,1,136.499993751526,10|10,0:1|0:1,0:0:0:0:
94,136,52811,6,0,P|155:132|198:175,1,125.999996154785,12|8,1:1|0:1,0:0:0:0:
205,255,53261,2,0,P|171:203|186:144,1,125.999996154785,4|0,1:1|0:0,0:0:0:0:
260,106,53711,2,0,P|292:107|323:103,1,62.9999980773926,12|0,1:1|0:1,0:0:0:0:
397,168,54011,6,0,B|356:167|323:149|323:149|292:174|307:189,1,125.999996154785,12|8,1:1|0:1,0:0:0:0:
452,238,54461,2,0,B|472:203|505:183|505:183|498:144|478:149,1,125.999996154785,4|0,1:1|0:1,0:0:0:0:
367,250,54911,2,0,L|377:321,1,62.9999980773926,12|0,1:1|0:1,0:0:0:0:
294,350,55211,6,0,B|263:323|263:323|227:339|172:345,1,125.999996154785,12|8,1:1|0:1,0:0:0:0:
97,354,55661,2,0,B|135:340|135:340|140:301|162:250,1,125.999996154785,4|0,1:1|0:1,0:0:0:0:
91,211,56111,2,0,L|85:140,1,62.9999980773926,12|0,1:1|0:1,0:0:0:0:
149,88,56411,5,12,1:1:0:0:
149,88,56561,2,0,P|210:89|253:45,1,125.999996154785,2|4,0:1|1:1,0:0:0:0:
323,92,57011,2,0,P|384:90|427:134,1,125.999996154785,10|12,0:1|1:1,0:0:0:0:
427,134,57611,6,0,P|423:161|418:204,1,62.9999980773926,12|2,1:1|0:0,0:0:0:0:
407,286,57911,2,0,P|403:254|398:223,1,62.9999980773926,8|2,1:1|0:0,0:0:0:0:
308,177,58211,2,0,P|304:204|299:247,1,62.9999980773926,8|2,1:1|0:0,0:0:0:0:
286,327,58511,2,0,P|282:295|277:264,1,62.9999980773926,8|2,1:1|0:0,0:0:0:0:
150,138,58811,5,12,1:0:0:0:
175,211,58961,1,0,1:0:0:0:
228,152,59111,2,0,P|260:156|291:159,1,62.9999980773926,8|0,1:0|1:0,0:0:0:0:
114,263,59411,2,0,P|82:266|51:270,1,62.9999980773926,12|0,1:0|1:0,0:0:0:0:
4,205,59711,1,12,1:0:0:0:
63,149,59861,1,0,1:0:0:0:
3,43,60011,6,0,P|65:54|128:52,1,125.999996154785,4|4,1:0|0:3,0:0:0:0:
127,52,60386,1,4,3:0:0:0:
127,52,60461,1,4,3:0:0:0:
208,112,60611,6,0,P|269:101|332:103,1,125.999996154785,4|4,1:0|0:3,0:0:0:0:
332,103,60986,1,4,3:0:0:0:
332,103,61061,1,4,3:0:0:0:
405,63,61211,6,0,L|411:-6,1,62.9999980773926,0|2,0:0|0:0,0:0:0:0:
407,165,61661,1,0,0:0:0:0:
407,165,61811,2,0,L|421:276,1,94.499997116089,2|0,0:0|0:0,0:0:0:0:
239,352,62411,6,0,P|192:300|118:310,1,146.999995513916,4|2,1:0|0:1,0:0:0:0:
45,264,62861,1,0,0:0:0:0:
145,211,63011,2,0,B|150:172|123:141|123:141|146:103|127:49,1,146.999995513916,8|2,0:0|0:1,0:0:0:0:
56,96,63461,1,0,0:0:0:0:
214,133,63611,5,0,1:0:0:0:
213,133,63761,2,0,L|286:123,1,73.4999977569581,2|0,0:1|0:0,0:0:0:0:
368,146,64061,1,2,0:1:0:0:
302,44,64211,1,8,0:0:0:0:
281,245,64511,6,0,L|323:250,3,39.3750015020371,2|2|2|2,0:0|0:0|0:0|0:0,0:0:0:0:
215,295,65111,6,0,P|187:273|151:266,1,73.4999977569581,2|0,0:1|0:0,0:0:0:0:
49,233,65411,2,0,P|87:214|109:184,1,73.4999977569581,8|0,0:0|0:0,0:0:0:0:
187,178,65711,2,0,L|176:92,1,73.4999977569581,2|0,0:1|0:0,0:0:0:0:
127,24,66011,5,0,1:0:0:0:
127,24,66161,2,0,P|163:59|268:43,1,146.999995513916,2|0,0:1|0:0,0:0:0:0:
272,136,66611,1,8,0:0:0:0:
363,175,66761,2,0,P|290:186|218:199,1,146.999995513916,2|2,0:0|0:0,0:0:0:0:
134,240,67211,6,0,P|204:235|245:292,1,146.999995513916,4|2,1:0|0:1,0:0:0:0:
324,329,67661,1,0,0:0:0:0:
400,249,67811,2,0,B|394:205|394:205|417:155|417:155|409:92,1,146.999995513916,8|2,0:0|0:1,0:0:0:0:
477,217,68261,1,0,0:0:0:0:
333,144,68411,5,0,1:0:0:0:
333,144,68561,2,0,L|254:135,1,73.4999977569581,2|0,0:1|0:0,0:0:0:0:
219,205,68861,1,2,0:1:0:0:
187,98,69011,1,8,0:0:0:0:
187,98,69311,6,0,L|194:59,1,39.3750015020371,2|2,0:0|0:0,0:0:0:0:
101,47,69611,6,0,L|116:186,1,125.999996154785,0|0,1:0|0:0,0:0:0:0:
26,102,70061,2,0,L|32:174,1,62.9999980773926,2|8,0:0|0:0,0:0:0:0:
70,238,70361,1,0,0:0:0:0:
0,283,70511,2,0,P|61:275|112:309,1,125.999996154785,2|0,0:0|1:0,0:0:0:0:
194,280,70961,5,10,0:0:0:0:
267,319,71111,2,0,P|280:286|282:241,1,62.9999980773926,0|8,0:0|0:0,0:0:0:0:
232,135,71411,2,0,P|254:162|292:186,1,62.9999980773926,10|0,0:0|0:0,0:0:0:0:
350,213,71711,2,0,P|384:181|430:182,1,94.499997116089,2|0,0:0|0:0,0:0:0:0:
455,205,72011,6,0,B|448:157|448:157|464:122|464:122|455:53,1,146.999995513916,4|2,1:0|0:1,0:0:0:0:
372,44,72461,1,0,0:0:0:0:
366,151,72611,2,0,P|292:153|220:141,1,146.999995513916,8|2,0:0|0:1,0:0:0:0:
144,105,73061,1,0,0:0:0:0:
153,196,73211,5,0,1:0:0:0:
153,196,73361,2,0,L|138:281,1,73.4999977569581,2|0,0:1|0:0,0:0:0:0:
100,341,73661,1,2,0:1:0:0:
210,311,73811,1,8,0:0:0:0:
392,359,74111,6,0,L|353:351,1,39.3750015020371,2|2,0:0|0:0,0:0:0:0:
304,289,74411,2,0,L|311:250,1,39.3750015020371,2|2,0:0|0:0,0:0:0:0:
383,215,74711,6,0,P|419:208|455:205,1,73.4999977569581,2|0,0:1|0:0,0:0:0:0:
510,144,75011,2,0,P|503:109|500:72,1,73.4999977569581,8|0,0:0|0:0,0:0:0:0:
425,40,75311,2,0,P|373:89|302:83,1,146.999995513916,2|0,0:1|1:0,0:0:0:0:
173,131,75761,6,0,L|246:146,1,73.4999977569581,2|0,0:1|0:0,0:0:0:0:
323,277,76061,2,0,L|305:206,1,73.4999977569581,0|8,0:0|0:0,0:0:0:0:
224,231,76361,2,0,B|174:241|174:241|147:269|147:269|77:282,1,146.999995513916,2|2,0:0|0:0,0:0:0:0:
15,192,76811,6,0,P|22:151|127:139,1,146.999995513916,4|2,1:0|0:1,0:0:0:0:
149,50,77261,1,0,0:0:0:0:
202,149,77411,2,0,B|295:116|295:116|270:150|276:190,1,146.999995513916,8|2,0:0|0:1,0:0:0:0:
354,176,77861,1,0,0:0:0:0:
324,38,78011,5,0,1:0:0:0:
324,38,78161,2,0,L|400:56,1,73.4999977569581,2|0,0:1|0:0,0:0:0:0:
479,38,78461,1,2,0:1:0:0:
466,188,78611,2,0,L|453:116,1,73.4999977569581,8|2,0:0|0:0,0:0:0:0:
393,221,78911,6,0,L|384:176,1,39.3750015020371,2|2,0:0|0:0,0:0:0:0:
348,300,79211,5,4,1:0:0:0:
186,258,79511,1,0,0:0:0:0:
254,212,79661,2,0,P|266:240|268:272,1,62.9999980773926,2|8,0:0|0:0,0:0:0:0:
107,232,79961,2,0,P|121:204|145:183,1,62.9999980773926,0|2,0:0|0:0,0:0:0:0:
120,103,80261,1,8,0:0:0:0:
218,139,80411,6,0,L|207:62,1,62.9999980773926,0|10,1:0|0:0,0:0:0:0:
285,29,80711,1,0,0:0:0:0:
272,201,81011,1,8,0:0:0:0:
259,373,81311,1,8,0:0:0:0:
337,347,81461,1,8,0:0:0:0:
276,294,81611,6,0,L|236:289,3,39.3750015020371,4|0|0|0,1:0|0:0|0:0|0:0,0:0:0:0:
164,331,82211,1,8,0:0:0:0:
164,331,82361,1,0,0:0:0:0:
164,331,82511,2,0,L|155:285,1,39.3750015020371,0|0,0:0|0:0,0:0:0:0:
101,228,82811,5,2,1:0:0:0:
125,52,83111,1,2,0:1:0:0:
101,228,83411,1,10,0:1:0:0:
125,52,83711,1,2,0:1:0:0:
282,118,84011,6,0,L|329:110,1,39.3750015020371,0|0,1:0|0:0,0:0:0:0:
398,90,84311,2,0,P|398:128|388:171,1,78.7500030040742,0|8,0:0|0:0,0:0:0:0:
313,198,84761,1,0,0:0:0:0:
377,250,84911,2,0,L|386:302,1,39.3750015020371,0|0,0:0|0:0,0:0:0:0:
268,274,85211,5,0,1:0:0:0:
268,274,85361,2,0,B|232:290|232:290|181:280,1,78.7500030040742,2|0,0:1|0:0,0:0:0:0:
118,308,85811,1,10,0:1:0:0:
58,143,86111,2,0,P|84:141|109:136,1,52.5000020027161,2|0,0:1|0:0,0:0:0:0:
147,152,86411,6,0,L|152:109,3,39.3750015020371,0|0|0|0,1:0|0:0|0:0|0:0,0:0:0:0:
260,109,87011,2,0,L|229:86,1,39.3750015020371,8|0,0:0|0:0,0:0:0:0:
212,201,87311,2,0,L|249:186,1,39.3750015020371,0|0,0:0|0:0,0:0:0:0:
342,97,87611,5,2,1:0:0:0:
358,287,87911,1,2,0:1:0:0:
342,97,88211,2,0,L|339:136,1,39.3750015020371,10|0,0:1|0:0,0:0:0:0:
358,287,88511,2,0,L|347:243,1,39.3750015020371,2|0,0:1|0:0,0:0:0:0:
484,148,88811,6,0,P|461:147|445:142,1,39.3750015020371,0|0,1:0|0:0,0:0:0:0:
432,223,89111,2,0,P|451:225|471:230,1,39.3750015020371,0|0,0:0|0:0,0:0:0:0:
357,197,89411,2,0,P|319:208|280:207,1,78.7500030040742,8|0,0:0|0:0,0:0:0:0:
112,82,90011,5,0,1:0:0:0:
180,124,90161,2,0,P|142:112|103:113,1,78.7500030040742,2|0,0:1|0:0,0:0:0:0:
35,157,90611,1,10,0:1:0:0:
265,152,90911,2,0,L|261:110,1,39.3750015020371,2|0,0:1|0:0,0:0:0:0:
199,208,91211,6,0,P|192:227|193:246,3,39.3750015020371,4|0|2|0,1:0|0:0|0:0|0:0,0:0:0:0:
268,302,91811,1,10,0:0:0:0:
331,260,91961,1,0,0:0:0:0:
400,286,92111,2,0,P|407:305|406:324,1,39.3750015020371,2|0,0:0|0:0,0:0:0:0:
463,227,92411,5,2,1:2:0:0:
398,82,92711,2,0,P|370:72|340:71,1,59.0625022530557,2|0,0:1|0:0,0:0:0:0:
327,73,93011,2,0,P|308:77|291:86,1,39.3750015020371,10|0,0:0|0:0,0:0:0:0:
214,79,93311,2,0,P|194:81|175:76,1,39.3750015020371,2|0,0:1|0:0,0:0:0:0:
123,163,93611,6,0,P|140:155|160:153,1,39.3750015020371,2|0,1:2|0:0,0:0:0:0:
220,208,93911,2,0,P|208:245|209:284,1,78.7500030040742,2|10,0:0|0:0,0:0:0:0:
155,344,94361,1,0,0:0:0:0:
82,312,94511,2,0,P|62:310|45:300,1,39.3750015020371,2|0,0:0|0:0,0:0:0:0:
18,189,94811,5,2,1:2:0:0:
18,189,94961,2,0,P|56:195|83:167,1,78.7500030040742,2|0,0:1|0:0,0:0:0:0:
28,108,95411,1,8,0:0:0:0:
185,147,95711,2,0,L|179:88,1,52.5000020027161,2|0,0:1|0:0,0:0:0:0:
165,69,96011,6,0,P|182:76|202:75,3,39.3750015020371,2|0|2|0,1:2|0:0|0:0|0:0,0:0:0:0:
298,85,96611,2,0,P|282:96|273:114,1,39.3750015020371,10|0,0:0|0:0,0:0:0:0:
220,192,96911,2,0,P|217:172|206:156,1,39.3750015020371,2|0,0:0|0:0,0:0:0:0:
296,226,97211,6,0,P|282:253|280:282,1,59.0625022530557,2|0,1:2|0:0,0:0:0:0:
281,292,97511,2,0,P|289:311|302:325,1,39.3750015020371,2|0,0:1|0:0,0:0:0:0:
374,351,97811,2,0,L|418:343,2,39.3750015020371,10|0|2,0:0|0:0|0:1,0:0:0:0:
198,303,98411,6,0,P|145:301|87:289,1,105,0|4,1:0|3:0,0:0:0:0:
94,291,98786,1,4,3:0:0:0:
94,291,98861,1,4,3:0:0:0:
178,216,99011,6,0,P|125:214|67:202,1,105,8|4,0:0|3:0,0:0:0:0:
74,204,99386,1,4,3:0:0:0:
74,204,99461,1,4,3:0:0:0:
132,131,99611,6,0,L|120:67,1,52.5,0|2,0:0|0:0,0:0:0:0:
278,145,100061,1,0,0:0:0:0:
278,145,100211,2,0,L|300:34,1,105,2|0,0:0|0:0,0:0:0:0:
109,209,100811,6,0,P|116:234|119:260,1,52.5,4|0,1:0|0:0,0:0:0:0:
65,321,101111,1,2,0:0:0:0:
144,341,101261,1,8,0:0:0:0:
199,281,101411,2,0,P|249:271|294:296,1,105,2|10,1:2|0:0,0:0:0:0:
423,192,102011,6,0,P|377:216|327:207,1,105,2|2,1:2|0:0,0:0:0:0:
265,155,102461,1,8,0:0:0:0:
287,79,102611,5,2,1:2:0:0:
308,289,102911,1,8,0:0:0:0:
160,209,103211,6,0,P|108:198|56:195,1,105,2|2,1:2|0:0,0:0:0:0:
11,263,103661,1,8,0:0:0:0:
77,314,103811,2,0,L|128:304,1,52.5,2|0,1:2|0:0,0:0:0:0:
178,219,104111,2,0,L|168:168,1,52.5,10|0,0:0|0:0,0:0:0:0:
198,89,104411,5,2,1:2:0:0:
198,89,104561,2,0,P|172:82|147:85,2,52.5,0|0|8,0:0|0:0|0:0,0:0:0:0:
270,131,105011,1,0,1:0:0:0:
379,33,105311,2,0,P|361:62|365:96,1,70,10|2,0:0|0:0,0:0:0:0:
397,83,105611,6,0,L|391:199,1,105,2|2,1:2|0:0,0:0:0:0:
323,239,106061,1,8,0:0:0:0:
390,285,106211,2,0,P|347:256|296:262,1,105,2|10,1:2|0:0,0:0:0:0:
134,348,106811,5,2,1:2:0:0:
134,348,106961,2,0,P|184:354|227:325,1,105,0|8,0:0|0:0,0:0:0:0:
165,273,107411,5,2,1:2:0:0:
188,97,107711,2,0,L|192:158,1,52.5,8|0,0:0|0:0,0:0:0:0:
122,193,108011,6,0,P|96:185|70:182,1,52.5,2|0,1:2|0:0,0:0:0:0:
237,227,108311,2,0,P|262:234|288:237,1,52.5,2|8,0:0|0:0,0:0:0:0:
165,273,108611,2,0,P|153:311|168:383,1,105,2|10,1:2|0:0,0:0:0:0:
240,349,109061,1,0,0:0:0:0:
324,365,109211,6,0,P|325:338|317:314,1,52.5,2|0,1:2|0:0,0:0:0:0:
486,309,109511,2,0,P|468:290|460:265,1,52.5,0|8,0:0|0:0,0:0:0:0:
401,329,109811,2,0,L|363:212,1,105,0|8,1:0|0:0,0:0:0:0:
445,64,110411,5,4,1:0:0:0:
445,64,110711,2,0,L|387:55,1,52.5,8|8,0:1|0:0,0:0:0:0:
325,105,111011,2,0,P|322:130|331:154,1,52.5,8|0,1:0|0:0,0:0:0:0:
246,74,111311,2,0,P|248:48|239:24,1,52.5,10|0,0:0|0:0,0:0:0:0:
114,51,111611,5,2,1:2:0:0:
114,51,111761,1,0,0:0:0:0:
114,51,111911,2,0,L|186:66,1,52.5,2|8,0:0|0:0,0:0:0:0:
193,141,112211,2,0,P|154:174|103:174,1,105,2|8,1:2|0:0,0:0:0:0:
153,254,112661,1,8,0:1:0:0:
91,342,112811,6,0,P|88:315|81:290,1,52.5,2|0,1:2|0:0,0:0:0:0:
234,258,113111,2,0,P|236:284|243:309,1,52.5,8|8,0:1|0:0,0:0:0:0:
327,332,113411,1,2,1:2:0:0:
327,332,113561,1,0,0:0:0:0:
333,248,113711,1,10,0:0:0:0:
333,248,113861,1,0,0:0:0:0:
414,259,114011,6,0,L|470:252,1,52.5,2|0,1:2|0:0,0:0:0:0:
511,178,114311,2,0,L|458:171,1,52.5,8|8,0:1|0:0,0:0:0:0:
384,131,114611,1,0,1:0:0:0:
474,25,114911,2,0,B|443:40|443:40|401:30,1,70,10|2,0:0|0:0,0:0:0:0:
380,52,115211,6,0,P|325:38|253:45,1,105,2|8,1:2|0:1,0:0:0:0:
254,119,115661,1,8,0:0:0:0:
165,76,115811,2,0,P|172:101|174:127,1,52.5,2|0,1:2|0:0,0:0:0:0:
70,207,116111,2,0,P|87:187|100:164,1,52.5,10|0,0:0|0:0,0:0:0:0:
80,80,116411,6,0,P|44:96|5:96,2,78.75,2|10|8,1:2|0:0|0:0,0:0:0:0:
154,37,117011,2,0,B|214:24|193:65|277:45,1,105,2|8,1:2|0:0,0:0:0:0:
349,27,117461,1,8,0:1:0:0:
321,115,117611,5,2,1:2:0:0:
444,249,118061,1,8,0:0:0:0:
510,208,118211,2,0,L|400:226,1,105,2|10,0:0|0:0,0:0:0:0:
256,312,118811,1,0,0:0:0:0:
256,312,119111,2,0,L|320:324,1,52.5,0|8,0:0|0:0,0:0:0:0:
181,354,119411,5,8,0:3:0:0:
170,272,119561,1,8,3:0:0:0:
96,365,119711,1,8,3:0:0:0:
85,283,119861,1,4,0:3:0:0:
18,227,120011,6,0,P|22:203|27:171,1,52.5,4|0,1:0|0:1,0:0:0:0:
89,122,120311,2,0,P|115:129|141:131,1,52.5,8|0,0:1|0:0,0:0:0:0:
226,117,120611,2,0,P|222:93|217:61,1,52.5,8|0,0:1|0:0,0:0:0:0:
155,12,120911,2,0,P|129:18|103:20,1,52.5,8|0,0:1|0:0,0:0:0:0:
33,56,121211,5,8,0:1:0:0:
106,208,121511,1,10,0:0:0:0:
236,100,121811,2,0,P|282:76|334:80,1,105,8|10,0:1|0:0,0:0:0:0:
309,160,122261,1,8,0:1:0:0:
392,167,122411,6,0,P|386:193|386:219,1,52.5,8|0,0:1|0:0,0:0:0:0:
240,201,122711,2,0,P|254:223|263:247,1,52.5,8|0,0:1|0:0,0:0:0:0:
395,244,123011,2,0,P|404:268|419:291,1,52.5,8|0,0:1|0:0,0:0:0:0:
271,271,123311,2,0,P|271:297|266:323,1,52.5,8|0,0:1|0:0,0:0:0:0:
354,346,123611,5,8,0:1:0:0:
353,346,123762,2,0,P|394:315|445:322,1,105,2|0,0:0|0:0,0:0:0:0:
512,272,124211,2,0,P|518:221|488:179,1,105,8|10,0:1|0:0,0:0:0:0:
408,154,124661,1,8,0:1:0:0:
473,83,124811,6,0,P|447:79|421:73,1,52.5,8|0,0:1|0:0,0:0:0:0:
347,25,125111,2,0,P|343:51|337:76,1,52.5,8|0,0:1|0:0,0:0:0:0:
388,169,125411,2,0,P|362:165|336:159,1,52.5,8|0,0:1|0:0,0:0:0:0:
262,111,125711,2,0,P|258:137|252:162,1,52.5,8|0,0:1|0:0,0:0:0:0:
289,236,126011,5,8,0:1:0:0:
84,263,126311,1,10,0:0:0:0:
200,352,126611,1,8,0:1:0:0:
173,147,126911,1,10,0:0:0:0:
173,147,127061,1,8,0:1:0:0:
89,159,127211,6,0,P|94:134|95:108,1,52.5,10|0,0:1|0:1,0:0:0:0:
197,66,127511,2,0,P|222:86|247:98,1,57.7500017623902,10|0,0:1|0:1,0:0:0:0:
233,208,127811,2,0,P|203:219|175:234,1,62.9999980773926,10|0,0:1|0:1,0:0:0:0:
79,167,128111,2,0,P|84:133|86:99,1,68.2499968757631,10|0,0:1|0:0,0:0:0:0:
240,47,128411,5,10,0:1:0:0:
158,29,128561,2,0,B|162:75|162:75|183:106|183:106|192:168,1,136.499993751526,0|0,0:1|0:1,0:0:0:0:
142,228,129011,2,0,B|201:262|201:262|284:237,1,136.499993751526,10|10,0:1|0:1,0:0:0:0:
472,80,129611,6,0,P|409:76|317:65,1,125.999996154785,12|8,1:1|0:1,0:0:0:0:
235,157,130061,2,0,P|298:161|361:168,1,125.999996154785,4|0,1:1|0:0,0:0:0:0:
254,65,130511,2,0,P|222:65|168:57,1,62.9999980773926,12|0,1:1|0:1,0:0:0:0:
51,91,130811,6,0,B|33:133|33:133|38:177|61:195|96:193,1,125.999996154785,12|8,1:1|0:1,0:0:0:0:
235,157,131261,2,0,B|207:120|207:120|167:102|139:113|124:144,1,125.999996154785,4|0,1:1|0:1,0:0:0:0:
167,270,131711,2,0,P|169:238|158:209,1,62.9999980773926,12|0,1:1|0:1,0:0:0:0:
94,313,132011,6,0,P|155:306|201:347,1,125.999996154785,12|8,1:1|0:1,0:0:0:0:
288,348,132461,2,0,P|333:307|394:313,1,125.999996154785,4|0,1:1|0:1,0:0:0:0:
324,262,132911,2,0,P|328:231|315:202,1,62.9999980773926,12|0,1:1|0:1,0:0:0:0:
426,156,133211,5,12,1:1:0:0:
426,156,133361,2,0,B|377:147|377:147|355:129|355:129|292:117,1,125.999996154785,2|4,0:1|1:1,0:0:0:0:
195,72,133811,2,0,B|244:63|244:63|266:45|266:45|312:36,1,125.999996154785,10|12,0:1|1:1,0:0:0:0:
312,36,134411,6,0,L|384:49,1,62.9999980773926,12|2,1:1|0:0,0:0:0:0:
468,62,134711,2,0,L|396:75,1,62.9999980773926,8|2,1:1|0:0,0:0:0:0:
284,124,135011,2,0,L|356:137,1,62.9999980773926,8|2,1:1|0:0,0:0:0:0:
440,150,135311,2,0,L|368:163,1,62.9999980773926,8|2,1:1|0:0,0:0:0:0:
315,223,135611,5,12,1:0:0:0:
372,281,135761,1,0,1:0:0:0:
307,328,135911,2,0,P|275:327|250:310,1,62.9999980773926,8|0,1:0|1:0,0:0:0:0:
142,262,136211,2,0,P|167:244|198:244,1,62.9999980773926,12|0,1:0|1:0,0:0:0:0:
170,349,136511,1,12,1:0:0:0:
170,349,136661,1,0,1:0:0:0:
67,321,136811,6,0,P|53:261|62:199,1,125.999996154785,4|4,1:0|0:3,0:0:0:0:
62,198,137186,1,4,3:0:0:0:
62,198,137261,1,4,3:0:0:0:
158,226,137411,6,0,P|180:167|224:122,1,125.999996154785,4|4,1:0|0:3,0:0:0:0:
223,122,137786,1,4,3:0:0:0:
223,122,137861,1,4,3:0:0:0:
295,187,138011,6,0,P|324:175|355:176,1,62.9999980773926,0|2,0:0|0:0,0:0:0:0:
175,52,138461,1,0,0:0:0:0:
175,52,138611,2,0,P|128:53|84:35,1,94.499997116089,2|0,0:0|0:0,0:0:0:0:
256,21,139211,5,4,1:0:0:0:
254,151,139511,1,0,0:0:0:0:
254,151,139661,1,4,1:3:0:0:
252,281,139961,1,0,0:0:0:0:
252,281,140111,2,0,L|250:365,1,78.75,4|0,1:3|0:0,0:0:0:0:
329,339,140711,6,0,L|330:312,1,26.25,4|0,1:3|0:0,0:0:0:0:
171,311,141011,2,0,L|170:338,1,26.25,8|0,0:0|0:0,0:0:0:0:
252,281,141311,1,0,0:0:0:0:
124,193,141611,5,4,1:0:0:0:
300,169,141911,1,0,0:0:0:0:
300,169,142061,1,4,1:3:0:0:
476,145,142361,1,0,0:0:0:0:
476,145,142511,2,0,L|479:111,1,26.25,4|0,1:3|0:0,0:0:0:0:
414,32,142811,6,0,P|411:57|407:84,1,52.5,0|4,0:0|1:3,0:0:0:0:
216,182,143411,2,0,P|218:156|222:129,1,52.5,8|2,0:0|0:0,0:0:0:0:
152,92,143861,1,2,0:0:0:0:
92,148,144011,5,4,1:0:0:0:
249,280,144311,1,0,0:0:0:0:
249,280,144461,1,4,1:3:0:0:
56,349,144761,1,0,0:0:0:0:
56,349,144911,2,0,B|95:339|88:364|138:353,1,78.75,4|0,1:3|0:0,0:0:0:0:
113,250,145511,6,0,L|117:288,1,26.25,4|0,1:3|0:0,0:0:0:0:
157,181,145811,2,0,L|159:154,1,26.25,8|0,0:0|0:0,0:0:0:0:
101,99,146111,1,0,0:0:0:0:
267,24,146411,5,4,1:0:0:0:
157,181,146711,1,0,0:0:0:0:
157,181,146861,1,4,1:3:0:0:
347,197,147161,1,0,0:0:0:0:
347,197,147311,2,0,L|392:189,2,26.2500010013581,4|2|2,1:3|0:0|0:0,0:0:0:0:
266,229,147611,6,0,P|261:194|264:159,2,70,2|2|2,0:1|0:1|0:1,0:0:0:0:
203,283,148211,2,0,P|254:277|300:301,1,105,10|0,0:1|0:0,0:0:0:0:
482,209,148811,6,0,B|431:218|431:218|406:239|406:239|338:230,1,136.499993751526,4|2,1:0|0:1,0:0:0:0:
251,177,149261,2,0,B|302:168|302:168|327:147|327:147|395:156,1,136.499993751526,4|2,1:3|0:1,0:0:0:0:
453,107,149711,2,0,B|465:43|465:43|388:23,1,136.499993751526,4|0,1:3|0:0,0:0:0:0:
319,65,150161,5,2,0:1:0:0:
319,65,150311,2,0,L|236:72,1,68.2499968757631,4|2,1:3|0:1,0:0:0:0:
176,34,150611,1,8,0:0:0:0:
3,135,150911,1,2,0:0:0:0:
141,227,151211,6,0,B|176:240|176:240|152:174|152:174|161:129,1,136.499993751526,4|2,1:0|0:1,0:0:0:0:
252,269,151661,2,0,B|204:278|204:278|180:308|180:308|122:317,1,136.499993751526,4|2,1:3|0:1,0:0:0:0:
249,352,152111,2,0,L|319:364,1,68.2499968757631,4|0,1:3|0:0,0:0:0:0:
392,313,152411,6,0,B|376:269|376:269|380:253|380:253|368:240|368:240|379:167,2,136.499993751526,2|4|8,0:1|1:3|1:0,0:0:0:0:
388,83,153311,1,2,0:0:0:0:
388,83,153461,1,2,0:3:0:0:
317,128,153611,6,0,B|268:123|268:123|230:64|230:64|206:88,1,136.499993751526,4|2,1:0|0:1,0:0:0:0:
188,156,154061,2,0,B|203:178|203:178|189:258|189:258|206:288,1,136.499993751526,4|2,1:3|0:1,0:0:0:0:
115,199,154511,2,0,B|46:182|46:182|87:173|108:132,1,136.499993751526,4|0,1:3|0:0,0:0:0:0:
75,67,154961,5,2,0:1:0:0:
159,86,155111,2,0,P|159:52|151:19,1,68.2499968757631,4|2,1:3|0:1,0:0:0:0:
215,175,155411,2,0,P|163:133|99:146,1,136.499993751526,8|2,1:0|0:0,0:0:0:0:
308,97,156011,6,0,B|409:77|409:77|386:110,1,136.499993751526,4|2,1:0|0:1,0:0:0:0:
345,176,156461,2,0,B|360:207|360:207|341:288|341:288|321:261,1,136.499993751526,4|2,1:3|0:1,0:0:0:0:
226,221,156911,2,0,L|280:214,2,45.4999979171754,2|0|0,1:2|0:0|0:0,0:0:0:0:
150,275,157211,6,0,B|119:264|119:264|84:268,1,68.2499968757631,2|2,0:1|0:1,0:0:0:0:
41,196,157511,2,0,B|66:174|66:174|79:142,1,68.2499968757631,4|0,1:3|0:0,0:0:0:0:
157,95,157811,6,0,L|165:147,1,52.5,8|8,0:3|0:3,0:0:0:0:
235,65,158111,1,4,3:0:0:0:
249,150,158261,1,4,0:3:0:0:
319,93,158411,6,0,L|323:48,3,39.3750015020371,4|0|0|0,1:0|0:0|0:0|0:0,0:0:0:0:
439,94,159011,1,8,0:0:0:0:
439,94,159161,1,0,0:0:0:0:
439,94,159311,2,0,L|399:90,1,39.3750015020371,0|0,0:0|0:0,0:0:0:0:
366,165,159611,5,2,1:0:0:0:
405,334,159911,1,2,0:1:0:0:
366,165,160211,1,10,0:1:0:0:
405,334,160511,1,2,0:1:0:0:
266,219,160811,6,0,P|236:223|219:236,1,39.3750015020371,0|0,1:0|0:0,0:0:0:0:
163,284,161111,2,0,P|136:286|90:258,1,78.7500030040742,0|8,0:0|0:0,0:0:0:0:
139,189,161561,1,0,0:0:0:0:
64,147,161711,2,0,L|69:102,1,39.3750015020371,0|0,0:0|0:0,0:0:0:0:
152,26,162011,5,0,1:0:0:0:
152,26,162161,2,0,B|125:36|125:36|62:21,1,78.7500030040742,2|0,0:1|0:0,0:0:0:0:
3,55,162611,1,10,0:1:0:0:
189,110,162911,2,0,L|249:100,1,52.5000020027161,2|0,0:1|0:0,0:0:0:0:
274,79,163211,6,0,L|269:134,3,39.3750015020371,0|0|0|0,1:0|0:0|0:0|0:0,0:0:0:0:
303,229,163811,2,0,L|306:189,1,39.3750015020371,8|0,0:0|0:0,0:0:0:0:
359,87,164111,2,0,L|355:126,1,39.3750015020371,0|0,0:0|0:0,0:0:0:0:
409,190,164411,5,2,1:0:0:0:
195,230,164711,1,2,0:1:0:0:
409,190,165011,2,0,L|370:212,1,39.3750015020371,10|0,0:1|0:0,0:0:0:0:
195,230,165311,2,0,L|247:235,1,39.3750015020371,2|0,0:1|0:0,0:0:0:0:
318,270,165611,6,0,P|309:288|306:308,1,39.3750015020371,0|0,1:0|0:0,0:0:0:0:
296,179,165911,2,0,P|288:156|271:138,1,39.3750015020371,0|0,0:0|0:0,0:0:0:0:
387,320,166211,2,0,P|411:333|468:333,1,78.7500030040742,8|0,0:0|0:0,0:0:0:0:
234,233,166811,5,0,1:0:0:0:
206,310,166961,2,0,L|114:328,1,78.7500030040742,2|0,0:0|0:0,0:0:0:0:
56,299,167411,1,10,0:0:0:0:
176,124,167711,2,0,P|180:143|179:162,1,39.3750015020371,2|0,0:0|0:0,0:0:0:0:
102,233,168011,6,0,P|86:221|66:218,3,39.3750015020371,4|0|2|0,1:0|0:0|0:0|0:0,0:0:0:0:
163,293,168611,1,10,0:0:0:0:
220,238,168761,1,0,0:0:0:0:
281,286,168911,2,0,P|296:297|316:300,1,39.3750015020371,0|2,0:0|0:0,0:0:0:0:
326,223,169211,5,2,1:2:0:0:
244,93,169511,2,0,P|272:101|298:89,1,59.0625022530557,2|0,0:1|0:0,0:0:0:0:
308,78,169811,2,0,L|302:117,1,39.3750015020371,10|0,0:0|0:0,0:0:0:0:
356,173,170111,2,0,P|372:182|391:178,1,39.3750015020371,2|0,0:1|0:0,0:0:0:0:
448,117,170411,6,0,P|448:97|438:80,1,39.3750015020371,2|0,1:2|0:0,0:0:0:0:
436,247,170711,2,0,P|432:284|448:337,1,78.7500030040742,2|10,0:0|0:0,0:0:0:0:
511,280,171161,1,0,0:0:0:0:
364,341,171311,2,0,L|321:332,1,39.3750015020371,2|0,0:0|0:0,0:0:0:0:
186,239,171611,5,2,1:2:0:0:
186,239,171761,2,0,P|223:231|255:272,1,78.7500030040742,2|0,0:1|0:0,0:0:0:0:
201,319,172211,1,10,0:0:0:0:
315,171,172511,2,0,B|317:143|317:143|300:118,1,52.5000020027161,2|0,0:1|0:0,0:0:0:0:
274,96,172811,6,0,P|293:96|311:89,3,39.3750015020371,2|0|2|0,1:2|0:0|0:0|0:0,0:0:0:0:
159,177,173411,2,0,P|149:160|133:148,1,39.3750015020371,10|0,0:0|0:0,0:0:0:0:
276,241,173711,2,0,P|266:258|263:277,1,39.3750015020371,2|0,0:0|0:0,0:0:0:0:
238,166,174011,6,0,L|246:104,1,59.0625022530557,2|0,1:2|0:0,0:0:0:0:
256,97,174311,2,0,P|236:99|218:91,1,39.3750015020371,2|0,0:1|0:0,0:0:0:0:
160,40,174611,2,0,L|155:-9,1,39.3750015020371,10|0,0:0|0:0,0:0:0:0:
237,9,174911,1,2,0:1:0:0:
375,127,175211,6,0,P|365:179|355:230,1,105,0|4,1:0|3:0,0:0:0:0:
354,230,175586,1,4,3:0:0:0:
354,230,175661,1,4,3:0:0:0:
279,175,175811,6,0,P|272:214|265:253,1,78.7500030040742,8|4,0:0|3:0,0:0:0:0:
265,252,176186,1,4,3:0:0:0:
265,252,176261,1,4,3:0:0:0:
187,217,176411,5,0,0:0:0:0:
187,217,176561,2,0,B|154:236|154:236|102:218,1,78.7500030040742,0|0,0:0|0:0,0:0:0:0:
81,235,177011,2,0,P|86:209|90:179,2,52.5,0|0|2,0:0|0:0|0:0,0:0:0:0:
256,192,177911,12,2,184811,0:0:0:0:
