osu file format v14

[General]
AudioFilename: audio.mp3
AudioLeadIn: 0
PreviewTime: 0
Countdown: 0
SampleSet: Soft
StackLeniency: 0.4
Mode: 0
LetterboxInBreaks: 0
WidescreenStoryboard: 1

[Editor]
Bookmarks: 1846,16615,31384,46153,60923,75692,90461,105230
DistanceSpacing: 1.3
BeatDivisor: 4
GridSize: 8
TimelineZoom: 1.4

[Metadata]
Title:Honeyginger (feat. Kuishinboakachan & Azuki)
TitleUnicode:ハニージンジャー (feat. くいしんぼあかちゃん & あずき)
Artist:Yunomi & Nakanojojo
ArtistUnicode:Yunomi & 中野ジョジョ
Creator:Mentai
Version:Hard
Source:
Tags:Nifty, Enkrypton, Kyle Y, Ky,Kuishinbo, kiato, C. Yamashita, Isaisa, future, pop, jpop
BeatmapID:2051023
BeatmapSetID:980047

[Difficulty]
HPDrainRate:4
CircleSize:3.3
OverallDifficulty:5
ApproachRate:7.5
SliderMultiplier:1.9
SliderTickRate:1

[Events]
//Background and Video events
0,0,"honeyginger-osu-gamemix.jpg",0,0
//Break Periods
//Storyboard Layer 0 (Background)
//Storyboard Layer 1 (Fail)
//Storyboard Layer 2 (Pass)
//Storyboard Layer 3 (Foreground)
//Storyboard Sound Samples

[TimingPoints]
0,461.538461538462,4,2,1,75,1,0
1384,-100,4,2,2,75,0,0
1846,-117.647058823529,4,2,1,55,0,0
5076,-117.647058823529,4,2,2,55,0,0
5769,-117.647058823529,4,2,1,55,0,0
8769,-117.647058823529,4,2,2,55,0,0
9230,-117.647058823529,4,2,1,55,0,0
12461,-117.647058823529,4,2,2,55,0,0
13153,-117.647058823529,4,2,1,55,0,0
16153,-117.647058823529,4,2,2,55,0,0
16615,-117.647058823529,4,2,1,65,0,0
19846,-117.647058823529,4,2,2,65,0,0
20307,-117.647058823529,4,2,1,65,0,0
23538,-117.647058823529,4,2,2,65,0,0
24000,-117.647058823529,4,2,1,65,0,0
27230,-117.647058823529,4,2,2,65,0,0
27692,-117.647058823529,4,2,1,65,0,0
30923,-117.647058823529,4,2,2,65,0,0
31384,-133.333333333333,4,2,1,50,0,0
38769,-117.647058823529,4,2,1,50,0,0
45000,-117.647058823529,4,3,3,70,0,0
45692,-117.647058823529,4,2,3,60,0,0
46153,-105.263157894737,4,2,4,70,0,0
51692,-105.263157894737,4,2,1,70,0,0
53076,-105.263157894737,4,2,2,70,0,0
53192,-105.263157894737,4,2,3,70,0,0
53538,-105.263157894737,4,2,4,70,0,0
59076,-133.333333333334,4,2,4,70,0,0
59653,-133.333333333334,4,2,2,70,0,0
60461,-133.333333333334,4,2,3,70,0,0
60576,-133.333333333334,4,2,2,70,0,0
60923,-95.2380952380954,4,2,4,70,0,0
66461,-95.2380952380954,4,2,1,70,0,0
67846,-95.2380952380954,4,2,2,70,0,0
67961,-95.2380952380954,4,2,3,70,0,0
68307,-95.2380952380954,4,2,4,70,0,0
73615,-105.263157894737,4,2,1,70,0,0
74076,-105.263157894737,4,2,2,70,0,0
74307,-105.263157894737,4,2,4,70,0,0
74423,-105.263157894737,4,2,2,70,0,0
75230,-105.263157894737,4,2,3,70,0,0
75346,-105.263157894737,4,2,2,70,0,0
75692,-95.2380952380952,4,2,4,70,0,0
81230,-95.2380952380952,4,2,1,70,0,0
82615,-95.2380952380952,4,2,2,70,0,0
82730,-95.2380952380952,4,2,3,70,0,0
83076,-95.2380952380952,4,2,4,70,0,0
88384,-117.647058823529,4,2,1,55,0,0
89307,-117.647058823529,4,2,3,70,0,0
90000,-117.647058823529,4,2,3,60,0,0
90461,-90.9090909090909,4,2,1,80,0,1
97384,-90.9090909090909,4,2,2,80,0,1
97500,-90.9090909090909,4,2,3,80,0,1
97846,-90.9090909090909,4,2,1,80,0,1
104769,-90.9090909090909,4,2,2,80,0,1
104884,-90.9090909090909,4,2,3,80,0,1
105000,-90.9090909090909,4,2,3,80,0,0
106153,-90.9090909090909,4,2,1,60,0,0
112615,-90.9090909090909,4,2,1,5,0,0

[Colours]
Combo1 : 151,151,255
Combo2 : 255,255,83
Combo3 : 51,142,255
Combo4 : 255,85,255
Combo5 : 254,179,1

[HitObjects]
28,60,0,6,0,P|14:123|13:168,1,95,10|2,0:0|0:0,0:0:0:0:
24,295,461,1,10,0:0:0:0:
24,295,576,1,10,0:3:0:0:
155,239,807,2,0,P|218:248|259:271,1,95,10|0,0:3|0:3,0:0:0:0:
302,315,1153,2,0,L|367:305,1,47.5,2|2,0:3|0:0,0:0:0:0:
417,268,1384,2,0,P|444:228|447:218,2,47.5,10|0|10,0:0|0:3|0:3,0:0:0:0:
332,180,1846,6,0,B|274:156|275:195|190:179,1,121.125002310276,6|0,1:2|0:0,0:0:0:0:
149,139,2307,1,8,0:0:0:0:
232,51,2538,1,0,0:0:0:0:
349,72,2769,2,0,B|418:77|485:108|485:108|454:116|427:132,1,161.500003080368,2|10,1:2|0:0,0:0:0:0:
345,196,3461,6,0,P|358:251|387:300,1,80.750001540184,2|0,0:0|1:2,0:0:0:0:
467,363,3923,1,2,0:0:0:0:
347,377,4153,2,0,P|298:338|262:325,2,80.750001540184,8|0|0,0:0|0:0|1:2,0:0:0:0:
443,343,4846,5,2,0:0:0:0:
476,267,5076,1,10,0:0:0:0:
439,192,5307,2,0,P|403:144|373:120,1,80.750001540184,2|0,0:0|1:2,0:0:0:0:
219,136,5769,5,2,0:0:0:0:
150,236,6000,1,10,0:0:0:0:
31,259,6230,2,0,P|30:218|42:163,1,80.750001540184,2|0,0:0|1:2,0:0:0:0:
140,96,6692,1,0,0:0:0:0:
238,166,6923,1,8,0:0:0:0:
223,290,7153,6,0,P|289:332|398:333,1,161.500003080368,2|0,0:0|0:0,0:0:0:0:
464,233,7846,1,8,0:0:0:0:
470,117,8076,2,0,B|386:86|380:136|285:112,1,161.500003080368,2|0,0:0|0:0,0:0:0:0:
174,62,8769,1,10,0:0:0:0:
66,117,9000,2,0,P|70:144|82:174,1,40.375000770092,8|0,0:3|0:0,0:0:0:0:
147,175,9230,6,0,P|90:194|27:261,1,121.125002310276,6|0,1:2|0:0,0:0:0:0:
34,309,9692,1,8,0:0:0:0:
141,365,9923,1,0,0:0:0:0:
249,307,10153,2,0,B|290:299|312:311|312:311|333:287|395:285,1,121.125002310276,2|0,1:2|0:0,0:0:0:0:
439,270,10615,1,10,0:0:0:0:
492,161,10846,6,0,P|451:130|426:93,1,80.750001540184,2|0,0:0|1:2,0:0:0:0:
342,26,11307,2,0,P|299:72|279:113,1,80.750001540184,2|8,0:0|0:0,0:0:0:0:
268,206,11769,1,0,0:0:0:0:
268,206,12000,1,0,1:2:0:0:
163,261,12230,5,2,0:0:0:0:
85,277,12461,1,10,0:0:0:0:
68,199,12692,2,0,P|81:155|116:105,1,80.750001540184,2|0,0:0|1:2,0:0:0:0:
231,181,13153,5,2,0:0:0:0:
342,227,13384,1,10,0:0:0:0:
419,139,13615,2,0,P|423:60|410:12,1,80.750001540184,2|0,0:0|1:2,0:0:0:0:
301,64,14076,1,0,0:0:0:0:
247,172,14307,1,8,0:0:0:0:
334,255,14538,2,0,P|293:286|280:298,1,40.375000770092,0|0,0:0|0:0,0:0:0:0:
262,347,14769,6,0,P|217:319|172:311,1,80.750001540184,10|0,0:0|1:2,0:0:0:0:
74,276,15230,2,0,P|102:233|140:199,1,80.750001540184,10|0,0:0|1:2,0:0:0:0:
244,203,15692,1,10,0:0:0:0:
244,203,15923,1,0,1:2:0:0:
188,55,16153,1,10,0:0:0:0:
103,114,16384,1,8,0:3:0:0:
279,108,16615,6,0,B|314:99|314:99|431:122,1,121.125002310276,6|0,1:2|0:0,0:0:0:0:
460,166,17076,1,8,0:0:0:0:
486,284,17307,1,0,0:0:0:0:
389,356,17538,2,0,B|329:335|324:369|250:338,1,121.125002310276,2|0,1:2|0:0,0:0:0:0:
205,302,18000,1,10,0:0:0:0:
86,281,18230,6,0,L|90:393,1,80.750001540184,2|0,0:0|1:2,0:0:0:0:
205,302,18692,1,2,0:0:0:0:
135,202,18923,2,0,P|96:178|39:162,2,80.750001540184,8|0|0,0:0|0:0|1:2,0:0:0:0:
220,293,19615,5,2,0:0:0:0:
296,322,19846,1,10,0:0:0:0:
376,352,20076,2,0,L|479:342,1,80.750001540184,2|0,0:0|1:2,0:0:0:0:
480,224,20538,5,2,0:0:0:0:
361,250,20769,1,10,0:0:0:0:
242,223,21000,2,0,P|152:211|55:169,1,161.500003080368,2|2,0:0|0:0,0:0:0:0:
35,75,21692,1,10,0:0:0:0:
151,9,21923,6,0,P|179:122|264:102,1,161.500003080368,2|2,0:0|0:0,0:0:0:0:
307,63,22615,1,10,0:0:0:0:
428,57,22846,2,0,B|392:136|456:140|405:243,1,161.500003080368,2|2,0:0|0:0,0:0:0:0:
357,320,23538,1,10,0:0:0:0:
303,211,23769,2,0,P|288:172|282:145,1,40.375000770092,8|0,0:3|0:0,0:0:0:0:
316,102,24000,6,0,P|269:71|223:51,1,80.750001540184,6|2,1:2|0:0,0:0:0:0:
126,52,24461,1,10,0:0:0:0:
58,152,24692,2,0,B|78:178|105:196|105:196|83:245|73:335,1,161.500003080368,2|2,0:0|0:0,0:0:0:0:
172,367,25384,1,10,0:0:0:0:
257,280,25615,6,0,L|281:383,1,80.750001540184,2|0,0:0|1:2,0:0:0:0:
176,188,26076,2,0,L|152:291,1,80.750001540184,2|8,0:0|0:0,0:0:0:0:
50,324,26538,1,0,0:0:0:0:
50,324,26769,1,0,1:2:0:0:
2,225,27000,5,2,0:0:0:0:
69,171,27230,1,10,0:0:0:0:
49,91,27461,2,0,P|30:42|2:10,1,80.750001540184,2|0,0:0|1:2,0:0:0:0:
153,26,27923,5,2,0:0:0:0:
229,119,28153,1,10,0:0:0:0:
210,238,28384,2,0,P|265:292|390:326,1,161.500003080368,2|2,0:0|0:0,0:0:0:0:
463,318,29076,1,10,0:0:0:0:
413,207,29307,6,0,P|329:184|245:116,1,161.500003080368,2|2,0:0|0:0,0:0:0:0:
263,20,30000,1,10,0:0:0:0:
263,20,30230,1,10,0:0:0:0:
157,80,30461,2,0,P|130:124|114:194,1,80.750001540184,8|0,0:0|1:2,0:0:0:0:
133,272,30923,2,0,P|151:322|191:363,1,80.750001540184,8|0,0:0|1:2,0:0:0:0:
329,366,31384,6,0,L|499:362,2,142.500005435944,12|0|0,0:3|0:0|0:0,0:0:0:0:
140,340,32769,1,2,0:0:0:0:
98,265,33000,1,2,0:0:0:0:
125,184,33230,2,0,P|90:117|13:52,2,142.500005435944,0|8|0,0:0|0:3|0:0,0:0:0:0:
188,355,34615,1,2,0:0:0:0:
271,374,34846,1,2,0:0:0:0:
345,333,35076,6,0,P|395:312|438:303,1,71.2500027179719,0|2,0:0|0:0,0:0:0:0:
481,258,35538,2,0,P|436:223|385:125,1,142.500005435944,2|0,0:0|0:0,0:0:0:0:
226,10,36461,1,2,0:0:0:0:
260,88,36692,1,2,0:0:0:0:
189,136,36923,1,0,0:0:0:0:
189,136,37384,2,0,P|151:176|104:280,2,142.500005435944,10|2|2,0:3|0:0|0:0,0:0:0:0:
369,53,38769,6,0,L|408:238,1,161.500003080368,10|10,0:0|0:0,0:0:0:0:
260,343,39692,2,0,P|277:257|275:151,1,161.500003080368,10|10,0:0|0:0,0:0:0:0:
220,105,40384,1,10,0:0:0:0:
125,83,40615,6,0,P|89:126|50:257,1,161.500003080368,10|8,0:0|0:0,0:0:0:0:
180,369,41538,2,0,B|204:275|144:276|183:168,1,161.500003080368,10|10,0:0|0:0,0:0:0:0:
236,138,42230,1,10,0:0:0:0:
330,161,42461,6,0,L|440:176,1,80.750001540184,8|8,0:0|0:0,0:0:0:0:
484,257,42923,2,0,P|436:283|399:323,1,80.750001540184,10|8,0:0|0:0,0:0:0:0:
330,372,43384,1,10,0:0:0:0:
225,329,43615,1,10,0:0:0:0:
308,202,43846,1,10,0:0:0:0:
407,158,44076,1,10,0:0:0:0:
247,45,44307,5,0,1:2:0:0:
256,192,44423,12,8,45692,0:0:0:0:
456,57,46153,6,0,P|429:114|421:177,1,90.2499975900651,4|0,1:2|0:0,0:0:0:0:
451,254,46615,1,8,0:0:0:0:
364,333,46846,1,0,0:0:0:0:
210,158,47307,2,0,P|192:216|191:227,1,45.1249987950325,2|2,0:0|0:0,0:0:0:0:
176,278,47538,2,0,P|184:334|184:351,3,45.1249987950325,10|2|2|2,0:0|0:0|0:0|0:0,0:0:0:0:
125,374,48000,6,0,P|84:325|38:295,1,90.2499975900651,0|0,1:2|0:0,0:0:0:0:
19,200,48461,1,8,0:0:0:0:
109,124,48692,1,0,0:0:0:0:
239,318,49153,2,0,P|289:271|293:262,1,45.1249987950325,2|2,0:0|0:0,0:0:0:0:
345,252,49384,2,0,P|381:211|389:205,3,45.1249987950325,10|2|2|2,0:0|0:0|0:0|0:0,0:0:0:0:
415,147,49846,6,0,L|309:118,1,90.2499975900651,0|0,1:2|0:0,0:0:0:0:
213,97,50307,1,8,0:0:0:0:
114,160,50538,1,0,0:0:0:0:
245,354,51000,2,0,L|240:298,1,45.1249987950325,2|2,0:0|0:0,0:0:0:0:
204,240,51230,2,0,L|216:180,3,45.1249987950325,10|2|2|2,0:0|0:0|0:0|0:0,0:0:0:0:
193,118,51692,6,0,P|248:100|295:58,1,90.2499975900651,8|0,0:0|1:2,0:0:0:0:
374,20,52153,2,0,P|414:67|462:93,1,90.2499975900651,8|0,0:0|1:2,0:0:0:0:
452,172,52500,1,0,0:0:0:0:
452,172,52615,2,0,P|390:182|349:210,1,90.2499975900651,8|0,0:0|1:2,0:0:0:0:
305,292,53076,2,0,L|261:281,1,45.1249987950325,8|2,0:0|3:0,0:0:0:0:
182,294,53307,1,2,3:0:0:0:
161,275,53423,1,2,3:0:0:0:
141,257,53538,6,0,L|69:172,1,90.2499975900651,4|0,1:2|0:0,0:0:0:0:
81,70,54000,1,8,0:0:0:0:
185,122,54230,2,0,P|237:163|295:183,1,90.2499975900651,0|0,0:0|1:2,0:0:0:0:
337,85,54692,1,2,0:0:0:0:
452,59,54923,1,10,0:0:0:0:
473,78,55039,1,2,0:0:0:0:
493,96,55154,2,0,L|516:179,1,45.1249987950325,2|0,0:0|0:0,0:0:0:0:
486,216,55384,6,0,P|508:285|513:332,1,90.2499975900651,0|0,1:2|0:0,0:0:0:0:
394,282,55846,1,8,0:0:0:0:
332,182,56076,2,0,P|368:131|378:122,4,45.1249987950325,0|8|0|8|2,0:0|0:0|1:2|0:0|0:0,0:0:0:0:
285,73,56769,1,10,0:0:0:0:
262,90,56884,1,2,0:0:0:0:
239,108,57000,2,0,L|181:99,1,45.1249987950325,2|0,0:0|0:0,0:0:0:0:
108,119,57230,6,0,P|130:175|130:224,1,90.2499975900651,0|0,1:2|0:0,0:0:0:0:
54,293,57692,1,8,0:0:0:0:
131,381,57923,2,0,P|167:341|228:296,1,90.2499975900651,0|0,0:0|1:2,0:0:0:0:
308,347,58384,1,2,0:0:0:0:
419,309,58615,1,10,0:0:0:0:
434,288,58730,1,2,0:0:0:0:
450,267,58846,2,0,L|460:205,1,45.1249987950325,2|0,0:0|0:0,0:0:0:0:
472,146,59076,6,0,L|383:107,1,71.2500027179719,0|0,1:2|0:0,0:0:0:0:
337,55,59538,2,0,L|250:82,1,71.2500027179719,8|0,0:0|0:0,0:0:0:0:
92,134,60230,1,8,0:3:0:0:
268,76,60692,1,8,0:3:0:0:
235,227,60923,5,6,1:2:0:0:
328,137,61154,1,2,0:0:0:0:
455,162,61385,1,10,0:0:0:0:
512,283,61615,2,0,P|460:328|433:371,1,99.7499969558717,2|0,0:0|1:2,0:0:0:0:
273,363,62076,2,0,L|214:365,2,49.8749984779358,0|0|8,0:0|0:0|0:0,0:0:0:0:
180,270,62538,2,0,L|130:275,1,49.8749984779358,0|0,0:0|0:0,0:0:0:0:
54,295,62769,5,2,1:2:0:0:
12,172,63000,1,2,0:0:0:0:
108,86,63230,1,10,0:0:0:0:
221,148,63461,2,0,P|252:99|285:64,1,99.7499969558717,2|0,0:0|1:2,0:0:0:0:
407,40,63923,1,2,0:0:0:0:
496,133,64153,1,10,0:0:0:0:
490,162,64269,1,0,0:0:0:0:
483,191,64384,2,0,L|484:243,1,49.8749984779358,2|0,0:0|0:0,0:0:0:0:
505,317,64615,5,0,1:2:0:0:
381,355,64846,2,0,P|352:311|313:278,1,99.7499969558717,2|8,0:0|0:0,0:0:0:0:
254,166,65307,2,0,P|223:228|114:301,1,199.499993911743,2|2,0:0|0:0,0:0:0:0:
6,232,66000,1,10,0:0:0:0:
41,107,66230,1,2,0:0:0:0:
170,95,66461,6,0,P|224:74|273:71,1,99.7499969558717,8|0,0:0|1:2,0:0:0:0:
265,200,66923,2,0,P|319:221|368:224,1,99.7499969558717,8|0,0:0|1:2,0:0:0:0:
419,165,67269,1,0,0:0:0:0:
419,165,67384,2,0,L|431:58,1,99.7499969558717,8|0,0:0|1:2,0:0:0:0:
315,2,67846,2,0,P|261:31|254:34,1,49.8749984779358,8|2,0:0|3:0,0:0:0:0:
181,22,68076,1,2,3:0:0:0:
158,41,68192,1,2,3:0:0:0:
136,61,68307,5,6,1:2:0:0:
211,166,68538,1,2,0:0:0:0:
161,286,68769,1,10,0:0:0:0:
33,312,69000,2,0,P|32:245|49:199,1,99.7499969558717,2|0,0:0|1:2,0:0:0:0:
155,277,69461,2,0,L|148:332,2,49.8749984779358,0|0|8,0:0|0:0|0:0,0:0:0:0:
237,377,69923,2,0,P|257:335|278:311,1,49.8749984779358,0|0,0:0|0:0,0:0:0:0:
327,289,70153,5,2,1:2:0:0:
445,341,70384,1,2,0:0:0:0:
482,216,70615,1,10,0:0:0:0:
403,112,70846,1,2,0:0:0:0:
438,88,70961,2,0,P|386:58|333:48,1,99.7499969558717,8|8,0:0|0:0,0:0:0:0:
269,61,71307,1,2,0:0:0:0:
232,185,71538,1,10,0:0:0:0:
147,90,71769,1,2,0:0:0:0:
122,72,71884,1,0,0:0:0:0:
97,54,72000,5,0,1:2:0:0:
20,158,72230,2,0,P|48:202|61:259,1,99.7499969558717,2|10,0:0|0:0,0:0:0:0:
126,359,72692,2,0,P|144:326|197:266,1,99.7499969558717,2|0,0:0|1:2,0:0:0:0:
311,259,73153,1,2,0:0:0:0:
331,130,73384,1,10,0:0:0:0:
213,70,73615,6,0,P|257:34|377:21,1,180.49999518013,2|8,0:0|0:3,0:0:0:0:
479,76,74307,1,8,0:0:0:0:
411,172,74538,2,0,P|361:177|413:253,1,180.49999518013,0|8,0:0|0:3,0:0:0:0:
496,328,75230,1,8,0:0:0:0:
390,378,75461,1,8,0:3:0:0:
263,347,75692,6,0,P|192:323|154:325,1,99.7499969558717,6|2,1:2|0:0,0:0:0:0:
95,360,76038,1,0,0:0:0:0:
95,360,76153,1,10,0:0:0:0:
11,254,76384,2,0,P|47:191|71:166,1,99.7499969558717,2|0,0:0|1:2,0:0:0:0:
172,97,76846,2,0,L|178:161,1,49.8749984779358,0|0,0:0|0:0,0:0:0:0:
236,203,77076,1,8,0:0:0:0:
255,218,77192,1,0,0:0:0:0:
273,234,77307,2,0,L|298:192,1,49.8749984779358,0|0,0:0|0:0,0:0:0:0:
353,122,77538,6,0,P|395:159|439:176,1,99.7499969558717,2|2,1:2|0:0,0:0:0:0:
488,111,77884,1,0,0:0:0:0:
488,111,78000,1,10,0:0:0:0:
418,2,78230,2,0,L|296:-4,1,99.7499969558717,2|0,0:0|1:2,0:0:0:0:
216,78,78692,1,2,0:0:0:0:
272,194,78923,1,10,0:0:0:0:
258,214,79038,1,0,0:0:0:0:
243,234,79153,2,0,L|177:240,1,49.8749984779358,2|0,0:0|0:0,0:0:0:0:
122,290,79384,5,0,1:2:0:0:
3,236,79615,2,0,P|39:190|60:144,1,99.7499969558717,0|8,0:0|0:0,0:0:0:0:
87,26,80076,2,0,B|179:58|119:115|239:146,1,199.499993911743,2|2,0:0|0:0,0:0:0:0:
362,181,80769,1,10,0:0:0:0:
364,310,81000,1,2,0:0:0:0:
482,362,81230,6,0,L|499:260,1,99.7499969558717,8|0,0:0|1:2,0:0:0:0:
362,181,81692,2,0,L|379:283,1,99.7499969558717,8|0,0:0|1:2,0:0:0:0:
331,349,82038,1,0,0:0:0:0:
331,349,82153,2,0,P|237:313|226:313,1,99.7499969558717,8|0,0:0|1:2,0:0:0:0:
119,362,82615,1,8,0:0:0:0:
101,344,82730,1,2,3:0:0:0:
83,323,82846,2,0,L|74:269,1,49.8749984779358,2|2,3:0|3:0,0:0:0:0:
38,197,83076,6,0,P|105:182|149:162,1,99.7499969558717,6|2,1:2|0:0,0:0:0:0:
185,108,83423,1,0,0:0:0:0:
185,108,83538,1,10,0:0:0:0:
289,31,83769,2,0,P|327:84|335:134,1,99.7499969558717,2|0,0:0|1:2,0:0:0:0:
252,217,84230,2,0,P|231:242|213:267,1,49.8749984779358,0|0,0:0|0:0,0:0:0:0:
263,328,84461,1,8,0:0:0:0:
275,349,84576,1,0,0:0:0:0:
288,370,84692,2,0,P|328:345|344:341,1,49.8749984779358,0|0,0:0|0:0,0:0:0:0:
417,330,84923,6,0,P|391:229|391:225,1,99.7499969558717,2|2,1:2|0:0,0:0:0:0:
442,167,85269,1,0,0:0:0:0:
442,167,85384,1,10,0:0:0:0:
493,48,85615,1,2,0:0:0:0:
471,14,85730,2,0,L|373:69,1,99.7499969558717,8|8,0:0|0:0,0:0:0:0:
318,7,86076,1,2,0:0:0:0:
196,52,86307,1,10,0:0:0:0:
260,160,86538,1,2,0:0:0:0:
271,182,86653,1,0,0:0:0:0:
280,202,86769,5,0,1:2:0:0:
256,329,87000,2,0,P|207:342|148:376,1,99.7499969558717,2|10,0:0|0:0,0:0:0:0:
43,315,87461,2,0,P|71:259|100:222,1,99.7499969558717,2|0,0:0|1:2,0:0:0:0:
221,205,87923,1,2,0:0:0:0:
255,80,88153,1,10,0:0:0:0:
378,37,88384,6,0,L|444:225,2,161.500003080368,2|0|0,0:0|0:0|3:0,0:0:0:0:
167,31,89769,1,0,3:0:0:0:
92,93,90000,1,8,0:0:0:0:
107,188,90230,1,0,0:0:0:0:
179,317,90461,6,0,P|159:339|127:361,1,52.2500015945435,6|0,1:2|0:0,0:0:0:0:
60,346,90692,1,2,0:0:0:0:
10,219,90923,2,0,L|16:152,1,52.2500015945435,10|0,0:0|0:0,0:0:0:0:
42,90,91153,1,2,0:0:0:0:
159,20,91384,1,0,1:2:0:0:
181,37,91500,2,0,L|241:30,2,52.2500015945435,0|0|0,0:0|0:0|0:0,0:0:0:0:
156,117,91846,2,0,L|142:227,1,104.500003189087,8|0,0:0|0:0,0:0:0:0:
162,355,92307,6,0,P|212:322|219:320,1,52.2500015945435,2|0,1:2|0:0,0:0:0:0:
285,332,92538,1,2,0:0:0:0:
349,212,92769,2,0,P|399:245|406:247,1,52.2500015945435,10|0,0:0|0:0,0:0:0:0:
472,235,93000,1,2,0:0:0:0:
505,103,93230,1,0,1:2:0:0:
491,85,93346,2,0,P|513:33|516:29,2,52.2500015945435,8|0|0,0:0|0:0|0:0,0:0:0:0:
407,110,93692,2,0,P|342:86|304:80,1,104.500003189087,8|0,0:0|0:0,0:0:0:0:
179,126,94153,6,0,L|169:64,1,52.2500015945435,2|0,1:2|0:0,0:0:0:0:
127,4,94384,1,2,0:0:0:0:
55,119,94615,2,0,L|45:181,1,52.2500015945435,10|0,0:0|0:0,0:0:0:0:
3,241,94846,1,2,0:0:0:0:
113,318,95076,1,0,1:2:0:0:
128,307,95192,2,0,L|180:316,2,52.2500015945435,0|0|0,0:0|0:0|0:0,0:0:0:0:
124,224,95538,2,0,P|171:183|200:144,1,104.500003189087,8|0,0:0|0:0,0:0:0:0:
287,48,96000,6,0,P|372:119|386:124,1,104.500003189087,10|0,0:0|1:2,0:0:0:0:
485,178,96461,2,0,P|417:217|389:252,1,104.500003189087,8|0,0:0|1:2,0:0:0:0:
380,318,96807,1,0,0:0:0:0:
380,318,96923,2,0,L|275:293,1,104.500003189087,8|0,0:0|1:2,0:0:0:0:
151,341,97384,2,0,P|100:356|88:364,1,52.2500015945435,8|2,0:0|3:0,0:0:0:0:
7,364,97615,1,2,3:0:0:0:
2,338,97730,1,2,3:0:0:0:
1,311,97846,6,0,L|10:231,1,52.2500015945435,6|0,1:2|0:0,0:0:0:0:
2,179,98076,1,2,0:0:0:0:
100,85,98307,1,10,0:0:0:0:
100,85,98423,1,2,0:0:0:0:
206,169,98653,2,0,P|246:245|249:274,1,104.500003189087,2|0,0:0|0:0,0:0:0:0:
242,346,99000,2,0,L|296:334,1,52.2500015945435,0|0,0:0|0:0,0:0:0:0:
377,334,99230,2,0,P|402:337|439:347,2,52.2500015945435,8|0|0,0:0|0:0|0:0,0:0:0:0:
330,205,99692,6,0,P|367:142|372:138,1,52.2500015945435,2|0,1:2|0:0,0:0:0:0:
419,112,99923,1,2,0:0:0:0:
327,12,100153,1,10,0:0:0:0:
327,12,100269,1,2,0:0:0:0:
221,98,100500,2,0,L|128:46,1,104.500003189087,8|8,0:0|0:0,0:0:0:0:
62,2,100846,1,0,0:0:0:0:
27,132,101076,2,0,P|28:162|38:190,2,52.2500015945435,8|0|0,0:0|0:0|0:0,0:0:0:0:
161,98,101538,6,0,L|171:193,1,52.2500015945435,2|0,1:2|0:0,0:0:0:0:
141,228,101769,1,2,0:0:0:0:
211,344,102000,1,10,0:0:0:0:
211,344,102115,1,2,0:0:0:0:
345,323,102346,2,0,P|406:300|441:276,1,104.500003189087,2|0,0:0|0:0,0:0:0:0:
485,210,102692,2,0,L|489:141,1,52.2500015945435,0|0,0:0|0:0,0:0:0:0:
465,79,102923,2,0,P|425:38|417:26,2,52.2500015945435,8|0|0,0:0|0:0|0:0,0:0:0:0:
359,164,103384,6,0,P|305:136|269:89,1,104.500003189087,10|0,0:0|1:2,0:0:0:0:
173,14,103846,2,0,P|175:74|153:129,1,104.500003189087,8|0,0:0|1:2,0:0:0:0:
107,177,104192,1,0,0:0:0:0:
107,177,104307,2,0,P|56:188|13:217,1,104.500003189087,8|0,0:0|1:2,0:0:0:0:
37,352,104769,2,0,P|89:331|100:329,1,52.2500015945435,2|2,0:0|3:0,0:0:0:0:
166,338,105000,1,2,3:0:0:0:
408,118,106153,5,2,0:0:0:0:
256,192,106269,12,0,112615,0:0:0:0:
