osu file format v14

[General]
AudioFilename: audio.mp3
AudioLeadIn: 0
PreviewTime: 58474
Countdown: 0
SampleSet: Soft
StackLeniency: 0.7
Mode: 2
LetterboxInBreaks: 0
WidescreenStoryboard: 0

[Editor]
DistanceSpacing: 4.3
BeatDivisor: 8
GridSize: 16
TimelineZoom: 4.099998

[Metadata]
Title:Umbilical
TitleUnicode:アンビリカル
Artist:Yuno (CV: Yuuka Aisaka)
ArtistUnicode:ユノ (CV: 相坂優歌)
Creator:rew0825
Version:Relative Zero
Source:MILGRAM
Tags:ミルグラム 樫木 Anbirikaru 優乃 Kashiki DECO*27 Rockwell otoiro akka dmym 山中拓也 takuya yamanaka Female Vocal Vocals Japanese Pop J-Pop JPop
BeatmapID:4394849
BeatmapSetID:2095946

[Difficulty]
HPDrainRate:5
CircleSize:3.6
OverallDifficulty:9
ApproachRate:9
SliderMultiplier:2.2
SliderTickRate:2

[Events]
//Background and Video events
0,0,"bg.jpeg",0,0
Video,-100,"vdo.m4v"
//Break Periods
//Storyboard Layer 0 (Background)
//Storyboard Layer 1 (Fail)
//Storyboard Layer 2 (Pass)
//Storyboard Layer 3 (Foreground)
//Storyboard Layer 4 (Overlay)
//Storyboard Sound Samples

[TimingPoints]
400,405.405405405405,4,2,25,20,1,0
3643,-100,4,2,25,30,0,0
5264,-100,4,2,25,40,0,0
6886,-100,4,2,25,60,0,0
19859,-100,4,2,25,50,0,0
32832,-100,4,2,25,60,0,0
44183,-100,4,2,25,50,0,0
45805,-100,4,2,25,60,0,0
58778,-100,4,2,25,70,0,1
71649,-100,4,2,25,70,0,0
71751,-100,4,2,25,70,0,1
84724,-100,4,2,25,40,0,0
91210,-100,4,2,25,50,0,0
97697,-100,4,2,25,60,0,0
110670,-100,4,2,25,70,0,1
123643,-100,4,2,25,50,0,0
123845,-100,4,2,25,40,0,0
136616,-100,4,2,25,50,0,0
143102,-100,4,2,25,60,0,0
149994,-100,4,2,25,70,0,1
162460,-100,4,2,25,70,0,0
162562,-100,4,2,25,70,0,1
175433,-100,4,2,25,70,0,0
175535,-100,4,2,25,70,0,1
188508,-100,4,2,25,60,0,0
189318,-100,4,2,25,50,0,0
189927,-100,4,2,25,40,0,0
191751,-100,4,2,25,30,0,0
193170,-100,4,2,25,20,0,0
194994,-100,4,2,25,15,0,0
196616,-100,4,2,25,10,0,0
198237,-100,4,2,25,5,0,0

[Colours]
Combo1 : 142,211,234
Combo2 : 243,141,167

[HitObjects]
146,307,400,5,2,0:0:0:0:
255,307,602,2,0,L|257:196,1,110,2|0,0:0|0:0,0:0:0:0:
148,198,1008,1,2,0:0:0:0:
257,198,1210,2,0,L|259:87,1,110,2|0,0:0|0:0,0:0:0:0:
369,88,1616,1,0,0:0:0:0:
182,88,1818,6,0,P|118:90|47:218,1,220,2|0,0:0|1:2,0:0:0:0:
354,212,2629,2,0,L|355:99,1,110,0|0,0:0|1:2,0:0:0:0:
166,102,3035,2,0,L|277:102,2,110,2|2|2,1:2|0:0|0:0,0:0:0:0:
353,102,3643,5,0,1:2:0:0:
243,102,3845,2,0,L|242:215,1,110,2|0,0:0|0:0,0:0:0:0:
430,211,4251,1,0,1:2:0:0:
320,211,4454,2,0,L|319:324,1,110,2|0,0:0|1:2,0:0:0:0:
208,320,4859,1,0,0:0:0:0:
395,320,5062,1,0,1:2:0:0:
208,320,5264,6,0,L|41:321,2,165,8|8|8,1:1|1:1|1:1,0:0:0:0:
395,320,6075,1,0,1:2:0:0:
422,271,6177,1,0,1:2:0:0:
395,222,6278,1,0,1:2:0:0:
108,222,6481,2,0,L|107:112,1,110,8|0,2:2|0:0,0:0:0:0:
415,112,6886,6,0,P|459:167|355:231,1,220,6|0,1:2|3:2,0:0:0:0:
174,234,7494,2,0,P|155:170|271:107,1,220,2|2,1:2|1:2,0:0:0:0:
456,106,8102,1,0,3:2:0:0:
191,106,8305,6,0,P|114:157|194:214,1,220,2|2,1:2|1:2,0:0:0:0:
377,215,8913,1,0,3:2:0:0:
190,215,9116,2,0,L|190:327,1,110,2|0,0:0|1:2,0:0:0:0:
377,325,9521,2,0,L|255:325,2,110,2|0|2,1:2|3:2|0:0,0:0:0:0:
90,325,10129,6,0,P|38:265|140:205,1,220,2|0,1:2|3:2,0:0:0:0:
316,199,10737,2,0,P|341:145|229:71,1,220,2|2,1:2|1:2,0:0:0:0:
43,70,11345,1,0,3:2:0:0:
329,70,11548,6,0,P|392:103|311:187,1,220,2|2,1:2|1:2,0:0:0:0:
131,190,12156,1,0,3:2:0:0:
318,190,12359,1,2,1:2:0:0:
372,190,12460,1,0,1:2:0:0:
318,190,12562,1,0,1:2:0:0:
131,190,12764,1,2,1:2:0:0:
77,190,12866,1,0,1:2:0:0:
131,190,12967,1,0,3:2:0:0:
318,190,13170,1,2,0:0:0:0:
32,190,13372,6,0,P|29:126|163:87,1,220,2|0,1:2|3:2,0:0:0:0:
344,82,13981,2,0,P|416:108|333:175,1,220,2|2,1:2|1:2,0:0:0:0:
155,180,14589,1,0,3:2:0:0:
440,180,14791,6,0,P|434:249|304:301,1,220,2|2,1:2|1:2,0:0:0:0:
121,302,15399,1,0,3:2:0:0:
308,302,15602,2,0,L|310:189,1,110,2|0,1:2|1:2,0:0:0:0:
121,192,16008,2,0,L|276:192,2,110,2|2|2,1:2|3:2|0:0,0:0:0:0:
407,192,16616,6,0,P|477:150|396:80,1,220,2|2,1:2|3:2,0:0:0:0:
212,78,17224,2,0,P|199:137|324:193,1,220,2|2,1:2|1:2,0:0:0:0:
133,194,17832,1,2,3:2:0:0:
419,194,18035,6,0,L|420:307,1,110,2|0,1:2|1:2,0:0:0:0:
232,303,18440,2,0,L|166:304,1,55,2|2,2:3|2:3,0:0:0:0:
364,303,18744,2,0,L|431:303,1,55,2|2,2:3|2:3,0:0:0:0:
132,303,19048,5,2,1:2:0:0:
105,295,19099,1,0,0:0:0:0:
84,278,19149,1,0,0:0:0:0:
73,253,19200,1,0,0:0:0:0:
73,226,19251,1,2,1:2:0:0:
85,201,19302,1,0,0:0:0:0:
106,183,19352,1,0,0:0:0:0:
132,177,19403,1,0,0:0:0:0:
163,177,19454,1,2,1:2:0:0:
346,184,19656,1,2,0:0:0:0:
59,184,19859,6,0,L|60:70,1,110,0|2,1:2|0:0,0:0:0:0:
175,74,20264,1,2,0:0:0:0:
362,74,20467,2,0,L|149:126,1,220,0|2,1:2|0:0,0:0:0:0:
148,236,21075,1,2,0:0:0:0:
335,236,21278,6,0,P|409:290|328:344,1,220,0|0,1:2|0:0,0:0:0:0:
142,344,21886,2,0,L|349:265,2,220,0|0|0,1:2|1:2|1:2,0:0:0:0:
148,234,22899,1,0,0:0:0:0:
434,234,23102,6,0,L|436:122,1,110,0|2,1:2|0:0,0:0:0:0:
314,124,23508,1,2,0:0:0:0:
127,124,23710,1,0,1:2:0:0:
314,124,23913,2,0,L|439:123,2,110,2|2|2,0:0|0:0|0:0,0:0:0:0:
127,124,24521,6,0,P|61:176|146:238,1,220,0|0,1:2|0:0,0:0:0:0:
332,238,25129,2,0,L|121:179,2,220,0|0|0,1:2|1:2|1:2,0:0:0:0:
332,127,26143,1,0,0:0:0:0:
46,127,26345,6,0,L|45:237,1,110,0|2,1:2|0:0,0:0:0:0:
166,236,26751,1,2,0:0:0:0:
354,127,26954,2,0,L|238:126,2,110,0|2|2,1:2|0:0|0:0,0:0:0:0:
352,237,27562,1,2,0:0:0:0:
187,237,27764,6,0,L|304:237,1,110,0|2,1:2|0:0,0:0:0:0:
463,237,28170,2,0,L|464:126,1,110,2|0,0:0|1:2,0:0:0:0:
287,127,28575,2,0,L|286:241,1,110,2|0,0:0|1:2,0:0:0:0:
97,236,28981,1,2,0:0:0:0:
286,236,29183,2,0,L|399:237,1,110,2|0,1:2|0:0,0:0:0:0:
94,236,29589,5,0,1:2:0:0:
203,236,29791,1,2,0:0:0:0:
206,180,29893,1,2,0:0:0:0:
209,125,29994,1,2,0:0:0:0:
396,125,30197,1,0,1:2:0:0:
209,125,30399,2,0,L|73:126,2,110,2|2|2,0:0|0:0|0:0,0:0:0:0:
396,125,31008,6,0,P|464:163|377:233,1,220,0|0,1:2|1:2,0:0:0:0:
210,237,31616,1,0,1:2:0:0:
385,237,31818,1,2,0:2:0:0:
98,237,32021,1,2,1:2:0:0:
85,207,32072,1,2,1:2:0:0:
101,181,32122,1,2,1:2:0:0:
164,176,32224,1,2,1:2:0:0:
350,175,32427,1,10,0:0:0:0:
404,175,32528,1,10,0:0:0:0:
458,175,32629,1,10,0:0:0:0:
145,171,32832,6,0,L|28:172,2,110,6|2|2,1:2|0:0|3:2,0:0:0:0:
332,171,33440,2,0,P|409:227|325:275,1,220,0|2,1:2|1:2,0:0:0:0:
144,278,34048,1,2,3:2:0:0:
430,278,34251,6,0,P|447:219|325:153,1,220,0|2,1:2|1:2,0:0:0:0:
143,150,34859,2,0,L|352:84,1,220,0|0,3:2|1:2,0:0:0:0:
165,83,35467,1,2,1:2:0:0:
110,83,35568,1,0,1:2:0:0:
165,83,35670,1,0,3:2:0:0:
352,83,35872,1,2,0:0:0:0:
65,83,36075,5,0,1:2:0:0:
175,83,36278,1,2,0:0:0:0:
176,137,36379,1,2,0:0:0:0:
178,192,36481,1,2,3:2:0:0:
364,192,36683,1,0,1:2:0:0:
176,192,36886,2,0,L|300:191,1,110,2|2,0:0|1:2,0:0:0:0:
98,191,37291,1,2,3:2:0:0:
384,191,37494,6,0,P|451:162|373:87,1,220,0|2,1:2|1:2,0:0:0:0:
188,85,38102,2,0,P|132:132|197:172,1,165,0|0,3:2|1:2,0:0:0:0:
304,174,38508,2,0,L|304:288,1,110,0|2,1:2|1:2,0:0:0:0:
248,284,38812,1,0,1:2:0:0:
133,284,38913,2,0,L|19:284,1,110,0|2,3:2|0:0,0:0:0:0:
309,284,39318,5,0,1:2:0:0:
419,284,39521,1,2,0:0:0:0:
422,229,39622,1,2,0:0:0:0:
425,173,39724,1,2,3:2:0:0:
237,173,39927,2,0,L|104:172,2,110,0|2|2,1:2|0:0|1:2,0:0:0:0:
425,173,40535,1,2,3:2:0:0:
139,173,40737,6,0,L|136:286,1,110,0|0,1:2|0:0,0:0:0:0:
324,282,41143,2,0,L|204:282,1,110,2|0,1:2|3:2,0:0:0:0:
401,282,41548,2,0,L|402:162,1,110,2|0,0:0|1:2,0:0:0:0:
213,172,41954,1,2,1:2:0:0:
158,172,42055,1,0,1:2:0:0:
213,172,42156,1,0,3:2:0:0:
400,172,42359,1,2,0:0:0:0:
113,172,42562,5,0,1:2:0:0:
222,172,42764,1,2,0:0:0:0:
224,116,42866,1,2,0:0:0:0:
226,61,42967,1,2,3:2:0:0:
34,98,43170,1,0,1:2:0:0:
220,98,43372,2,0,L|334:99,1,110,2|2,0:0|1:2,0:0:0:0:
141,98,43778,2,0,L|26:99,1,110,2|0,3:2|1:2,0:0:0:0:
317,98,44183,6,0,L|318:212,1,110,4|2,1:2|0:0,0:0:0:0:
129,207,44589,2,0,L|126:320,1,110,0|2,1:2|0:0,0:0:0:0:
313,316,44994,2,0,P|363:274|302:221,1,165,8|8,0:0|0:0,0:0:0:0:
188,220,45399,2,0,L|65:220,1,110,0|10,1:2|0:0,0:0:0:0:
133,220,45704,1,0,0:0:0:0:
374,220,45805,6,0,L|375:107,1,110,6|0,1:2|0:0,0:0:0:0:
187,110,46210,2,0,L|186:225,1,110,2|0,1:2|0:0,0:0:0:0:
374,219,46616,2,0,L|250:219,1,110,0|2,1:2|0:0,0:0:0:0:
451,219,47021,2,0,L|452:336,1,110,0|2,1:2|0:0,0:0:0:0:
164,328,47427,6,0,L|49:329,1,110,0|0,1:2|0:0,0:0:0:0:
241,328,47832,2,0,L|242:209,1,110,0|0,1:2|0:0,0:0:0:0:
429,218,48237,2,0,L|313:217,1,110,0|2,1:2|0:0,0:0:0:0:
130,217,48643,2,0,L|129:105,1,110,0|2,1:2|0:0,0:0:0:0:
415,107,49048,6,0,L|415:221,1,110,0|0,1:2|0:0,0:0:0:0:
226,217,49454,2,0,L|225:333,1,110,0|0,1:2|0:0,0:0:0:0:
37,326,49859,2,0,L|154:327,1,110,0|2,1:2|0:0,0:0:0:0:
334,326,50264,2,0,L|457:326,1,110,0|2,1:2|0:0,0:0:0:0:
156,326,50670,6,0,L|156:211,1,110,0|2,1:2|0:0,0:0:0:0:
332,216,51075,1,0,1:2:0:0:
155,216,51278,1,2,0:0:0:0:
441,216,51481,1,0,1:2:0:0:
442,216,51886,2,0,L|321:216,1,110,0|2,1:2|0:0,0:0:0:0:
45,216,52291,6,0,L|43:329,1,110,0|0,1:2|0:0,0:0:0:0:
231,325,52697,2,0,L|232:213,1,110,0|0,1:2|0:0,0:0:0:0:
44,215,53102,2,0,L|43:103,1,110,0|2,1:2|0:0,0:0:0:0:
231,105,53508,2,0,L|106:104,1,110,0|2,1:2|0:0,0:0:0:0:
407,104,53913,6,0,L|408:216,1,110,0|0,1:2|0:0,0:0:0:0:
220,213,54318,2,0,L|219:325,1,110,0|0,1:2|0:0,0:0:0:0:
30,322,54724,2,0,L|164:322,1,110,0|2,1:2|0:0,0:0:0:0:
327,322,55129,2,0,L|328:209,1,110,0|2,1:2|0:0,0:0:0:0:
40,212,55535,6,0,L|39:99,1,110,0|0,1:2|0:0,0:0:0:0:
226,102,55940,2,0,L|345:102,1,110,0|0,1:2|0:0,0:0:0:0:
148,102,56345,2,0,L|26:101,1,110,0|2,1:2|0:0,0:0:0:0:
215,101,56751,1,0,1:2:0:0:
38,101,56954,1,2,0:0:0:0:
323,101,57156,6,0,L|323:212,1,110,8|2,1:1|0:0,0:0:0:0:
228,211,57460,1,8,1:1:0:0:
133,211,57562,2,0,L|132:323,1,110,2|8,0:0|1:1,0:0:0:0:
319,320,57967,1,2,1:2:0:0:
373,320,58068,1,0,1:2:0:0:
319,320,58170,1,0,1:2:0:0:
33,320,58372,2,0,L|32:206,1,110,8|2,0:0|0:0,0:0:0:0:
342,210,58778,6,0,L|113:210,1,220,6|2,1:2|3:2,0:0:0:0:
408,210,59386,2,0,P|428:153|311:93,1,220,2|2,1:2|1:2,0:0:0:0:
123,93,59994,1,0,3:2:0:0:
409,93,60197,6,0,P|482:140|400:202,1,220,2|2,1:2|1:2,0:0:0:0:
227,203,60805,1,2,3:2:0:0:
403,203,61008,1,2,0:0:0:0:
117,203,61210,2,0,L|115:314,1,110,2|2,1:2|1:2,0:0:0:0:
170,312,61514,1,0,1:2:0:0:
286,312,61616,2,0,L|399:313,1,110,2|0,3:2|0:0,0:0:0:0:
103,312,62021,6,0,L|103:197,1,110,0|2,1:2|0:0,0:0:0:0:
291,202,62427,2,0,L|177:202,1,110,2|0,3:2|1:2,0:0:0:0:
467,202,62832,1,2,0:0:0:0:
301,202,63035,1,2,1:2:0:0:
467,202,63237,1,2,3:2:0:0:
180,202,63440,6,0,P|120:173|207:97,1,220,2|2,1:2|1:2,0:0:0:0:
383,90,64048,1,2,3:2:0:0:
96,90,64251,1,2,1:2:0:0:
41,90,64352,1,0,1:2:0:0:
96,90,64454,1,0,1:2:0:0:
282,90,64656,1,0,1:2:0:0:
337,90,64758,1,0,1:2:0:0:
282,90,64859,1,0,3:2:0:0:
96,90,65062,1,2,0:0:0:0:
402,90,65264,6,0,P|466:123|385:203,1,220,2|2,1:2|3:2,0:0:0:0:
104,205,65872,2,0,P|101:143|231:95,1,220,2|2,1:2|1:2,0:0:0:0:
416,93,66481,1,0,3:2:0:0:
130,93,66683,6,0,P|51:147|141:188,1,220,2|2,1:2|1:2,0:0:0:0:
303,195,67291,1,2,3:2:0:0:
126,195,67494,1,2,0:0:0:0:
412,195,67697,2,0,L|411:308,1,110,2|0,1:2|1:2,0:0:0:0:
355,304,68001,1,0,1:2:0:0:
239,304,68102,2,0,L|109:303,1,110,2|0,3:2|0:0,0:0:0:0:
445,303,68508,6,0,L|447:191,1,110,0|2,1:2|0:0,0:0:0:0:
259,193,68913,2,0,L|389:192,1,110,2|2,3:2|1:2,0:0:0:0:
82,192,69318,1,2,0:0:0:0:
247,192,69521,1,2,1:2:0:0:
82,192,69724,1,2,3:2:0:0:
368,192,69927,1,2,1:2:0:0:
82,192,70129,6,0,L|82:82,1,110,4|2,1:2|0:0,0:0:0:0:
270,82,70535,2,0,L|393:81,1,110,2|2,1:2|0:0,0:0:0:0:
93,81,70940,2,0,L|32:80,1,55,8|0,0:0|1:2,0:0:0:0:
225,80,71244,2,0,L|308:80,1,55,8|0,0:0|1:2,0:0:0:0:
467,80,71548,2,0,L|394:80,1,55,10|0,0:0|1:2,0:0:0:0:
173,80,71751,5,6,1:2:0:0:
283,80,71954,2,0,L|284:191,1,110,2|0,0:0|3:2,0:0:0:0:
96,189,72359,1,2,0:0:0:0:
206,189,72562,2,0,L|207:300,1,110,2|0,1:2|0:0,0:0:0:0:
471,298,72967,1,2,3:2:0:0:
206,298,73170,6,0,L|77:299,1,110,2|0,0:0|1:2,0:0:0:0:
283,298,73575,2,0,L|283:184,1,110,2|2,0:0|3:2,0:0:0:0:
94,188,73981,1,2,0:0:0:0:
379,188,74183,2,0,L|380:78,1,110,2|0,1:2|0:0,0:0:0:0:
324,78,74487,1,0,0:0:0:0:
207,78,74589,2,0,L|90:79,1,110,0|0,3:2|0:0,0:0:0:0:
389,78,74994,5,2,1:2:0:0:
278,78,75197,2,0,L|276:190,1,110,2|0,0:0|3:2,0:0:0:0:
463,187,75602,1,2,0:0:0:0:
352,187,75805,2,0,L|350:299,1,110,2|0,1:2|0:0,0:0:0:0:
74,296,76210,1,2,3:2:0:0:
349,296,76413,6,0,L|351:183,1,110,2|0,0:0|1:2,0:0:0:0:
163,186,76818,1,2,0:0:0:0:
350,186,77021,2,0,L|466:186,1,110,2|2,3:2|0:0,0:0:0:0:
171,185,77427,2,0,L|171:73,1,110,2|0,1:2|0:0,0:0:0:0:
226,75,77731,1,0,0:0:0:0:
341,75,77832,2,0,L|458:75,1,110,0|0,3:2|0:0,0:0:0:0:
158,75,78237,5,2,1:2:0:0:
268,75,78440,2,0,L|269:192,1,110,2|0,0:0|3:2,0:0:0:0:
456,184,78845,1,2,0:0:0:0:
346,184,79048,2,0,L|345:301,1,110,2|0,1:2|0:0,0:0:0:0:
68,293,79454,1,2,3:2:0:0:
342,293,79656,6,0,L|462:293,1,110,2|0,0:0|1:2,0:0:0:0:
263,293,80062,2,0,L|123:292,1,110,2|2,0:0|3:2,0:0:0:0:
340,292,80467,1,2,0:0:0:0:
53,292,80670,2,0,L|52:181,1,110,2|0,1:2|0:0,0:0:0:0:
107,182,80974,1,0,0:0:0:0:
222,182,81075,2,0,L|90:182,1,110,0|0,3:2|0:0,0:0:0:0:
393,182,81481,5,2,1:2:0:0:
283,182,81683,2,0,L|282:71,1,110,2|0,0:0|3:2,0:0:0:0:
93,72,82089,1,2,0:0:0:0:
203,72,82291,2,0,L|204:183,1,110,2|0,1:2|0:0,0:0:0:0:
469,181,82697,1,2,3:2:0:0:
205,181,82899,6,0,L|93:181,1,110,2|0,0:0|1:2,0:0:0:0:
283,181,83305,2,0,L|356:180,1,55,2|2,2:3|2:3,0:0:0:0:
150,180,83609,2,0,L|94:180,1,55,2|2,2:3|2:3,0:0:0:0:
381,180,83913,5,2,1:2:0:0:
408,186,83964,1,0,0:0:0:0:
428,204,84014,1,0,0:0:0:0:
439,229,84065,1,0,0:0:0:0:
439,256,84116,1,2,1:2:0:0:
427,281,84166,1,0,0:0:0:0:
406,298,84217,1,0,0:0:0:0:
380,304,84268,1,0,0:0:0:0:
349,304,84318,1,2,1:2:0:0:
167,299,84521,1,2,0:0:0:0:
475,299,84724,6,0,L|476:185,1,110,0|2,1:2|0:0,0:0:0:0:
354,189,85129,1,2,0:0:0:0:
176,189,85332,2,0,L|49:189,2,110,2|2|2,0:0|0:0|0:0,0:0:0:0:
354,189,85940,1,2,0:0:0:0:
176,189,86143,1,0,1:2:0:0:
373,189,86751,6,0,L|133:189,2,220,0|0|0,1:2|1:2|1:2,0:0:0:0:
64,189,87967,5,0,1:2:0:0:
175,189,88170,1,2,0:0:0:0:
178,243,88271,1,2,0:0:0:0:
181,297,88372,1,2,0:0:0:0:
357,297,88575,1,0,1:2:0:0:
182,297,88778,2,0,L|68:296,2,110,2|2|2,0:0|0:0|0:0,0:0:0:0:
357,297,89386,1,0,1:2:0:0:
159,297,89994,6,0,L|393:298,2,220,0|0|0,1:2|1:2|1:2,0:0:0:0:
467,297,91210,5,0,1:2:0:0:
356,297,91413,1,2,0:0:0:0:
354,242,91514,1,2,0:0:0:0:
352,186,91616,1,2,0:0:0:0:
176,186,91818,2,0,L|50:185,2,110,0|2|2,1:2|0:0|0:0,0:0:0:0:
353,186,92427,1,2,0:0:0:0:
176,186,92629,6,0,P|101:149|187:93,1,220,0|2,1:2|0:0,0:0:0:0:
355,88,93237,1,0,1:2:0:0:
179,88,93440,2,0,L|422:90,1,220,2|2,0:0|0:0,0:0:0:0:
222,89,94048,2,0,L|83:90,1,110,0|0,1:2|0:0,0:0:0:0:
289,89,94454,5,0,1:2:0:0:
398,89,94656,1,2,0:0:0:0:
402,144,94758,1,2,0:0:0:0:
404,198,94859,1,2,0:0:0:0:
227,198,95062,1,0,1:2:0:0:
404,198,95264,2,0,L|275:197,2,110,2|2|2,0:0|0:0|0:0,0:0:0:0:
227,198,95872,6,0,P|154:241|235:299,1,220,0|0,1:2|0:0,0:0:0:0:
412,299,96481,2,0,L|175:297,2,220,0|0|0,1:2|1:2|1:2,0:0:0:0:
414,188,97494,1,2,0:0:0:0:
116,188,97697,6,0,L|114:70,1,110,6|0,1:2|0:0,0:0:0:0:
301,78,98102,2,0,L|302:192,1,110,2|0,1:2|0:0,0:0:0:0:
113,187,98508,2,0,L|237:187,1,110,0|2,1:2|0:0,0:0:0:0:
35,187,98913,2,0,L|33:299,1,110,0|2,1:2|0:0,0:0:0:0:
319,296,99318,6,0,L|433:296,1,110,0|0,1:2|0:0,0:0:0:0:
240,296,99724,2,0,L|239:180,1,110,0|0,1:2|0:0,0:0:0:0:
426,186,100129,2,0,L|427:71,1,110,0|2,1:2|0:0,0:0:0:0:
238,76,100535,2,0,L|349:76,1,110,0|2,1:2|0:0,0:0:0:0:
61,76,100940,6,0,L|60:195,1,110,0|0,1:2|0:0,0:0:0:0:
247,185,101345,2,0,L|249:300,1,110,0|0,1:2|0:0,0:0:0:0:
437,294,101751,2,0,L|322:294,1,110,0|2,1:2|0:0,0:0:0:0:
139,294,102156,2,0,L|16:293,1,110,0|2,1:2|0:0,0:0:0:0:
316,293,102562,6,0,L|317:182,1,110,0|2,1:2|0:0,0:0:0:0:
140,183,102967,1,0,1:2:0:0:
316,183,103170,1,2,0:0:0:0:
30,183,103372,1,0,1:2:0:0:
30,183,103778,2,0,L|150:182,1,110,0|2,1:2|0:0,0:0:0:0:
426,182,104183,6,0,L|427:67,1,110,0|0,1:2|0:0,0:0:0:0:
238,72,104589,2,0,L|237:185,1,110,0|0,1:2|0:0,0:0:0:0:
424,181,104994,2,0,L|294:181,1,110,0|2,1:2|0:0,0:0:0:0:
126,181,105399,2,0,L|125:297,1,110,0|2,1:2|0:0,0:0:0:0:
412,290,105805,6,0,L|413:181,1,110,0|0,1:2|0:0,0:0:0:0:
225,180,106210,2,0,L|346:181,1,110,0|0,1:2|0:0,0:0:0:0:
146,180,106616,2,0,L|145:66,1,110,0|2,1:2|0:0,0:0:0:0:
332,70,107021,2,0,L|451:70,1,110,0|2,1:2|0:0,0:0:0:0:
154,70,107427,6,0,L|153:183,1,110,0|0,1:2|0:0,0:0:0:0:
340,179,107832,2,0,L|228:179,1,110,0|0,1:2|0:0,0:0:0:0:
417,179,108237,2,0,L|418:292,1,110,0|2,1:2|0:0,0:0:0:0:
240,288,108643,1,0,1:2:0:0:
415,288,108845,1,2,0:0:0:0:
128,288,109048,6,0,L|127:178,1,110,8|2,1:1|0:0,0:0:0:0:
221,178,109352,1,8,1:1:0:0:
315,178,109454,2,0,L|317:68,1,110,2|8,0:0|1:1,0:0:0:0:
129,68,109859,1,2,1:2:0:0:
74,68,109960,1,0,1:2:0:0:
129,68,110062,1,0,1:2:0:0:
414,68,110264,2,0,L|415:184,1,110,8|2,0:0|0:0,0:0:0:0:
104,177,110670,6,0,L|332:176,1,220,6|2,1:2|3:2,0:0:0:0:
37,176,111278,2,0,P|36:241|162:295,1,220,2|2,1:2|1:2,0:0:0:0:
348,295,111886,1,0,3:2:0:0:
61,295,112089,6,0,P|62:232|192:182,1,220,2|2,1:2|1:2,0:0:0:0:
366,181,112697,1,2,3:2:0:0:
190,181,112899,1,2,0:0:0:0:
476,181,113102,2,0,L|477:67,1,110,2|2,1:2|1:2,0:0:0:0:
421,71,113406,1,0,1:2:0:0:
304,71,113508,2,0,L|427:71,1,110,2|0,3:2|0:0,0:0:0:0:
133,71,113913,6,0,L|131:186,1,110,0|2,1:2|0:0,0:0:0:0:
318,180,114318,2,0,L|430:180,1,110,2|0,3:2|1:2,0:0:0:0:
140,180,114724,1,2,0:0:0:0:
305,180,114927,1,2,1:2:0:0:
140,180,115129,1,2,3:2:0:0:
426,180,115332,6,0,P|430:241|296:301,1,220,2|2,1:2|1:2,0:0:0:0:
129,305,115940,1,2,3:2:0:0:
415,305,116143,1,2,1:2:0:0:
469,305,116244,1,0,1:2:0:0:
415,305,116345,1,0,1:2:0:0:
227,305,116548,1,0,1:2:0:0:
173,305,116649,1,0,1:2:0:0:
227,305,116751,1,0,3:2:0:0:
415,305,116954,1,2,0:0:0:0:
108,305,117156,6,0,P|38:269|111:190,1,220,2|2,1:2|3:2,0:0:0:0:
397,190,117764,2,0,P|434:120|330:69,1,220,2|2,1:2|1:2,0:0:0:0:
155,68,118372,1,0,3:2:0:0:
441,68,118575,6,0,P|448:136|323:196,1,220,2|2,1:2|1:2,0:0:0:0:
154,199,119183,1,2,3:2:0:0:
331,199,119386,1,2,0:0:0:0:
45,199,119589,2,0,L|44:81,1,110,2|0,1:2|1:2,0:0:0:0:
100,90,119893,1,0,1:2:0:0:
215,90,119994,2,0,L|97:90,1,110,2|0,3:2|0:0,0:0:0:0:
408,90,120399,6,0,L|408:202,1,110,0|2,1:2|0:0,0:0:0:0:
312,200,120704,1,0,1:2:0:0:
218,200,120805,2,0,L|217:315,1,110,2|2,3:2|1:2,0:0:0:0:
404,309,121210,1,2,1:2:0:0:
459,309,121312,1,0,1:2:0:0:
404,309,121413,1,2,1:2:0:0:
117,309,121616,2,0,L|116:200,1,110,2|2,3:2|1:2,0:0:0:0:
424,199,122021,6,0,L|424:86,1,110,0|2,1:2|0:0,0:0:0:0:
249,89,122427,1,2,1:2:0:0:
424,89,122629,1,2,0:0:0:0:
115,89,122832,5,2,1:2:0:0:
109,115,122883,1,0,0:0:0:0:
111,143,122933,1,0,0:0:0:0:
120,168,122984,1,0,0:0:0:0:
137,190,123035,1,2,1:2:0:0:
158,207,123085,1,0,0:0:0:0:
184,217,123136,1,0,0:0:0:0:
211,220,123187,1,0,0:0:0:0:
241,219,123237,1,2,1:2:0:0:
60,215,123440,1,0,1:2:0:0:
368,215,123643,5,6,1:2:0:0:
368,215,123845,2,0,L|161:143,2,220,2|2|2,0:0|0:0|0:0,0:0:0:0:
80,215,125062,6,0,L|268:102,2,220,2|2|2,0:0|0:0|0:0,0:0:0:0:
366,215,126278,5,2,0:0:0:0:
368,160,126379,1,2,0:0:0:0:
370,104,126481,1,2,0:0:0:0:
194,104,126683,1,2,0:0:0:0:
304,104,126886,1,2,0:0:0:0:
127,104,127089,6,0,L|338:171,2,220,2|2|2,0:0|0:0|0:0,0:0:0:0:
413,104,128305,6,0,L|225:217,2,220,2|2|2,0:0|0:0|0:0,0:0:0:0:
126,104,129521,5,2,0:0:0:0:
123,158,129622,1,2,0:0:0:0:
121,213,129724,1,2,0:0:0:0:
297,213,129927,1,2,0:0:0:0:
187,213,130129,1,2,0:0:0:0:
363,213,130332,6,0,L|152:152,2,220,2|2|2,0:0|0:0|0:0,0:0:0:0:
76,213,131548,6,0,L|264:100,2,220,2|2|2,0:0|0:0|0:0,0:0:0:0:
362,213,132764,5,2,0:0:0:0:
306,213,132866,1,2,0:0:0:0:
251,213,132967,1,2,0:0:0:0:
427,213,133170,1,2,0:0:0:0:
317,213,133372,1,2,0:0:0:0:
140,213,133575,6,0,L|348:132,2,220,2|2|2,0:0|0:0|0:0,0:0:0:0:
426,213,134791,6,0,L|238:100,2,220,2|2|2,0:0|0:0|0:0,0:0:0:0:
138,213,136008,5,2,0:0:0:0:
192,213,136109,1,2,0:0:0:0:
246,213,136210,1,2,0:0:0:0:
69,213,136413,1,2,0:0:0:0:
360,213,136616,6,0,L|361:328,1,110,0|2,1:2|0:0,0:0:0:0:
173,322,137021,2,0,L|172:211,1,110,0|2,1:2|0:0,0:0:0:0:
360,212,137427,2,0,L|232:212,1,110,0|2,1:2|0:0,0:0:0:0:
437,212,137832,2,0,L|439:98,1,110,0|2,1:2|0:0,0:0:0:0:
152,102,138237,6,0,L|280:103,1,110,0|2,1:2|0:0,0:0:0:0:
73,102,138643,2,0,L|72:216,1,110,0|2,1:2|0:0,0:0:0:0:
259,211,139048,2,0,L|118:211,1,110,0|2,1:2|0:0,0:0:0:0:
204,211,139352,1,2,0:0:0:0:
259,211,139454,1,0,1:2:0:0:
445,211,139656,1,2,0:0:0:0:
158,211,139859,6,0,L|157:102,1,110,0|2,1:2|0:0,0:0:0:0:
344,101,140264,2,0,L|209:98,1,110,0|2,1:2|0:0,0:0:0:0:
422,98,140670,2,0,L|423:209,1,110,0|2,1:2|0:0,0:0:0:0:
235,207,141075,2,0,L|85:208,1,110,0|2,1:2|0:0,0:0:0:0:
412,207,141481,6,0,L|413:325,1,110,0|2,1:2|0:0,0:0:0:0:
225,316,141886,2,0,L|346:317,1,110,0|2,1:2|0:0,0:0:0:0:
147,316,142291,2,0,L|146:202,1,110,0|2,1:2|0:0,0:0:0:0:
323,206,142697,1,0,1:2:0:0:
147,206,142899,1,2,0:0:0:0:
433,206,143102,6,0,L|434:93,1,110,0|10,1:3|0:0,0:0:0:0:
256,96,143508,2,0,L|388:97,1,110,0|10,1:2|0:0,0:0:0:0:
178,96,143913,2,0,L|177:209,1,110,0|10,1:2|0:0,0:0:0:0:
353,205,144318,1,0,1:2:0:0:
176,205,144521,1,10,0:0:0:0:
462,205,144724,6,0,L|464:322,1,110,0|10,1:2|0:0,0:0:0:0:
276,314,145129,2,0,L|144:313,1,110,0|10,1:2|0:0,0:0:0:0:
354,313,145535,2,0,L|355:193,1,110,0|10,1:2|0:0,0:0:0:0:
178,203,145940,1,0,1:2:0:0:
354,203,146143,1,10,0:0:0:0:
68,203,146345,5,0,1:2:0:0:
39,155,146447,1,0,1:2:0:0:
70,110,146548,1,10,1:2:0:0:
130,107,146649,1,0,1:2:0:0:
329,107,146751,2,0,L|403:107,1,55,0|0,1:2|1:2,0:0:0:0:
185,107,146954,2,0,L|111:107,1,55,10|0,1:2|1:2,0:0:0:0:
365,107,147156,5,0,1:2:0:0:
394,155,147258,1,0,1:2:0:0:
363,200,147359,1,10,1:2:0:0:
303,203,147460,1,0,1:2:0:0:
104,203,147562,2,0,L|103:261,1,55,0|0,1:2|1:2,0:0:0:0:
302,257,147764,2,0,L|376:257,1,55,8|8,1:1|1:1,0:0:0:0:
302,257,147967,5,8,1:1:0:0:
114,257,148170,1,8,1:1:0:0:
113,257,148575,1,8,1:1:0:0:
141,257,148626,1,8,1:1:0:0:
302,257,148778,2,0,L|243:258,1,55,8|8,1:1|1:1,0:0:0:0:
59,257,149082,2,0,L|120:255,1,55,8|0,1:1|1:2,0:0:0:0:
302,257,149386,2,0,L|303:192,1,55,2|2,1:2|1:2,0:0:0:0:
103,202,149589,6,0,P|51:166|117:112,1,165,10|0,0:2|0:0,0:0:0:0:
343,108,149994,1,6,3:2:0:0:
453,108,150197,2,0,L|210:108,1,220,2|2,1:2|1:2,0:0:0:0:
420,108,150805,1,0,3:2:0:0:
133,108,151008,6,0,P|82:112|136:208,1,220,2|2,1:2|1:2,0:0:0:0:
311,208,151616,1,2,3:2:0:0:
135,208,151818,1,2,0:0:0:0:
421,208,152021,2,0,L|422:93,1,110,2|2,1:2|1:2,0:0:0:0:
366,98,152325,1,0,1:2:0:0:
249,98,152427,2,0,L|365:98,1,110,2|0,3:2|0:0,0:0:0:0:
78,98,152832,6,0,L|78:210,1,110,0|2,1:2|0:0,0:0:0:0:
265,208,153237,2,0,L|394:207,1,110,2|0,3:2|1:2,0:0:0:0:
87,207,153643,1,2,0:0:0:0:
251,207,153845,1,2,1:2:0:0:
87,207,154048,1,2,3:2:0:0:
373,207,154251,6,0,P|386:155|261:85,1,220,2|2,1:2|1:2,0:0:0:0:
440,83,154859,1,2,3:2:0:0:
153,83,155062,1,2,1:2:0:0:
98,83,155163,1,0,1:2:0:0:
153,83,155264,1,0,1:2:0:0:
329,83,155467,1,0,1:2:0:0:
384,83,155568,1,0,1:2:0:0:
329,83,155670,1,0,3:2:0:0:
152,83,155872,1,2,0:0:0:0:
438,83,156075,6,0,P|448:142|318:204,1,220,2|2,1:2|3:2,0:0:0:0:
39,207,156683,2,0,L|281:206,1,220,2|2,1:2|1:2,0:0:0:0:
82,206,157291,1,0,3:2:0:0:
368,206,157494,6,0,P|433:181|361:92,1,220,2|2,1:2|1:2,0:0:0:0:
190,90,158102,1,2,3:2:0:0:
366,90,158305,1,2,0:0:0:0:
79,90,158508,2,0,L|79:207,1,110,2|0,1:2|1:2,0:0:0:0:
134,200,158812,1,0,1:2:0:0:
249,200,158913,2,0,L|123:200,1,110,2|0,3:2|0:0,0:0:0:0:
419,200,159318,6,0,L|420:84,1,110,0|2,1:2|0:0,0:0:0:0:
231,90,159724,2,0,L|112:92,1,110,2|2,3:2|1:2,0:0:0:0:
407,91,160129,1,2,0:0:0:0:
241,91,160332,1,2,1:2:0:0:
407,91,160535,1,2,3:2:0:0:
121,91,160737,1,2,1:2:0:0:
407,91,160940,6,0,L|408:206,1,110,4|2,1:2|0:0,0:0:0:0:
220,200,161345,2,0,L|88:201,1,110,2|2,1:2|0:0,0:0:0:0:
408,200,161751,2,0,L|466:200,1,55,8|0,0:0|1:2,0:0:0:0:
275,200,162055,2,0,L|204:199,1,55,8|0,0:0|1:2,0:0:0:0:
32,199,162359,2,0,L|98:199,1,55,10|0,0:0|1:2,0:0:0:0:
325,199,162562,6,0,P|397:196|438:65,1,220,6|0,1:2|3:2,0:0:0:0:
155,72,163170,2,0,L|38:72,1,110,2|0,0:0|1:2,0:0:0:0:
210,72,163575,1,2,0:0:0:0:
44,72,163778,1,0,3:2:0:0:
330,72,163981,6,0,L|331:189,1,110,2|0,0:0|1:2,0:0:0:0:
165,181,164386,1,2,0:0:0:0:
330,181,164589,1,0,3:2:0:0:
494,181,164791,1,2,0:0:0:0:
207,181,164994,2,0,L|206:71,1,110,0|2,1:2|0:0,0:0:0:0:
267,71,165298,1,0,0:0:0:0:
382,71,165399,2,0,L|497:72,1,110,2|0,3:2|0:0,0:0:0:0:
198,71,165805,6,0,L|197:187,1,110,0|2,1:2|0:0,0:0:0:0:
362,180,166210,1,0,3:2:0:0:
196,180,166413,1,2,0:0:0:0:
482,180,166616,1,0,1:2:0:0:
317,180,166818,1,2,0:0:0:0:
482,180,167021,1,0,3:2:0:0:
195,180,167224,6,0,L|72:179,1,110,2|0,0:0|1:2,0:0:0:0:
261,179,167629,1,2,0:0:0:0:
437,179,167832,1,0,3:2:0:0:
150,179,168035,2,0,L|27:177,1,110,2|0,0:0|1:2,0:0:0:0:
227,177,168440,1,2,0:0:0:0:
281,177,168541,1,0,0:0:0:0:
227,177,168643,1,0,3:2:0:0:
40,177,168845,1,2,0:0:0:0:
326,177,169048,6,0,L|90:177,1,220,2|0,1:2|3:2,0:0:0:0:
392,177,169656,2,0,L|393:55,1,110,2|0,0:0|1:2,0:0:0:0:
215,67,170062,1,2,0:0:0:0:
390,67,170264,1,0,3:2:0:0:
103,67,170467,6,0,L|229:68,1,110,2|0,0:0|1:2,0:0:0:0:
378,67,170872,1,2,0:0:0:0:
212,67,171075,1,0,3:2:0:0:
46,67,171278,1,2,0:0:0:0:
332,67,171481,2,0,L|333:178,1,110,0|2,1:2|0:0,0:0:0:0:
277,176,171785,1,0,0:0:0:0:
161,176,171886,2,0,L|50:177,1,110,2|0,3:2|0:0,0:0:0:0:
343,176,172291,6,0,L|344:291,1,110,0|2,1:2|0:0,0:0:0:0:
178,285,172697,1,0,3:2:0:0:
343,285,172899,1,2,0:0:0:0:
57,285,173102,1,0,1:2:0:0:
140,213,173305,1,2,0:0:0:0:
57,285,173508,1,0,3:2:0:0:
343,285,173710,1,2,0:0:0:0:
57,285,173913,5,4,1:2:0:0:
233,285,174116,2,0,L|234:230,1,55,2|2,2:3|2:3,0:0:0:0:
57,230,174420,2,0,L|56:167,1,55,2|2,2:3|2:3,0:0:0:0:
341,174,174724,5,2,1:2:0:0:
364,159,174774,1,0,0:0:0:0:
380,137,174825,1,0,0:0:0:0:
386,111,174876,1,0,0:0:0:0:
381,83,174927,1,2,1:2:0:0:
366,61,174977,1,0,0:0:0:0:
343,45,175028,1,0,0:0:0:0:
317,41,175079,1,0,0:0:0:0:
286,42,175129,1,2,1:2:0:0:
473,50,175332,1,2,1:2:0:0:
164,50,175535,5,6,1:2:0:0:
335,49,175737,2,0,L|336:165,1,110,2|0,0:0|3:2,0:0:0:0:
162,159,176143,1,2,0:0:0:0:
335,158,176345,2,0,L|336:274,1,110,2|0,1:2|0:0,0:0:0:0:
48,267,176751,1,0,3:2:0:0:
335,267,176954,6,0,L|448:266,1,110,2|0,0:0|1:2,0:0:0:0:
269,267,177359,1,2,0:0:0:0:
103,267,177562,1,0,3:2:0:0:
269,267,177764,1,2,0:0:0:0:
445,267,177967,2,0,L|446:144,1,110,2|0,1:2|0:0,0:0:0:0:
159,157,178372,2,0,L|20:159,1,110,0|0,3:2|0:0,0:0:0:0:
336,158,178778,5,2,1:2:0:0:
159,158,178981,2,0,L|158:43,1,110,2|0,0:0|3:2,0:0:0:0:
336,158,179386,1,2,0:0:0:0:
159,158,179589,2,0,L|158:43,1,110,2|0,1:2|0:0,0:0:0:0:
444,48,179994,1,0,3:2:0:0:
157,48,180197,6,0,L|30:48,1,110,2|0,0:0|1:2,0:0:0:0:
223,48,180602,1,2,0:0:0:0:
399,48,180805,1,0,3:2:0:0:
223,48,181008,1,2,0:0:0:0:
47,48,181210,2,0,L|159:48,1,110,2|0,1:2|0:0,0:0:0:0:
444,48,181616,2,0,L|315:48,1,110,0|0,3:2|0:0,0:0:0:0:
25,48,182021,5,2,1:2:0:0:
201,48,182224,2,0,L|202:158,1,110,2|0,0:0|3:2,0:0:0:0:
378,157,182629,1,2,0:0:0:0:
201,157,182832,2,0,L|198:267,1,110,2|0,1:2|0:0,0:0:0:0:
484,266,183237,1,0,3:2:0:0:
197,266,183440,6,0,L|47:266,1,110,2|0,0:0|1:2,0:0:0:0:
263,266,183845,1,2,0:0:0:0:
439,266,184048,1,0,3:2:0:0:
262,266,184251,1,2,0:0:0:0:
85,266,184454,2,0,L|85:154,1,110,2|0,1:2|0:0,0:0:0:0:
272,156,184859,1,0,3:2:0:0:
84,156,185062,1,0,0:0:0:0:
369,156,185264,5,2,1:2:0:0:
372,211,185366,1,2,0:0:0:0:
256,211,185467,1,2,0:0:0:0:
201,211,185568,1,2,0:0:0:0:
168,165,185670,1,0,3:2:0:0:
203,123,185771,1,2,0:0:0:0:
318,123,185872,1,2,0:0:0:0:
322,67,185974,1,2,0:0:0:0:
86,67,186075,5,2,1:2:0:0:
51,78,186143,1,2,0:0:0:0:
29,107,186210,1,2,0:0:0:0:
26,143,186278,1,2,0:0:0:0:
43,174,186345,1,2,0:0:0:0:
75,192,186413,1,0,0:0:0:0:
114,190,186481,1,0,3:2:0:0:
380,143,186683,6,0,L|381:258,1,110,2|0,0:0|1:2,0:0:0:0:
192,252,187089,2,0,L|128:253,1,55,2|2,2:3|2:3,0:0:0:0:
325,252,187393,2,0,L|389:253,1,55,2|2,2:3|2:3,0:0:0:0:
93,252,187697,5,2,1:2:0:0:
87,225,187747,1,0,0:0:0:0:
87,197,187798,1,0,0:0:0:0:
95,171,187849,1,0,0:0:0:0:
110,148,187899,1,2,1:2:0:0:
129,129,187950,1,0,0:0:0:0:
153,115,188001,1,0,0:0:0:0:
180,108,188052,1,0,0:0:0:0:
207,108,188102,1,2,1:2:0:0:
31,110,188305,1,0,1:2:0:0:
317,110,188508,5,6,1:2:0:0:
372,197,188710,1,2,0:0:0:0:
317,110,188913,1,0,1:2:0:0:
206,110,189116,1,2,0:0:0:0:
381,110,189318,1,10,0:2:0:0:
436,197,189521,1,0,0:0:0:0:
381,110,189724,1,2,1:2:0:0:
206,110,189927,6,0,P|205:178|327:237,1,220,2|10,1:2|0:2,0:0:0:0:
383,149,190535,1,2,0:0:0:0:
327,237,190737,1,2,1:2:0:0:
150,237,190940,2,0,L|151:127,1,110,10|0,0:2|1:2,0:0:0:0:
325,126,191345,2,0,L|439:124,1,110,0|0,1:2|1:2,0:0:0:0:
379,124,191649,1,0,1:2:0:0:
202,124,191751,5,2,1:2:0:0:
147,213,191954,1,2,0:0:0:0:
202,124,192156,1,0,1:2:0:0:
312,124,192359,1,2,0:0:0:0:
135,124,192562,1,10,0:2:0:0:
79,212,192764,1,0,0:0:0:0:
135,124,192967,1,2,1:2:0:0:
300,124,193170,6,0,P|296:194|165:241,1,220,2|10,1:2|0:2,0:0:0:0:
115,156,193778,1,2,0:0:0:0:
171,243,193981,1,2,1:2:0:0:
335,243,194183,2,0,L|446:243,1,110,10|0,0:2|1:2,0:0:0:0:
179,243,194589,2,0,L|173:184,1,55,8|8,0:2|0:2,0:0:0:0:
351,243,194791,2,0,L|357:184,1,55,8|8,0:2|0:2,0:0:0:0:
173,188,194994,5,6,1:2:0:0:
256,192,195197,12,0,199656,0:0:0:0:
