osu file format v14

[General]
AudioFilename: audio.mp3
AudioLeadIn: 0
PreviewTime: 48748
Countdown: 0
SampleSet: Soft
StackLeniency: 0.4
Mode: 0
LetterboxInBreaks: 0
WidescreenStoryboard: 1

[Editor]
DistanceSpacing: 1.2
BeatDivisor: 4
GridSize: 32
TimelineZoom: 1.7

[Metadata]
Title:Nakayoshi Sensation
TitleUnicode:なかよしセンセーション
Artist:Yuni (CV: Kohara Konomi), Chieru (CV: Sakura Ayane), Chloe (CV: Tanezaki Atsumi)
ArtistUnicode:ユニ (CV: 小原好美)、チエル (CV: 佐倉綾音)、クロエ (CV: 種崎敦美)
Creator:Yorita Yoshino
Version:Dalou's Hard
Source:プリンセスコネクト!Re:Dive
Tags:授けの財団と聖なる学舎の異端児 PCR Princess Connect priconne プリコネ Ending ED なかよし部 Japanese Video Game Cygames ak74 Gust VoiceCore superdaloubot kanor -ClariS- yf_bmp ak74qbz95xm8 pop
BeatmapID:2787838
BeatmapSetID:1233855

[Difficulty]
HPDrainRate:4
CircleSize:4
OverallDifficulty:6
ApproachRate:7.6
SliderMultiplier:1.6
SliderTickRate:1

[Events]
//Background and Video events
0,0,"980db2d3644b5582af8e918d178064b6.jpg",0,0
//Break Periods
//Storyboard Layer 0 (Background)
//Storyboard Layer 1 (Fail)
//Storyboard Layer 2 (Pass)
//Storyboard Layer 3 (Foreground)
//Storyboard Layer 4 (Overlay)
//Storyboard Sound Samples

[TimingPoints]
437,389.61038961039,4,2,1,65,1,0
437,-111.111111111111,4,2,1,65,0,0
3553,-111.111111111111,4,2,1,75,0,0
5112,-111.111111111111,4,2,1,80,0,0
6670,-125,4,2,1,80,0,0
8034,-125,4,2,2,80,0,0
8229,-90.9090909090909,4,2,1,85,0,1
19138,-100,4,2,1,85,0,0
19333,-100,4,2,1,80,0,0
20307,-100,4,2,2,80,0,0
20501,-100,4,2,1,10,0,0
20696,-100,4,2,1,75,0,0
33164,-100,4,2,1,80,0,0
45631,-111.111111111111,4,2,1,80,0,0
48359,-111.111111111111,4,2,2,80,0,0
48748,-90.9090909090909,4,2,1,80,0,1
67449,-111.111111111111,4,2,1,80,0,0
69008,-111.111111111111,4,2,1,65,0,0
72125,-111.111111111111,4,2,1,75,0,0
73683,-111.111111111111,4,2,1,80,0,0
75242,-125,4,2,1,80,0,0
76605,-125,4,2,2,80,0,0
76800,-100,4,2,1,75,0,0
77969,-100,4,2,1,75,0,0

[Colours]
Combo1 : 164,250,146
Combo2 : 249,145,173
Combo3 : 237,128,69
Combo4 : 243,210,95

[HitObjects]
241,56,437,6,0,P|182:61|125:68,2,107.999996704102,6|2|2,1:1|1:1|1:1,0:0:0:0:
322,10,1216,1,2,0:0:0:0:
322,10,1411,1,2,0:0:0:0:
397,64,1605,2,0,L|388:100,3,35.9999989013672,2|2|2|2,0:0|0:0|0:0|0:0,0:0:0:0:
370,142,1995,6,0,P|428:147|486:154,2,107.999996704102,4|2|2,1:2|1:1|1:1,0:0:0:0:
298,202,2774,1,2,0:0:0:0:
298,202,2969,1,2,0:0:0:0:
213,160,3164,2,0,L|165:165,3,35.9999989013672,2|2|0|2,0:0|0:0|0:0|0:0,0:0:0:0:
131,154,3553,6,0,P|134:129|141:95,2,35.9999989013672,4|8|0,1:2|0:3|1:0,0:0:0:0:
126,248,3943,1,0,1:0:0:0:
221,247,4138,6,0,P|246:248|280:252,2,35.9999989013672,4|8|0,1:2|0:3|1:0,0:0:0:0:
126,248,4527,1,0,1:0:0:0:
134,343,4722,6,0,P|134:368|132:402,2,35.9999989013672,4|8|0,1:2|0:3|1:0,0:0:0:0:
39,351,5112,6,0,P|13:351|-20:349,1,35.9999989013672,4|8,1:2|1:3,0:0:0:0:
31,256,5404,2,0,P|30:230|32:196,1,35.9999989013672,4|8,1:2|1:3,0:0:0:0:
126,248,5696,2,0,P|151:247|185:249,1,35.9999989013672,4|8,1:2|1:3,0:0:0:0:
134,343,5988,2,0,P|134:368|132:402,1,35.9999989013672,4|8,1:2|1:3,0:0:0:0:
231,351,6281,1,4,1:2:0:0:
246,350,6378,1,8,1:3:0:0:
261,349,6475,1,8,1:3:0:0:
276,348,6573,1,8,1:3:0:0:
291,347,6670,6,0,B|343:341|343:341|362:292|362:292|466:308,1,192,2|0,3:2|3:0,0:0:0:0:
508,234,7449,1,8,0:0:0:0:
512,238,7644,1,2,0:3:0:0:
435,181,7839,2,0,L|427:113,1,64,0|8,0:0|0:1,0:0:0:0:
428,18,8229,6,0,P|376:22|325:30,1,88.000002685547,4|0,1:1|0:0,0:0:0:0:
301,63,8521,1,0,0:0:0:0:
301,63,8618,2,0,L|254:57,1,44.0000013427735,8|2,0:1|0:2,0:0:0:0:
158,19,8911,2,0,P|166:82|173:153,1,132.00000402832,2|2,0:2|0:2,0:0:0:0:
67,143,9398,1,8,0:1:0:0:
27,240,9592,1,2,0:2:0:0:
131,254,9787,6,0,L|140:311,3,44.0000013427735,0|2|0|2,1:0|0:2|0:0|0:2,0:0:0:0:
188,313,10177,2,0,L|182:365,2,44.0000013427735,8|2|0,0:1|0:2|0:0,0:0:0:0:
282,264,10566,1,0,1:0:0:0:
282,264,10664,2,0,P|313:262|345:263,1,44.0000013427735,2|0,0:2|0:0,0:0:0:0:
396,183,10956,2,0,L|441:188,2,44.0000013427735,8|2|0,0:1|0:2|0:0,0:0:0:0:
301,134,11346,5,0,1:0:0:0:
368,53,11540,1,0,0:0:0:0:
368,53,11638,1,2,0:2:0:0:
368,53,11735,2,0,P|436:72|451:90,1,88.000002685547,8|2,0:1|0:2,0:0:0:0:
440,188,12125,2,0,P|434:234|432:305,1,88.000002685547,0|0,1:0|0:0,0:0:0:0:
435,328,12417,2,0,P|403:320|371:316,1,44.0000013427735,2|8,0:2|0:1,0:0:0:0:
290,348,12709,1,2,0:2:0:0:
196,299,12904,6,0,P|148:301|100:306,2,88.000002685547,0|2|8,1:0|0:2|0:1,0:0:0:0:
280,236,13488,2,0,L|273:185,1,44.0000013427735,8|8,0:3|0:3,0:0:0:0:
235,155,13683,2,0,P|266:115|247:63,1,88.000002685547,8|8,1:3|0:3,0:0:0:0:
227,40,13975,1,8,0:3:0:0:
227,40,14073,2,0,P|188:35|142:62,1,88.000002685547,8|0,0:1|0:0,0:0:0:0:
40,65,14462,6,0,P|45:92|50:125,3,44.0000013427735,4|2|0|2,1:2|0:2|0:0|0:2,0:0:0:0:
85,146,14852,2,0,P|81:170|78:197,1,44.0000013427735,8|2,0:1|0:0,0:0:0:0:
53,292,15144,2,0,P|111:274|143:274,1,88.000002685547,2|0,0:0|0:0,0:0:0:0:
191,280,15437,1,2,0:0:0:0:
277,340,15631,2,0,P|335:358|367:358,1,88.000002685547,8|0,0:1|0:0,0:0:0:0:
456,309,16021,6,0,L|441:209,1,88.000002685547,2|0,1:2|0:0,0:0:0:0:
399,191,16313,1,2,0:0:0:0:
399,191,16411,2,0,L|406:139,1,44.0000013427735,8|2,0:1|0:0,0:0:0:0:
334,68,16703,2,0,P|295:115|213:104,1,132.00000402832,2|2,0:0|0:0,0:0:0:0:
163,31,17190,2,0,P|201:11|245:10,1,88.000002685547,8|0,0:1|0:0,0:0:0:0:
334,68,17579,5,0,1:0:0:0:
436,92,17774,2,0,P|449:36|482:-2,2,88.000002685547,2|8|2,0:0|0:1|0:0,0:0:0:0:
472,191,18359,2,0,L|378:184,1,88.000002685547,0|0,1:0|0:0,0:0:0:0:
346,221,18651,2,0,L|286:227,1,44.0000013427735,2|8,0:0|0:1,0:0:0:0:
210,278,18943,2,0,L|221:341,2,44.0000013427735,8|8|12,0:3|0:3|0:3,0:0:0:0:
145,201,19333,6,0,P|151:161|156:113,2,80,0|4|4,0:0|0:3|0:3,0:0:0:0:
51,178,19917,1,4,0:3:0:0:
51,178,20014,1,2,0:2:0:0:
51,178,20112,1,4,0:3:0:0:
70,272,20307,2,0,P|78:315|84:362,1,80,8|0,1:1|0:0,0:0:0:0:
178,346,20696,6,0,P|217:339|280:333,1,80,4|0,1:2|0:0,0:0:0:0:
352,349,21086,1,8,0:0:0:0:
356,351,21670,2,0,P|358:302|362:262,1,80,0|8,1:0|0:0,0:0:0:0:
227,131,22255,6,0,P|222:79|218:50,2,80,2|0|8,1:1|1:0|0:0,0:0:0:0:
294,198,22839,1,0,1:0:0:0:
298,200,23229,2,0,P|289:264|286:304,1,80,0|8,1:0|0:0,0:0:0:0:
208,334,23618,1,2,0:2:0:0:
117,366,23813,6,0,L|110:275,1,80,2|2,1:1|1:1,0:0:0:0:
41,218,24203,2,0,L|51:121,1,80,8|2,0:0|0:2,0:0:0:0:
40,42,24592,2,0,P|88:37|128:35,1,80,2|2,1:1|1:1,0:0:0:0:
152,71,24885,1,0,0:0:0:0:
152,71,24982,2,0,P|211:77|239:77,1,80,8|2,0:0|0:2,0:0:0:0:
314,28,25372,6,0,P|371:11|404:22,2,80,2|2|8,1:1|1:1|1:2,0:0:0:0:
231,77,25956,1,0,1:0:0:0:
279,159,26151,2,0,L|359:166,1,80,2|8,1:1|0:0,0:0:0:0:
401,142,26443,2,0,P|461:147|483:218,1,120,2|8,1:0|0:3,0:0:0:0:
465,238,26833,1,8,0:3:0:0:
465,238,26930,6,0,L|456:330,1,80,4|0,1:2|0:0,0:0:0:0:
367,353,27320,1,8,0:0:0:0:
363,351,27904,2,0,P|318:353|275:357,1,80,0|8,1:0|0:0,0:0:0:0:
104,286,28488,6,0,P|63:284|21:281,2,80,2|0|8,1:1|1:0|0:0,0:0:0:0:
188,239,29073,1,0,1:0:0:0:
190,235,29462,2,0,P|232:230|284:228,1,80,0|8,1:0|0:0,0:0:0:0:
349,282,29852,1,0,0:0:0:0:
438,317,30047,6,0,L|445:226,1,80,2|2,1:0|1:0,0:0:0:0:
484,210,30339,1,0,0:0:0:0:
484,210,30437,2,0,L|474:113,1,80,8|2,0:0|0:2,0:0:0:0:
472,34,30826,2,0,P|424:29|384:27,1,80,2|2,1:0|1:0,0:0:0:0:
308,76,31216,2,0,P|249:82|221:82,1,80,8|2,0:0|0:2,0:0:0:0:
132,95,31605,6,0,P|134:48|119:12,2,80,4|0|8,1:2|1:2|1:2,0:0:0:0:
39,70,32190,1,0,1:0:0:0:
24,165,32385,2,0,L|31:245,1,80,4|8,1:2|0:0,0:0:0:0:
59,283,32677,2,0,P|104:244|170:278,1,120,0|8,1:0|0:3,0:0:0:0:
253,318,33164,6,0,L|246:238,1,80,4|0,1:2|0:0,0:0:0:0:
282,206,33456,1,2,0:0:0:0:
282,206,33553,2,0,L|288:126,1,80,8|2,0:0|0:0,0:0:0:0:
277,30,33943,1,0,0:0:0:0:
181,41,34138,1,2,1:2:0:0:
192,137,34333,1,8,0:0:0:0:
375,80,34722,6,0,P|421:103|470:99,1,80,0|0,1:0|1:0,0:0:0:0:
495,91,35014,1,2,0:0:0:0:
495,91,35112,2,0,L|489:37,2,40,8|2|0,0:0|0:0|0:0,0:0:0:0:
510,185,35501,1,2,0:0:0:0:
429,246,35696,1,0,1:0:0:0:
368,165,35891,1,8,0:1:0:0:
225,37,36281,5,0,1:1:0:0:
154,101,36475,1,0,0:0:0:0:
154,101,36573,1,2,0:0:0:0:
154,101,36670,2,0,L|55:94,1,80,8|0,0:0|0:0,0:0:0:0:
5,162,37060,1,0,0:0:0:0:
74,231,37255,1,0,1:0:0:0:
74,231,37352,1,2,0:0:0:0:
74,231,37449,2,0,L|173:224,1,80,8|0,0:0|0:0,0:0:0:0:
224,291,37839,6,0,L|323:298,2,80,0|0|8,1:0|1:0|0:0,0:0:0:0:
158,361,38424,1,0,1:0:0:0:
63,374,38618,2,0,P|65:330|71:285,1,80,8|0,0:1|1:0,0:0:0:0:
13,215,39008,2,0,L|7:165,2,40,8|0|8,0:1|0:0|0:3,0:0:0:0:
109,182,39398,6,0,P|159:201|206:188,1,80,4|0,1:2|0:0,0:0:0:0:
263,143,39787,2,0,P|305:127|351:133,1,80,8|0,0:0|0:0,0:0:0:0:
383,148,40079,1,2,0:2:0:0:
383,148,40177,2,0,L|387:59,1,80,0|0,0:0|1:0,0:0:0:0:
458,4,40566,1,8,0:0:0:0:
477,98,40761,1,0,0:0:0:0:
301,20,41151,5,0,1:0:0:0:
302,116,41346,1,8,0:0:0:0:
302,116,41443,1,2,0:2:0:0:
302,116,41540,2,0,L|310:218,1,80,0|0,1:0|0:0,0:0:0:0:
231,254,41930,1,0,1:0:0:0:
299,320,42125,1,8,0:0:0:0:
299,320,42222,2,0,P|338:314|397:312,1,80,0|8,0:0|0:3,0:0:0:0:
420,288,42514,6,0,L|478:292,1,40,4|8,1:2|1:3,0:0:0:0:
465,194,42807,2,0,L|469:136,1,40,0|8,1:0|1:3,0:0:0:0:
372,145,43099,2,0,L|314:141,1,40,2|8,0:0|1:3,0:0:0:0:
327,239,43391,2,0,L|323:297,1,40,2|8,1:2|1:3,0:0:0:0:
231,254,43683,1,0,1:0:0:0:
216,253,43781,1,0,1:3:0:0:
201,252,43878,1,0,1:3:0:0:
186,251,43975,1,0,1:3:0:0:
171,250,44073,6,0,L|110:246,1,40,6|8,1:2|1:3,0:0:0:0:
35,218,44365,2,0,L|31:279,1,40,2|8,1:1|1:3,0:0:0:0:
1,352,44657,2,0,L|62:356,1,40,2|8,1:1|1:3,0:0:0:0:
137,384,44949,2,0,L|141:323,1,40,2|8,1:2|1:3,0:0:0:0:
234,363,45242,1,0,1:0:0:0:
249,362,45339,1,2,1:2:0:0:
264,361,45437,1,0,1:0:0:0:
279,360,45534,1,2,1:2:0:0:
294,359,45631,6,0,P|355:334|439:379,1,143.999995605469,4|4,1:0|1:2,0:0:0:0:
478,196,46411,2,0,P|425:217|359:199,1,107.999996704102,4|8,1:2|1:3,0:0:0:0:
253,142,46995,1,8,1:3:0:0:
253,142,47092,1,8,0:3:0:0:
253,142,47190,6,0,L|260:231,1,71.9999978027344,0|0,3:0|3:0,0:0:0:0:
171,247,47579,2,0,L|165:172,1,71.9999978027344,0|0,3:0|3:0,0:0:0:0:
86,123,47969,1,8,0:1:0:0:
44,39,48164,2,0,L|1:43,2,35.9999989013672,2|0|0,0:3|0:0|1:1,0:0:0:0:
133,9,48553,1,8,1:1:0:0:
212,74,48748,6,0,P|264:78|315:86,1,88.000002685547,4|0,1:0|0:0,0:0:0:0:
339,119,49040,1,2,0:0:0:0:
339,119,49138,2,0,L|386:113,1,44.0000013427735,8|2,0:1|0:0,0:0:0:0:
482,77,49430,2,0,P|474:140|467:211,1,132.00000402832,2|2,0:0|1:2,0:0:0:0:
490,311,49917,1,8,0:1:0:0:
387,334,50112,1,0,0:0:0:0:
364,231,50307,6,0,P|358:202|355:167,2,44.0000013427735,0|2|0,1:0|0:2|0:0,0:0:0:0:
286,304,50696,1,8,0:1:0:0:
286,304,50794,2,0,L|188:297,1,88.000002685547,2|2,0:2|0:2,0:0:0:0:
159,261,51086,2,0,L|94:270,2,44.0000013427735,0|0|2,1:0|0:0|0:2,0:0:0:0:
194,161,51475,2,0,L|292:168,1,88.000002685547,8|2,0:1|0:2,0:0:0:0:
359,94,51865,5,0,1:0:0:0:
277,26,52060,1,0,0:0:0:0:
277,26,52157,1,2,0:2:0:0:
277,26,52255,2,0,P|208:32|180:56,1,88.000002685547,8|2,0:1|0:2,0:0:0:0:
88,30,52644,2,0,P|94:76|96:147,1,88.000002685547,0|0,1:0|0:0,0:0:0:0:
64,159,52937,2,0,P|61:190|60:224,1,44.0000013427735,2|8,0:2|0:1,0:0:0:0:
89,304,53229,1,2,0:0:0:0:
186,262,53424,6,0,P|234:264|282:269,2,88.000002685547,0|2|8,1:0|0:2|1:0,0:0:0:0:
201,366,54008,2,0,L|252:363,1,44.0000013427735,0|8,0:0|0:3,0:0:0:0:
295,379,54203,2,0,P|339:349|393:366,1,88.000002685547,8|8,0:3|1:3,0:0:0:0:
417,378,54495,1,0,0:0:0:0:
417,378,54592,2,0,P|412:339|439:293,1,88.000002685547,8|0,1:0|0:0,0:0:0:0:
506,219,54982,6,0,B|494:206|480:200|480:200|485:140,1,88.000002685547,4|2,1:0|0:0,0:0:0:0:
381,120,55372,2,0,P|385:144|388:171,1,44.0000013427735,8|2,0:1|0:0,0:0:0:0:
343,259,55664,2,0,P|285:241|253:241,1,88.000002685547,2|0,0:0|0:0,0:0:0:0:
205,247,55956,1,2,0:0:0:0:
108,288,56151,2,0,L|117:189,1,88.000002685547,8|2,0:1|0:0,0:0:0:0:
34,132,56540,6,0,L|27:75,3,44.0000013427735,0|2|0|2,1:0|0:0|0:0|0:0,0:0:0:0:
9,38,56930,2,0,B|43:15|43:15|109:29,1,88.000002685547,8|0,0:1|0:0,0:0:0:0:
131,56,57222,2,0,B|170:73|170:73|209:48|259:51,1,132.00000402832,2|2,0:0|0:0,0:0:0:0:
359,70,57709,2,0,L|414:63,2,44.0000013427735,8|2|0,0:1|0:0|0:0,0:0:0:0:
288,149,58099,5,0,1:0:0:0:
266,252,58294,2,0,P|216:270|185:310,2,88.000002685547,2|8|2,0:0|0:1|0:0,0:0:0:0:
369,283,58878,2,0,L|362:189,1,88.000002685547,2|0,1:2|0:0,0:0:0:0:
409,170,59170,2,0,L|415:110,1,44.0000013427735,2|8,0:2|0:1,0:0:0:0:
339,51,59462,2,0,L|296:53,1,44.0000013427735,8|0,0:3|0:0,0:0:0:0:
243,42,59657,5,8,1:3:0:0:
207,141,59852,1,8,0:3:0:0:
106,108,60047,1,8,0:1:0:0:
128,211,60242,1,0,0:0:0:0:
25,250,60437,2,0,L|33:191,2,44.0000013427735,8|0|8,1:3|0:0|0:3,0:0:0:0:
12,355,60826,2,0,P|74:343|122:357,1,88.000002685547,8|0,0:1|0:0,0:0:0:0:
189,292,61216,5,4,1:0:0:0:
266,363,61411,2,0,L|355:356,2,88.000002685547,8|8|8,0:3|0:1|0:3,0:0:0:0:
189,292,61995,2,0,P|194:245|198:197,1,88.000002685547,0|8,1:0|0:3,0:0:0:0:
298,170,62385,2,0,P|302:212|309:267,1,88.000002685547,8|8,0:1|0:3,0:0:0:0:
406,295,62774,1,0,1:0:0:0:
406,295,62969,1,8,0:3:0:0:
464,206,63164,1,8,0:1:0:0:
464,206,63359,1,8,0:3:0:0:
395,126,63553,2,0,P|398:79|404:31,2,88.000002685547,0|8|8,1:0|0:3|0:1,0:0:0:0:
192,61,64333,5,4,1:2:0:0:
130,146,64527,1,8,0:3:0:0:
130,146,64625,1,8,0:3:0:0:
130,146,64722,2,0,P|138:194|148:246,1,88.000002685547,8|8,0:1|0:3,0:0:0:0:
138,338,65112,2,0,P|93:317|47:299,1,88.000002685547,0|8,1:0|0:3,0:0:0:0:
5,211,65501,1,8,0:1:0:0:
5,211,65696,1,8,0:3:0:0:
86,143,65891,6,0,L|142:147,1,44.0000013427735,2|8,1:1|1:3,0:0:0:0:
224,98,66183,2,0,L|237:152,1,44.0000013427735,2|8,1:1|1:3,0:0:0:0:
309,216,66475,2,0,L|261:245,1,44.0000013427735,2|8,1:2|1:3,0:0:0:0:
223,333,66768,2,0,L|180:296,1,44.0000013427735,2|8,1:2|1:3,0:0:0:0:
85,288,67060,1,2,1:1:0:0:
91,275,67157,1,0,1:0:0:0:
97,262,67255,1,2,1:2:0:0:
103,249,67352,1,0,1:0:0:0:
109,236,67449,1,4,1:2:0:0:
109,236,69008,6,0,P|51:237|-3:233,2,107.999996704102,6|2|2,1:1|1:1|1:1,0:0:0:0:
182,178,69787,1,2,0:0:0:0:
182,178,69982,1,2,0:0:0:0:
261,226,70177,2,0,L|297:217,3,35.9999989013672,2|2|2|2,0:0|0:0|0:0|0:0,0:0:0:0:
341,203,70566,6,0,P|346:261|353:319,2,107.999996704102,4|2|2,1:2|1:1|1:1,0:0:0:0:
397,128,71346,1,2,0:0:0:0:
397,128,71540,1,2,0:0:0:0:
316,79,71735,2,0,L|268:84,3,35.9999989013672,2|2|0|2,0:0|0:0|0:0|0:0,0:0:0:0:
233,88,72125,6,0,P|230:63|223:29,2,35.9999989013672,4|8|0,1:2|0:3|1:0,0:0:0:0:
238,182,72514,1,0,1:0:0:0:
143,181,72709,6,0,P|118:182|84:186,2,35.9999989013672,4|8|0,1:2|0:3|1:0,0:0:0:0:
238,182,73099,1,0,1:0:0:0:
230,277,73294,6,0,P|230:302|232:336,2,35.9999989013672,4|8|0,1:2|0:3|1:0,0:0:0:0:
325,285,73683,6,0,P|351:285|384:283,1,35.9999989013672,4|8,1:2|1:3,0:0:0:0:
333,190,73975,2,0,P|334:164|332:130,1,35.9999989013672,4|8,1:2|1:3,0:0:0:0:
238,182,74268,2,0,P|213:181|179:183,1,35.9999989013672,4|8,1:2|1:3,0:0:0:0:
230,277,74560,2,0,P|230:302|232:336,1,35.9999989013672,4|8,1:2|1:3,0:0:0:0:
139,335,74852,1,4,1:2:0:0:
138,320,74949,1,8,1:3:0:0:
137,305,75047,1,8,1:3:0:0:
136,290,75144,1,8,1:3:0:0:
135,275,75242,6,0,B|131:231|131:231|72:243|24:210|16:140,1,192,2|0,3:2|3:0,0:0:0:0:
109,141,76021,1,8,0:0:0:0:
113,145,76216,1,2,0:0:0:0:
52,72,76411,2,0,L|60:4,1,64
160,18,76800,6,0,L|169:60,1,40,2|8,1:1|1:3,0:0:0:0:
269,44,77092,2,0,L|260:86,1,40,2|8,1:1|1:3,0:0:0:0:
361,69,77385,1,2,1:2:0:0:
361,69,77482,2,0,L|387:228,1,160,8|4,1:3|0:3,0:0:0:0:
