osu file format v14

[General]
AudioFilename: audio.mp3
AudioLeadIn: 0
PreviewTime: 48748
Countdown: 0
SampleSet: Soft
StackLeniency: 0.2
Mode: 0
LetterboxInBreaks: 0
WidescreenStoryboard: 0

[Editor]
DistanceSpacing: 0.6
BeatDivisor: 8
GridSize: 32
TimelineZoom: 2.7

[Metadata]
Title:Nakayoshi Sensation
TitleUnicode:なかよしセンセーション
Artist:Yuni (CV: Kohara Konomi), Chieru (CV: Sakura Ayane), Chloe (CV: Tanezaki Atsumi)
ArtistUnicode:ユニ (CV: 小原好美)、チエル (CV: 佐倉綾音)、クロエ (CV: 種崎敦美)
Creator:Yorita Yoshino
Version:Another
Source:プリンセスコネクト!Re:Dive
Tags:授けの財団と聖なる学舎の異端児 PCR Princess Connect priconne プリコネ Ending ED なかよし部 Japanese Video Game Cygames ak74 Gust VoiceCore superdaloubot kanor -ClariS- yf_bmp ak74qbz95xm8 pop
BeatmapID:2564913
BeatmapSetID:1233855

[Difficulty]
HPDrainRate:5
CircleSize:4.5
OverallDifficulty:8
ApproachRate:9
SliderMultiplier:1.8
SliderTickRate:1

[Events]
//Background and Video events
0,0,"980db2d3644b5582af8e918d178064b6.jpg",0,0
//Break Periods
//Storyboard Layer 0 (Background)
//Storyboard Layer 1 (Fail)
//Storyboard Layer 2 (Pass)
//Storyboard Layer 3 (Foreground)
//Storyboard Layer 4 (Overlay)
//Storyboard Sound Samples

[TimingPoints]
437,389.61038961039,4,2,1,65,1,0
437,-125,4,2,1,65,0,0
3553,-125,4,2,1,75,0,0
4138,-125,4,2,1,75,0,0
4722,-125,4,2,1,75,0,0
5112,-125,4,2,1,80,0,0
7839,-83.3333333333333,4,2,1,80,0,0
8034,-83.3333333333333,4,2,2,80,0,0
8229,-50,4,2,1,85,0,1
8521,-50,4,2,2,85,0,1
8618,-50,4,2,1,85,0,1
8911,-50,4,2,2,85,0,1
9008,-50,4,2,1,85,0,1
10761,-50,4,2,2,85,0,1
10859,-50,4,2,1,85,0,1
11151,-50,4,2,2,85,0,1
11346,-50,4,2,1,85,0,1
11540,-50,4,2,2,85,0,1
11735,-50,4,2,1,85,0,1
11930,-50,4,2,2,85,0,1
12027,-50,4,2,1,85,0,1
12125,-50,4,2,1,85,0,1
12417,-50,4,2,2,85,0,1
12904,-50,4,2,1,85,0,1
13294,-50,4,2,1,85,0,1
14657,-50,4,2,2,85,0,1
14755,-50,4,2,1,85,0,1
15144,-50,4,2,2,85,0,1
15534,-50,4,2,1,85,0,1
15826,-50,4,2,2,85,0,1
15924,-50,4,2,1,85,0,1
16703,-50,4,2,2,85,0,1
16898,-50,4,2,2,5,0,1
16995,-50,4,2,2,85,0,1
17092,-50,4,2,1,85,0,1
17385,-50,4,2,2,85,0,1
17482,-50,4,2,1,85,0,1
18456,-50,4,2,2,85,0,1
18748,-50,4,2,1,85,0,1
19138,-50,4,2,1,85,0,0
19333,-50,4,2,1,80,0,0
20307,-50,4,2,2,80,0,0
20501,-50,4,2,1,10,0,0
20696,-100,4,2,1,75,0,0
22742,-100,4,2,1,75,0,0
22839,-100,4,2,1,75,0,0
26151,-57.1428571428571,4,2,1,75,0,0
26443,-66.6666666666667,4,2,1,75,0,0
26930,-100,4,2,1,75,0,0
28586,-100,4,2,1,75,0,0
28683,-100,4,2,1,75,0,0
28878,-100,4,2,1,75,0,0
28975,-100,4,2,1,75,0,0
29073,-100,4,2,1,75,0,0
32385,-57.1428571428571,4,2,1,75,0,0
32677,-66.6666666666667,4,2,1,75,0,0
33164,-100,4,2,1,80,0,0
42125,-100,4,2,1,80,0,0
42514,-100,4,2,1,80,0,0
45631,-50,4,2,1,80,0,0
46021,-133.333333333333,4,2,1,80,0,0
46411,-50,4,2,1,80,0,0
48359,-50,4,2,2,80,0,0
48748,-50,4,2,1,80,0,1
48846,-50,4,2,1,80,0,1
48943,-50,4,2,2,80,0,1
49040,-50,4,2,1,80,0,1
49138,-50,4,2,1,80,0,1
49235,-50,4,2,2,80,0,1
49333,-50,4,2,1,80,0,1
49430,-50,4,2,2,80,0,1
49527,-50,4,2,1,80,0,1
50112,-50,4,2,2,80,0,1
50209,-50,4,2,1,80,0,1
51281,-50,4,2,2,80,0,1
51475,-50,4,2,1,80,0,1
51670,-50,4,2,2,80,0,1
51865,-50,4,2,1,80,0,1
52060,-50,4,2,2,80,0,1
52255,-50,4,2,1,80,0,1
52449,-50,4,2,2,80,0,1
52547,-50,4,2,1,80,0,1
52937,-50,4,2,2,80,0,1
53424,-50,4,2,1,80,0,1
55664,-50,4,2,2,80,0,1
56053,-50,4,2,1,80,0,1
56346,-50,4,2,2,80,0,1
56443,-50,4,2,1,80,0,1
57514,-50,4,2,2,80,0,1
57612,-50,4,2,1,80,0,1
57904,-50,4,2,2,80,0,1
58001,-50,4,2,1,80,0,1
58975,-50,4,2,2,80,0,1
59268,-50,4,2,1,80,0,1
64333,-200,4,2,1,80,0,1
65891,-66.6666666666667,4,2,1,80,0,1
67449,-50,4,2,1,80,0,0
69008,-125,4,2,1,65,0,0
72125,-125,4,2,1,75,0,0
73683,-125,4,2,1,80,0,0
76411,-83.3333333333333,4,2,1,80,0,0
76605,-83.3333333333333,4,2,2,80,0,0
76800,-83.3333333333333,4,2,1,75,0,0
77482,-125,4,2,1,75,0,0
77872,-33.3333333333333,4,2,1,75,0,0
77969,-33.3333333333333,4,2,1,5,0,0

[Colours]
Combo1 : 164,250,146
Combo2 : 249,145,173
Combo3 : 237,128,69
Combo4 : 243,210,95

[HitObjects]
160,190,437,6,0,B|141:215|141:215|150:309,2,108,6|2|2,1:1|1:1|1:1,0:0:0:0:
217,242,1216,1,2,0:0:0:0:
86,335,1411,1,2,0:0:0:0:
224,325,1605,2,0,L|219:363,3,36,2|2|2|2,0:0|0:0|0:0|0:0,0:0:0:0:
296,309,1995,6,0,P|343:296|382:356,2,108,4|2|2,1:2|1:1|1:1,0:0:0:0:
320,383,2774,5,2,0:0:0:0:
369,264,2969,1,2,0:0:0:0:
456,362,3164,2,0,L|508:352,3,36,2|2|0|2,0:0|0:0|0:0|0:0,0:0:0:0:
369,264,3553,5,4,1:2:0:0:
336,260,3651,1,8,0:3:0:0:
305,258,3748,1,0,1:0:0:0:
327,331,3943,1,0,1:0:0:0:
249,204,4138,5,4,1:2:0:0:
209,199,4236,1,8,0:3:0:0:
172,196,4333,1,0,1:0:0:0:
198,284,4528,1,0,1:0:0:0:
143,125,4722,5,4,1:2:0:0:
95,119,4820,1,8,0:3:0:0:
50,115,4917,1,0,1:0:0:0:
81,221,5112,5,4,1:2:0:0:
85,203,5209,1,8,1:3:0:0:
110,44,5404,5,4,1:2:0:0:
138,50,5501,1,8,1:3:0:0:
287,73,5696,5,4,1:2:0:0:
274,111,5793,1,8,1:3:0:0:
258,250,5988,5,4,1:2:0:0:
210,235,6085,1,8,1:3:0:0:
81,221,6281,5,4,1:2:0:0:
81,238,6378,1,8,1:3:0:0:
75,255,6475,1,8,1:3:0:0:
64,269,6573,1,8,1:3:0:0:
47,278,6670,5,2,3:2:0:0:
82,273,6767,1,0,3:0:0:0:
117,280,6864,1,0,3:0:0:0:
147,299,6962,1,0,3:0:0:0:
170,327,7060,2,0,L|165:356,6,18,0|0|0|0|0|0|0,3:0|3:0|3:0|0:0|3:0|3:0|3:0,0:0:0:0:
382,333,7449,5,8,0:0:0:0:
346,328,7546,1,0,0:0:0:0:
311,335,7643,1,2,0:3:0:0:
281,354,7741,1,2,0:2:0:0:
258,381,7839,2,0,L|270:252,1,107.999996704102,0|8,0:0|0:1,0:0:0:0:
341,25,8229,6,0,P|397:14|466:111,1,180,4|0,1:1|0:0,0:0:0:0:
405,158,8521,1,0,0:0:0:0:
405,158,8618,2,0,P|364:134|322:137,1,90,8|2,0:1|0:2,0:0:0:0:
490,184,8813,1,0,0:0:0:0:
490,184,8911,6,0,B|506:140|466:101|466:101|376:178|441:264,1,270,2|2,0:2|0:2,0:0:0:0:
296,322,9398,2,0,P|383:316|449:374,1,180,8|2,0:1|0:2,0:0:0:0:
214,342,9787,5,0,1:0:0:0:
215,322,9884,1,2,0:2:0:0:
217,302,9981,1,0,0:0:0:0:
219,282,10079,1,2,0:2:0:0:
134,365,10177,5,8,0:1:0:0:
136,335,10274,1,2,0:2:0:0:
139,305,10372,1,0,0:0:0:0:
142,275,10468,1,0,0:0:0:0:
145,245,10566,6,0,P|101:253|63:231,1,90,2|2,1:2|0:2,0:0:0:0:
34,154,10761,1,2,0:0:0:0:
34,154,10956,6,0,P|63:187|63:231,1,90,8|2,0:1|0:2,0:0:0:0:
10,295,11151,1,2,0:0:0:0:
10,295,11346,6,0,P|24:253|62:231,1,90,0|0,1:0|0:0,0:0:0:0:
144,245,11540,1,0,0:0:0:0:
141,275,11638,1,2,0:2:0:0:
138,304,11735,2,0,P|205:362|286:306,1,180,8|2,0:1|0:2,0:0:0:0:
195,20,12125,6,0,B|211:123|211:123|189:172|189:172|213:295,2,270,0|2|2,1:0|0:2|0:2,0:0:0:0:
94,157,12904,6,0,P|93:71|-2:75,1,180,0|2,1:0|0:2,0:0:0:0:
292,187,13294,2,0,P|210:200|212:283,1,180,8|8,0:1|0:3,0:0:0:0:
368,122,13683,6,0,P|379:78|373:34,1,90,8|8,1:3|0:3,0:0:0:0:
406,210,13878,1,8,0:3:0:0:
437,204,13975,1,8,0:3:0:0:
467,199,14073,2,0,B|440:244|466:287|466:287|490:332|458:378,1,180,8|0,0:1|0:0,0:0:0:0:
275,331,14462,6,0,L|374:338,1,90,4|2,1:2|0:2,0:0:0:0:
217,247,14657,2,0,L|118:254,1,90,2|2,0:0|0:2,0:0:0:0:
308,183,14852,2,0,L|407:190,1,90,8|2,0:1|0:0,0:0:0:0:
196,111,15046,5,0,0:0:0:0:
196,111,15144,2,0,P|119:150|116:46,1,180,2|0,0:0|0:0,0:0:0:0:
152,48,15437,1,2,0:0:0:0:
44,275,15631,6,0,B|88:274|88:274|127:298,1,90,8|2,0:1|0:0,0:0:0:0:
69,344,15826,1,2,0:0:0:0:
297,334,16021,6,0,B|324:291|300:247|300:247|248:253|229:303,1,180,2|0,1:2|0:0,0:0:0:0:
381,361,16313,1,2,0:0:0:0:
381,361,16411,2,0,P|398:273|348:171,1,180,8|0,0:1|0:0,0:0:0:0:
512,141,16703,6,0,P|467:141|396:36,1,180,2|0,0:0|0:0,0:0:0:0:
395,40,16995,1,2,0:0:0:0:
395,40,17190,6,0,P|417:78|362:192,1,180,8|2,0:1|0:0,0:0:0:0:
168,139,17579,5,0,1:0:0:0:
161,110,17677,1,0,0:0:0:0:
156,82,17774,2,0,B|224:81|224:81|274:102|274:102|347:103,2,180,2|8|2,0:0|0:1|0:0,0:0:0:0:
58,298,18359,5,0,1:2:0:0:
58,298,18456,2,0,P|55:255|9:224,1,90
12,384,18651,2,0,P|88:303|258:371,1,270,2|8,0:0|0:3,0:0:0:0:
232,332,19040,1,8,0:3:0:0:
232,332,19138,1,12,0:3:0:0:
448,282,19333,5,0,0:0:0:0:
425,279,19430,1,2,0:0:0:0:
403,277,19527,1,4,0:3:0:0:
380,274,19625,1,2,0:0:0:0:
358,272,19722,1,4,0:3:0:0:
90,213,19917,5,4,0:3:0:0:
126,208,20014,1,2,0:2:0:0:
162,204,20111,1,4,0:3:0:0:
200,199,20209,1,4,0:3:0:0:
236,196,20307,2,0,P|229:124|109:194,1,270,8|0,1:1|0:0,0:0:0:0:
126,208,20696,6,0,B|153:266|110:324|110:324|81:298|22:312,1,180,4|8,1:2|0:0,0:0:0:0:
57,307,21670,5,0,1:0:0:0:
174,375,21865,1,8,0:0:0:0:
508,140,22255,5,2,1:1:0:0:
418,193,22449,1,0,1:0:0:0:
314,154,22644,2,0,L|317:87,1,45,8|0,0:0|0:0,0:0:0:0:
355,80,22839,2,0,P|276:69|332:9,1,180,0|0,1:0|1:0,0:0:0:0:
313,7,23424,6,0,P|356:27|359:75,1,90,8|2,0:0|0:2,0:0:0:0:
221,0,23813,5,2,1:1:0:0:
318,52,24008,1,2,1:1:0:0:
318,52,24105,1,0,0:0:0:0:
318,52,24203,2,0,L|304:166,1,90,8|2,0:0|0:2,0:0:0:0:
147,82,24592,5,2,1:1:0:0:
50,134,24787,1,2,1:1:0:0:
50,134,24884,1,0,0:0:0:0:
50,134,24982,2,0,L|64:248,1,90,8|2,0:0|0:2,0:0:0:0:
0,355,25372,6,0,P|33:326|81:327,1,90,2|2,1:1|1:1,0:0:0:0:
154,266,25761,2,0,P|197:269|231:304,1,90,8|0,1:2|1:0,0:0:0:0:
420,341,26151,6,0,B|433:361|415:378|415:378|382:351|408:305|408:305|422:283|419:264,1,157.500001502037,2|0,1:1|0:0,0:0:0:0:
417,246,26443,1,2,1:0:0:0:
384,57,26638,5,8,0:3:0:0:
424,80,26735,1,8,0:3:0:0:
468,72,26833,1,8,0:3:0:0:
494,37,26930,6,0,B|457:14|457:14|299:40,1,180,4|8,1:2|0:0,0:0:0:0:
322,36,27904,5,0,1:0:0:0:
198,14,28099,1,8,0:0:0:0:
28,138,28488,6,0,L|93:145,1,45,2|0,1:1|0:0,0:0:0:0:
138,204,28683,6,0,L|203:197,1,45,0|0,1:0|0:0,0:0:0:0:
21,260,28878,6,0,L|86:267,1,45,8|0,0:0|0:0,0:0:0:0:
209,277,29073,6,0,B|226:318|202:363|202:363|135:344|135:276,1,180,0|0,1:0|1:0,0:0:0:0:
138,305,29657,6,0,P|135:352|100:375,1,90,8|0,0:0|0:0,0:0:0:0:
21,331,30047,5,2,1:0:0:0:
61,179,30242,1,2,1:0:0:0:
61,179,30339,1,0,0:0:0:0:
61,179,30437,2,0,L|70:281,1,90,8|2,0:0|0:2,0:0:0:0:
216,211,30826,5,2,1:0:0:0:
176,59,31021,1,2,1:0:0:0:
176,59,31118,1,0,0:0:0:0:
176,59,31216,2,0,L|167:161,1,90,8|2,0:0|0:2,0:0:0:0:
228,342,31605,6,0,B|253:353|253:353|349:334,1,90,4|0,1:2|1:2,0:0:0:0:
354,217,31995,2,0,B|329:206|329:206|233:225,1,90,8|0,1:2|1:0,0:0:0:0:
224,363,32385,6,0,B|249:374|249:374|384:347,1,157.500001502037,4|0,1:2|0:0,0:0:0:0:
403,342,32677,1,0,1:0:0:0:
438,126,32872,5,8,0:3:0:0:
401,154,32970,1,8,0:3:0:0:
404,200,33067,1,8,0:3:0:0:
437,230,33164,6,0,L|460:33,1,180,4|8,1:2|0:0,0:0:0:0:
130,0,34138,5,2,1:2:0:0:
68,69,34333,2,0,L|79:183,1,90,8|0,0:0|0:0,0:0:0:0:
4,330,34722,5,0,1:0:0:0:
90,265,34917,1,0,1:0:0:0:
189,306,35112,1,8,0:0:0:0:
373,87,35696,5,0,1:0:0:0:
373,86,35891,2,0,P|328:92|289:55,1,90,8|0,0:1|0:0,0:0:0:0:
458,13,36281,6,0,P|408:79|423:174,1,180,0|8,1:1|0:0,0:0:0:0:
106,369,37255,5,0,1:0:0:0:
26,318,37449,2,0,L|39:211,1,90,8|0,0:0|0:0,0:0:0:0:
157,79,37839,5,0,1:0:0:0:
208,150,38034,2,0,P|122:160|71:89,1,180,0|0,1:2|1:0,0:0:0:0:
71,92,38813,1,0,1:0:0:0:
208,150,39008,1,8,0:2:0:0:
0,340,39398,6,0,B|70:329|70:329|97:344|97:344|174:331,1,180,4|8,1:2|0:0,0:0:0:0:
458,222,40372,5,0,1:0:0:0:
490,300,40566,2,0,L|375:281,1,90,8|0,0:0|0:0,0:0:0:0:
329,200,40956,5,0,1:0:0:0:
244,272,41151,1,0,1:0:0:0:
316,357,41346,1,8,0:0:0:0:
401,285,41541,1,0,1:0:0:0:
110,372,41930,5,0,1:0:0:0:
110,372,42125,1,8,0:0:0:0:
107,349,42222,1,0,0:0:0:0:
105,327,42319,1,8,0:3:0:0:
102,304,42417,1,8,0:3:0:0:
100,282,42514,5,4,1:2:0:0:
104,255,42612,1,8,1:3:0:0:
211,317,42807,5,0,1:0:0:0:
192,292,42905,1,8,1:3:0:0:
316,261,43099,5,2,0:0:0:0:
280,255,43197,1,8,1:3:0:0:
350,144,43391,5,2,1:2:0:0:
317,167,43489,1,8,1:3:0:0:
468,55,43683,5,0,1:0:0:0:
423,50,43780,1,0,1:3:0:0:
378,46,43877,1,0,1:3:0:0:
333,42,43975,1,0,1:3:0:0:
288,40,44073,5,6,1:2:0:0:
280,79,44171,1,8,1:3:0:0:
169,6,44365,5,2,1:1:0:0:
192,42,44463,1,8,1:3:0:0:
59,70,44657,5,2,1:1:0:0:
104,79,44755,1,8,1:3:0:0:
26,196,44949,5,2,1:2:0:0:
67,167,45047,1,8,1:3:0:0:
100,282,45242,5,0,1:0:0:0:
102,270,45339,1,2,1:2:0:0:
104,255,45437,5,0,1:0:0:0:
113,309,45534,1,2,1:2:0:0:
121,358,45631,2,0,P|200:275|247:380,1,270,4|0,1:0|0:0,0:0:0:0:
226,306,46021,6,0,L|245:193,1,101.250003862381,4|0,1:2|0:0,0:0:0:0:
283,144,46411,6,0,B|321:182|321:182|444:156,1,180,4|0,1:2|0:0,0:0:0:0:
478,91,46703,2,0,B|439:52|439:52|316:78,1,180,8|0,1:3|0:0,0:0:0:0:
244,85,46995,1,8,1:3:0:0:
176,59,47092,1,8,0:3:0:0:
133,0,47190,5,0,3:0:0:0:
140,16,47287,1,0,3:0:0:0:
145,51,47385,1,0,3:0:0:0:
122,99,47482,1,0,3:0:0:0:
72,120,47579,5,0,3:0:0:0:
111,82,47677,1,0,3:0:0:0:
164,89,47774,1,0,3:0:0:0:
192,135,47872,1,0,0:0:0:0:
182,187,47969,5,8,0:1:0:0:
182,187,48066,2,0,L|72:200,1,90,0|2,0:0|0:3,0:0:0:0:
71,358,48261,5,0,0:0:0:0:
71,358,48359,2,0,B|24:325|24:325|168:311,1,180,0|8,1:1|1:1,0:0:0:0:
399,355,48748,6,0,P|341:365|300:349,1,90,4|2,1:0|0:0,0:0:0:0:
363,282,48943,2,0,P|315:248|297:207,1,90,2|2,0:0|0:0,0:0:0:0:
389,204,49138,1,8,0:1:0:0:
389,204,49235,2,0,P|378:146|395:104,1,90,2|0,0:0|0:0,0:0:0:0:
512,91,49430,6,0,P|417:126|322:6,1,270,2|2,0:0|1:2,0:0:0:0:
336,267,49917,6,0,L|350:384,1,90,8|2,0:1|0:2,0:0:0:0:
251,253,50112,2,0,L|265:370,1,90,2|0,0:0|0:0,0:0:0:0:
170,274,50307,5,0,1:0:0:0:
174,304,50404,1,2,0:2:0:0:
178,334,50501,2,0,L|159:194,1,90,0|2,0:0|0:2,0:0:0:0:
111,3,50696,1,8,0:1:0:0:
111,3,50794,2,0,L|86:196,1,180,2|2,0:2|0:2,0:0:0:0:
166,245,51086,6,0,P|118:206|32:275,1,180,0|2,1:2|0:2,0:0:0:0:
32,264,51475,6,0,P|79:302|167:239,1,180,8|2,0:1|0:2,0:0:0:0:
166,244,51865,6,0,L|173:154,1,90,0|0,1:0|0:0,0:0:0:0:
265,356,52060,1,0,0:0:0:0:
259,328,52157,1,2,0:2:0:0:
254,299,52255,2,0,P|339:262|400:360,1,180,8|2,0:1|0:2,0:0:0:0:
469,190,52644,6,0,B|478:124|478:124|407:84|407:84|389:221,2,270,0|2|2,1:0|0:2|0:0,0:0:0:0:
118,208,53423,6,0,B|99:115|99:115|139:20,1,180,0|2,1:0|0:2,0:0:0:0:
294,48,53813,2,0,B|313:141|313:141|273:236,1,180,8|0,1:0|0:0,0:0:0:0:
118,208,54203,6,0,P|75:195|21:211,1,90,8|8,0:3|0:3,0:0:0:0:
236,343,54398,1,8,1:3:0:0:
236,313,54495,1,8,0:3:0:0:
237,276,54592,2,0,B|278:298|320:279|320:279|366:257|415:291,1,180,8|0,1:0|0:0,0:0:0:0:
41,354,54982,6,0,B|13:339|13:339|4:227|4:227|42:196,1,180,4|2,1:0|0:0,0:0:0:0:
237,276,55372,1,8,0:1:0:0:
231,303,55469,1,2,0:0:0:0:
208,325,55566,1,0,0:0:0:0:
180,328,55664,6,0,P|263:271|339:342,1,180,2|0,0:0|0:0,0:0:0:0:
266,384,55956,1,2,0:0:0:0:
480,299,56151,6,0,P|447:270|408:287,1,90,8|0,0:1|0:0,0:0:0:0:
433,357,56346,1,2,0:0:0:0:
375,122,56540,5,0,1:0:0:0:
379,92,56637,1,2,0:0:0:0:
384,62,56734,1,0,0:0:0:0:
389,33,56832,1,2,0:0:0:0:
292,63,56930,5,8,0:1:0:0:
336,71,57027,1,0,0:0:0:0:
380,79,57124,1,0,0:0:0:0:
424,88,57222,1,2,0:0:0:0:
467,96,57320,6,0,B|450:169|450:169|466:196|466:196|447:277,1,180,0|2,1:0|0:0,0:0:0:0:
445,271,57709,5,8,0:1:0:0:
441,275,57807,2,0,L|369:203,1,90,2|2,0:0|0:0,0:0:0:0:
170,247,58099,5,0,1:0:0:0:
173,276,58197,1,0,0:0:0:0:
177,305,58294,2,0,B|132:336|132:336|-11:303,2,180,2|8|2,0:0|0:1|0:0,0:0:0:0:
431,371,58878,5,0,1:2:0:0:
431,371,58975,2,0,P|381:353|329:367,1,90,2|0,0:0|0:0,0:0:0:0:
314,291,59170,2,0,P|369:222|473:339,1,270,2|8,0:2|0:3,0:0:0:0:
476,320,59560,1,0,0:0:0:0:
472,324,59657,6,0,L|481:201,1,90,8|0,1:3|0:0,0:0:0:0:
486,134,59852,2,0,L|479:223,1,90,8|0,0:3|0:0,0:0:0:0:
387,335,60047,6,0,L|396:212,1,90,8|8,0:1|0:3,0:0:0:0:
403,121,60242,2,0,L|393:243,1,90,0|8,0:0|0:3,0:0:0:0:
297,357,60437,6,0,L|306:234,1,90,8|0,1:3|0:0,0:0:0:0:
316,109,60631,2,0,L|306:231,1,90,8|0,1:3|0:0,0:0:0:0:
212,378,60826,6,0,P|151:264|66:371,1,270,8|0,0:1|0:0,0:0:0:0:
142,342,61216,5,4,1:0:0:0:
406,306,61605,5,8,0:1:0:0:
370,42,61995,5,0,1:0:0:0:
106,78,62385,5,8,0:1:0:0:
389,168,62774,5,0,1:0:0:0:
389,168,62969,1,8,0:3:0:0:
273,325,63163,5,8,0:1:0:0:
273,325,63359,1,8,0:3:0:0:
116,209,63553,5,0,1:0:0:0:
116,209,63748,1,8,0:3:0:0:
233,52,63942,5,8,0:1:0:0:
233,52,64138,1,8,0:3:0:0:
191,272,64333,5,4,1:2:0:0:
210,283,64430,1,0,0:0:0:0:
231,288,64527,1,8,0:3:0:0:
253,284,64625,1,8,0:3:0:0:
336,250,64722,5,8,0:1:0:0:
347,230,64819,1,8,0:3:0:0:
352,209,64916,1,8,0:3:0:0:
348,187,65014,1,8,0:3:0:0:
315,106,65112,5,0,1:0:0:0:
295,94,65209,1,8,0:3:0:0:
274,89,65306,1,8,0:3:0:0:
252,93,65404,1,8,0:3:0:0:
170,127,65501,5,8,0:1:0:0:
158,146,65598,1,8,0:3:0:0:
153,167,65695,1,8,0:3:0:0:
157,189,65793,1,8,0:3:0:0:
191,272,65891,5,2,1:1:0:0:
225,292,65988,2,0,L|205:356,1,67.5000025749208,8|0,1:3|0:0,1:3:0:0:
336,250,66183,5,2,1:1:0:0:
356,223,66281,2,0,L|420:242,1,67.5000025749208,8|0,1:3|0:0,1:3:0:0:
315,106,66475,5,2,1:1:0:0:
287,92,66573,2,0,L|306:27,1,67.5000025749208,8|0,1:3|0:0,1:3:0:0:
170,128,66767,5,2,1:1:0:0:
156,161,66865,2,0,L|91:141,1,67.5000025749208,8|0,1:3|0:0,1:3:0:0:
47,266,67060,5,2,1:1:0:0:
92,263,67157,1,0,1:0:0:0:
137,258,67254,1,2,1:2:0:0:
181,254,67352,1,0,1:0:0:0:
227,250,67449,1,4,1:2:0:0:
58,102,69008,6,0,L|189:97,2,108,6|2|2,1:1|1:1|1:1,0:0:0:0:
15,42,69787,1,2,0:0:0:0:
120,188,69982,1,2,0:0:0:0:
195,32,70177,2,0,L|265:36,3,36,2|2|2|2,0:0|0:0|0:0|0:0,0:0:0:0:
418,63,70566,6,0,P|375:89|318:79,2,108,4|2|2,1:2|1:1|1:1,0:0:0:0:
361,2,71346,1,2,0:0:0:0:
288,157,71540,1,2,0:0:0:0:
473,134,71735,2,0,L|466:182,3,36,2|2|0|2,0:0|0:0|0:0|0:0,0:0:0:0:
410,270,72125,5,4,1:2:0:0:
412,301,72222,1,8,0:3:0:0:
416,334,72320,1,0,1:0:0:0:
483,292,72515,1,0,1:0:0:0:
270,209,72709,5,4,1:2:0:0:
273,172,72806,1,8,0:3:0:0:
278,132,72904,1,0,1:0:0:0:
358,183,73099,1,0,1:0:0:0:
138,280,73293,5,4,1:2:0:0:
142,325,73390,1,8,0:3:0:0:
148,373,73488,1,0,1:0:0:0:
244,311,73683,5,4,1:2:0:0:
223,315,73781,1,8,1:3:0:0:
394,258,73975,5,4,1:2:0:0:
400,286,74072,1,8,1:3:0:0:
333,122,74267,5,4,1:2:0:0:
371,109,74364,1,8,1:3:0:0:
209,186,74559,5,4,1:2:0:0:
194,138,74656,1,8,1:3:0:0:
244,311,74852,5,4,1:2:0:0:
223,315,74950,1,8,1:3:0:0:
202,319,75047,1,8,1:3:0:0:
181,323,75144,1,8,1:3:0:0:
160,327,75242,5,2,3:2:0:0:
164,291,75339,1,0,3:0:0:0:
169,255,75436,1,0,3:0:0:0:
174,219,75534,1,0,3:0:0:0:
179,184,75631,2,0,L|173:154,6,18,0|0|0|0|0|0|0,3:0|3:0|3:0|0:0|3:0|3:0|3:0,0:0:0:0:
97,246,76021,5,8,0:0:0:0:
133,250,76118,1,0,0:0:0:0:
169,255,76215,1,2,0:0:0:0:
205,260,76313,1,2,0:0:0:0:
240,265,76411,2,0,B|361:282,1,107.999996704102
467,325,76800,5,2,1:1:0:0:
403,335,76898,1,8,1:3:0:0:
479,225,77092,5,2,1:1:0:0:
384,210,77190,1,8,1:3:0:0:
495,111,77385,5,2,1:2:0:0:
352,133,77482,2,0,L|468:116,1,108,8|0,1:3|0:0,0:0:0:0:
490,73,77872,6,0,B|490:46|456:18|456:18|439:41|451:86,1,135.000005149842,4|0,0:3|0:0,0:0:0:0:
