osu file format v14

[General]
AudioFilename: audio.mp3
AudioLeadIn: 0
PreviewTime: 77936
Countdown: 0
SampleSet: Normal
StackLeniency: 0.7
Mode: 1
LetterboxInBreaks: 0
WidescreenStoryboard: 1

[Editor]
Bookmarks: 33863,90333,135510
DistanceSpacing: 1.5
BeatDivisor: 4
GridSize: 32
TimelineZoom: 2

[Metadata]
Title:SummerTime Blood (feat. Bladee & Ecco2k) (AIKA & Kotori Remix)
TitleUnicode:SummerTime Blood (feat. Bladee & Ecco2k) (AIKA & Kotori Remix)
Artist:Yung Lean & Skrillex
ArtistUnicode:Yung Lean & Skrillex
Creator:clockbite
Version:liku's Drain Gang Oni
Source:
Tags:liku genjuro electronic english future bass hardcore hardstyle hyperpop pop hip-hop hiphop hip hop drain gang
BeatmapID:3647612
BeatmapSetID:1769824

[Difficulty]
HPDrainRate:6
CircleSize:5
OverallDifficulty:5.7
ApproachRate:10
SliderMultiplier:1.4
SliderTickRate:1

[Events]
//Background and Video events
0,0,"1.jpeg",0,0
//Break Periods
2,101627,111510
//Storyboard Layer 0 (Background)
//Storyboard Layer 1 (Fail)
//Storyboard Layer 2 (Pass)
//Storyboard Layer 3 (Foreground)
//Storyboard Layer 4 (Overlay)
//Storyboard Sound Samples

[TimingPoints]
3,352.941176470588,100,1,0,100,1,8
11275,352.941176470588,4,1,0,100,1,0
11275,-133.333333333333,4,1,0,100,0,0
21683,-130.442815791094,4,1,0,100,0,0
21860,-127.659574468085,4,1,0,100,0,0
22036,-125.007377678097,4,1,0,100,0,0
22124,-123.72218003388,4,1,0,100,0,0
22213,-122.448979591837,4,1,0,100,0,0
22389,-120.006799252082,4,1,0,100,0,0
22566,-117.647058823529,4,1,0,100,0,0
32801,-111.111111111111,4,1,0,100,0,0
32977,-114.276464875364,4,1,0,100,0,0
33154,-117.647058823529,4,1,0,100,0,0
33330,-121.201716738197,4,1,0,100,0,0
33507,-125,4,1,0,100,0,0
33683,-129.020467836257,4,1,0,100,0,0
33771,-131.12927191679,4,1,0,100,0,0
33860,-133.333333333333,4,1,0,100,0,0
43919,-131.14145072908,4,1,0,100,0,0
44095,-129.032258064516,4,1,0,100,0,0
44271,-126.989837215577,4,1,0,100,0,0
44448,-125,4,1,0,100,0,0
44624,-123.082287308229,4,1,0,100,0,0
44713,-122.134763428769,4,1,0,100,0,0
44801,-121.212121212121,4,1,0,100,0,0
44977,-119.408033826638,4,1,0,100,0,0
45154,-117.647058823529,4,1,0,100,0,0
55745,-111.111111111111,4,1,0,100,0,0
66339,-125,4,1,0,100,0,0
67569,-111.111111111111,4,1,0,100,0,0
73742,-110.091504627223,4,1,0,100,0,0
73918,-109.590104544043,4,1,0,100,0,0
74095,-109.090440740836,4,1,0,100,0,0
74183,-108.843712251664,4,1,0,100,0,0
74271,-108.598097289535,4,1,0,100,0,0
74448,-108.107418185531,4,1,0,100,0,0
74536,-107.865111303551,4,1,0,100,0,0
74624,-107.623888182973,4,1,0,100,0,0
74801,-107.141953601336,4,1,0,100,0,0
74977,-106.667002493514,4,1,0,100,0,0
75154,-106.193580742227,4,1,0,100,0,0
75330,-105.726982224885,4,1,0,100,0,0
75507,-105.26184972535,4,1,0,100,0,0
75683,-104.803385384444,4,1,0,100,0,0
75771,-104.575647578833,4,1,0,100,0,0
75860,-104.34632631942,4,1,0,100,0,0
76036,-103.895785290221,4,1,0,100,0,0
76213,-103.446591269938,4,1,0,100,0,0
76389,-103.003769913657,4,1,0,100,0,0
76477,-102.783777880251,4,1,0,100,0,0
76566,-102.562239659014,4,1,0,100,0,0
76742,-102.126941255908,4,1,0,100,0,0
76919,-101.692880297755,4,1,0,100,0,0
77095,-101.264914755745,4,1,0,100,0,0
77271,-100.840536228778,4,1,0,100,0,0
77360,-100.627286983795,4,1,0,100,0,0
77448,-100.417318727178,4,1,0,100,0,0
77624,-100,4,1,0,100,0,0
77804,-111.111111111111,4,1,0,100,0,0
79039,-62.5,4,1,0,100,0,1
81157,-100,4,1,0,100,0,0
81863,-62.5,4,1,0,100,0,1
83980,-100,4,1,0,100,0,0
84686,-62.5,4,1,0,100,0,1
86804,-100,4,1,0,100,0,0
87510,-62.5,4,1,0,100,0,1
89627,-100,4,1,0,100,0,0
90333,-62.5,4,1,0,100,0,1
92451,-100,4,1,0,100,0,0
93157,-62.5,4,1,0,100,0,1
95274,-100,4,1,0,100,0,0
95980,-62.5,4,1,0,100,0,1
98098,-100,4,1,0,100,0,0
98804,-62.5,4,1,0,100,0,1
101627,-100,4,1,0,30,0,0
101977,-100.813083035817,4,1,0,30,0,0
102330,-101.639496539873,4,1,0,30,0,0
102683,-102.479571050598,4,1,0,30,0,0
103036,-103.333648125413,4,1,0,30,0,0
103389,-104.202080803752,4,1,0,30,0,0
103742,-105.085234093637,4,1,0,30,0,0
104095,-105.983485483207,4,1,0,30,0,0
104448,-106.897225478703,4,1,0,30,0,0
104801,-107.82685817053,4,1,0,30,0,0
105154,-108.772801829117,4,1,0,30,0,0
105507,-109.735489532406,4,1,0,30,0,0
105860,-110.715369826976,4,1,0,30,0,0
106213,-111.712907424896,4,1,0,30,0,0
106566,-112.728583938598,4,1,0,30,0,0
106919,-113.7628986562,4,1,0,30,0,0
107271,-114.813357467013,4,1,0,30,0,0
107624,-115.886464732048,4,1,0,30,0,0
107977,-116.979820927436,4,1,0,30,0,0
108330,-118.094004640872,4,1,0,30,0,0
108683,-119.229616715247,4,1,0,30,0,0
109036,-120.387281329079,4,1,0,30,0,0
109389,-121.567647140516,4,1,0,30,0,0
109742,-122.771388499299,4,1,0,30,0,0
110095,-123.99920673145,4,1,0,30,0,0
110448,-125.251831501832,4,1,0,30,0,0
110801,-126.530022260125,4,1,0,30,0,0
111154,-127.834569776272,4,1,0,30,0,0
111507,-129.166297771875,4,1,0,30,0,0
111860,-130.526064654658,4,1,0,30,0,0
112213,-131.914765363634,4,1,0,30,0,0
112566,-133.333333333333,4,1,0,30,0,0
112899,-133.333333333333,4,1,0,100,0,0
122801,-129.87012987013,4,1,0,100,0,0
122977,-128.20978462209,4,1,0,100,0,0
123154,-126.582278481013,4,1,0,100,0,0
123330,-125.004426502355,4,1,0,100,0,0
123507,-123.456790123457,4,1,0,100,0,0
123595,-122.701518996142,4,1,0,100,0,0
123683,-121.955432717222,4,1,0,100,0,0
123771,-121.218364753958,4,1,0,100,0,0
123860,-120.481927710843,4,1,0,100,0,0
124213,-117.647058823529,4,1,0,100,0,0
135507,-125,4,1,0,100,0,0
135860,-123.076475973205,4,1,0,100,0,0
136213,-121.211253899654,4,1,0,100,0,0
136566,-119.401722655314,4,1,0,100,0,0
136919,-117.645424745819,4,1,0,100,0,0
137271,-115.944806439249,4,1,0,100,0,0
137448,-115.108109210008,4,1,0,100,0,0
137624,-114.288027418332,4,1,0,100,0,0
137801,-113.474987272581,4,1,0,100,0,0
137889,-113.075054067765,4,1,0,100,0,0
137977,-112.677930025276,4,1,0,100,0,0
138154,-111.887557628037,4,1,0,100,0,0
138330,-111.112568707447,4,1,0,100,0,0
138683,-109.590104544043,4,1,0,100,0,0
139036,-108.108798039491,4,1,0,100,0,0
139389,-106.667002493514,4,1,0,100,0,0
139742,-105.263157894737,4,1,0,100,0,0
140095,-103.895785290221,4,1,0,100,0,0
140271,-103.22722176181,4,1,0,100,0,0
140448,-102.56348158822,4,1,0,100,0,0
140624,-101.911900951739,4,1,0,100,0,0
140713,-101.585550145122,4,1,0,100,0,0
140801,-101.264914755745,4,1,0,100,0,0
140977,-100.629678032553,4,1,0,100,0,0
141154,-99.9988193763946,4,1,0,100,0,0
141507,-98.7639925373134,4,1,0,100,0,0
141860,-97.5592900171621,4,1,0,100,0,0
142213,-96.3836227497212,4,1,0,100,0,0
142566,-95.2359535401464,4,1,0,100,0,0
142919,-94.1152940130673,4,1,0,100,0,0
143095,-93.5663470460872,4,1,0,100,0,0
143271,-93.0237666388437,4,1,0,100,0,0
143448,-92.4844130460893,4,1,0,100,0,0
143536,-92.218580900846,4,1,0,100,0,0
143624,-91.9542725624518,4,1,0,100,0,0
143801,-91.4272144383757,4,1,0,100,0,0
143977,-90.9090909090909,4,1,0,100,0,0
145095,-121.212121212121,4,1,0,100,0,0
146804,-62.5,4,1,0,100,0,1
148922,-100,4,1,0,100,0,0
149627,-62.5,4,1,0,100,0,1
151745,-100,4,1,0,100,0,0
152451,-62.5,4,1,0,100,0,1
154569,-100,4,1,0,100,0,0
155624,-96.969696969697,4,1,0,100,0,0
155977,-94.1176470588235,4,1,0,100,0,0
156330,-91.4285714285714,4,1,0,100,0,0
156683,-88.8888888888889,4,1,0,100,0,0
156860,-87.6678308110206,4,1,0,100,0,0
157036,-86.4864864864865,4,1,0,100,0,0
157213,-85.3301102885632,4,1,0,100,0,0
157566,-83.1138253255831,4,1,0,100,0,0
157654,-82.5791359017472,4,1,0,100,0,0
157742,-82.0512820512821,4,1,0,100,0,0
157919,-81.0097532989099,4,1,0,100,0,0
158098,-80,4,1,0,100,0,1
158271,-81.1560883487971,4,1,0,100,0,1
158360,-81.7535153019024,4,1,0,100,0,1
158448,-82.3529411764706,4,1,0,100,0,1
158624,-83.5785557246745,4,1,0,100,0,1
158801,-84.8484848484848,4,1,0,100,0,1
158889,-85.4943344001384,4,1,0,100,0,1
158977,-86.150091519219,4,1,0,100,0,1
159154,-87.5,4,1,0,100,0,1
159330,-88.8848920863309,4,1,0,100,0,1
159507,-90.3225806451613,4,1,0,100,0,1
159683,-91.7990155103557,4,1,0,100,0,1
159771,-92.5554827231014,4,1,0,100,0,1
159860,-93.3333333333333,4,1,0,100,0,1
160036,-94.9106971384675,4,1,0,100,0,1
160213,-96.551724137931,4,1,0,100,0,1
160389,-98.2407315376205,4,1,0,100,0,1
160477,-99.1075904943347,4,1,0,100,0,1
160566,-100,4,1,0,100,0,1
160919,-80,4,1,0,100,0,1
161007,-80.5741314630566,4,1,0,100,0,1
161095,-81.1565631674059,4,1,0,100,0,1
161271,-82.3470578429738,4,1,0,100,0,1
161448,-83.5800693680738,4,1,0,100,0,1
161536,-84.2069376970937,4,1,0,100,0,1
161624,-84.8432803778446,4,1,0,100,0,1
161713,-85.496711664936,4,1,0,100,0,1
161801,-86.1527729333798,4,1,0,100,0,1
161977,-87.4955720864329,4,1,0,100,0,1
162154,-88.8888888888889,4,1,0,100,0,1
162330,-90.3190419599598,4,1,0,100,0,1
162419,-91.0599078341014,4,1,0,100,0,1
162507,-91.8044973053336,4,1,0,100,0,1
162683,-93.3308142830153,4,1,0,100,0,1
162860,-94.9178595446248,4,1,0,100,0,1
163036,-96.5503762337535,4,1,0,100,0,1
163213,-98.2498011137629,4,1,0,100,0,1
163301,-99.1171749598716,4,1,0,100,0,1
163389,-100,4,1,0,100,0,1
163742,-80,4,1,0,100,0,1
163918,-81.1560883487971,4,1,0,100,0,1
164007,-81.7535153019024,4,1,0,100,0,1
164095,-82.3529411764706,4,1,0,100,0,1
164271,-83.5785557246745,4,1,0,100,0,1
164448,-84.8484848484848,4,1,0,100,0,1
164536,-85.4943344001384,4,1,0,100,0,1
164624,-86.150091519219,4,1,0,100,0,1
164801,-87.5,4,1,0,100,0,1
164977,-88.8848920863309,4,1,0,100,0,1
165154,-90.3225806451613,4,1,0,100,0,1
165330,-91.7990155103557,4,1,0,100,0,1
165418,-92.5554827231014,4,1,0,100,0,1
165507,-93.3333333333333,4,1,0,100,0,1
165683,-94.9106971384675,4,1,0,100,0,1
165860,-96.551724137931,4,1,0,100,0,1
166036,-98.2407315376205,4,1,0,100,0,1
166124,-99.1075904943347,4,1,0,100,0,1
166213,-100,4,1,0,100,0,1
166654,-99.0731638814773,4,1,0,100,0,1
166742,-98.1633504939474,4,1,0,100,0,1
166918,-96.3929498565378,4,1,0,100,0,1
167095,-94.6757473076794,4,1,0,100,0,1
167271,-93.027855612329,4,1,0,100,0,1
167360,-92.2161950199333,4,1,0,100,0,1
167448,-91.4274606362988,4,1,0,100,0,1
167536,-90.6521040796659,4,1,0,100,0,1
167624,-89.8897878575524,4,1,0,100,0,1
167801,-88.3946750195771,4,1,0,100,0,1
167980,-86.9565217391304,4,1,0,100,0,0
168457,-100,4,1,0,100,0,0
169392,-83.3333333333333,4,1,0,100,0,1
169480,-90.9090909090909,4,1,0,100,0,1
174951,-83.3333333333333,4,1,0,100,0,1
175127,-90.9090909090909,4,1,0,100,0,1
179274,-90.9090909090909,4,1,0,100,0,0
179448,-89.1678389784655,4,1,0,100,0,0
179624,-87.5013273866412,4,1,0,100,0,0
179801,-85.887012716281,4,1,0,100,0,0
179977,-84.3398157625384,4,1,0,100,0,0
180154,-82.8390469488288,4,1,0,100,0,0
180330,-81.3987948236689,4,1,0,100,0,0
180507,-80,4,1,0,100,0,0

[HitObjects]
183,90,11275,5,0,0:0:0:0:
156,131,11451,1,0,0:0:0:0:
156,131,11627,1,8,0:0:0:0:
156,131,11804,1,0,0:0:0:0:
156,131,11980,1,8,0:0:0:0:
156,131,12333,1,0,0:0:0:0:
144,108,12510,1,0,0:0:0:0:
144,108,12686,1,8,0:0:0:0:
143,120,13039,1,8,0:0:0:0:
145,118,13216,1,0,0:0:0:0:
145,118,13392,1,8,0:0:0:0:
145,118,13569,1,8,0:0:0:0:
145,118,13745,1,0,0:0:0:0:
143,120,13922,1,8,0:0:0:0:
63,135,14274,1,0,0:0:0:0:
145,118,14451,1,8,0:0:0:0:
168,170,14627,1,0,0:0:0:0:
168,170,14804,1,8,0:0:0:0:
159,172,15157,1,0,0:0:0:0:
155,172,15333,1,0,0:0:0:0:
155,172,15510,1,8,0:0:0:0:
154,177,15863,1,8,0:0:0:0:
154,177,16039,1,0,0:0:0:0:
154,177,16216,1,8,0:0:0:0:
154,177,16392,1,8,0:0:0:0:
154,177,16569,1,8,0:0:0:0:
154,177,16745,1,0,0:0:0:0:
154,177,17098,1,8,0:0:0:0:
154,177,17274,1,0,0:0:0:0:
154,177,17627,1,8,0:0:0:0:
154,177,17980,1,8,0:0:0:0:
154,177,18157,1,0,0:0:0:0:
154,177,18333,1,8,0:0:0:0:
150,181,18686,1,0,0:0:0:0:
147,152,18863,1,0,0:0:0:0:
147,152,19039,1,8,0:0:0:0:
147,153,19216,1,8,0:0:0:0:
147,152,19392,1,0,0:0:0:0:
147,152,19569,1,8,0:0:0:0:
147,152,19922,1,8,0:0:0:0:
106,147,20098,1,0,0:0:0:0:
111,140,20274,1,0,0:0:0:0:
111,140,20451,1,8,0:0:0:0:
109,139,20804,1,0,0:0:0:0:
109,139,20980,1,0,0:0:0:0:
108,135,21157,1,8,0:0:0:0:
109,139,21510,1,0,0:0:0:0:
109,139,21686,1,0,0:0:0:0:
104,135,21863,1,8,0:0:0:0:
108,135,22039,1,8,0:0:0:0:
108,135,22127,1,0,0:0:0:0:
104,135,22216,1,8,0:0:0:0:
95,129,22392,1,0,0:0:0:0:
95,129,22569,1,8,0:0:0:0:
235,176,22745,1,0,0:0:0:0:
230,223,22922,1,0,0:0:0:0:
235,176,23098,1,8,0:0:0:0:
230,223,23274,1,0,0:0:0:0:
235,176,23627,1,8,0:0:0:0:
235,176,23804,1,0,0:0:0:0:
223,224,23980,1,8,0:0:0:0:
235,176,24333,1,8,0:0:0:0:
235,176,24510,1,0,0:0:0:0:
223,224,24686,1,0,0:0:0:0:
235,176,24863,1,8,0:0:0:0:
223,224,25039,1,0,0:0:0:0:
231,179,25216,1,8,0:0:0:0:
138,163,25569,1,8,0:0:0:0:
107,174,25745,1,8,0:0:0:0:
120,168,25922,1,0,0:0:0:0:
112,171,26098,1,8,0:0:0:0:
107,174,26451,1,0,0:0:0:0:
107,174,26627,1,0,0:0:0:0:
100,175,26804,1,8,0:0:0:0:
111,179,27157,1,8,0:0:0:0:
111,179,27333,1,0,0:0:0:0:
111,179,27510,1,8,0:0:0:0:
111,179,27686,1,8,0:0:0:0:
218,226,27863,1,0,0:0:0:0:
111,179,28039,1,8,0:0:0:0:
105,77,28392,1,0,0:0:0:0:
147,73,28569,1,8,0:0:0:0:
147,73,28745,1,8,0:0:0:0:
105,77,28922,1,0,0:0:0:0:
137,86,29274,1,8,0:0:0:0:
141,86,29451,1,0,0:0:0:0:
141,86,29627,1,8,0:0:0:0:
212,228,29980,1,0,0:0:0:0:
137,86,30157,1,0,0:0:0:0:
141,86,30333,1,8,0:0:0:0:
141,86,30510,1,8,0:0:0:0:
212,228,30686,1,0,0:0:0:0:
137,86,30863,1,8,0:0:0:0:
121,112,31216,1,8,0:0:0:0:
212,228,31392,1,0,0:0:0:0:
116,117,31569,1,8,0:0:0:0:
116,118,31745,1,8,0:0:0:0:
207,230,32098,1,8,0:0:0:0:
115,119,32274,1,0,0:0:0:0:
207,230,32804,1,0,0:0:0:0:
118,141,32980,1,0,0:0:0:0:
207,230,33157,1,0,0:0:0:0:
118,141,33333,1,0,0:0:0:0:
104,154,33510,1,8,0:0:0:0:
157,62,33686,1,0,0:0:0:0:
169,180,33774,1,0,0:0:0:0:
167,175,33863,5,0,0:0:0:0:
186,169,34216,1,8,0:0:0:0:
131,174,34392,1,0,0:0:0:0:
147,146,34569,1,0,0:0:0:0:
131,146,34922,1,0,0:0:0:0:
186,169,35098,1,0,0:0:0:0:
186,169,35274,1,8,0:0:0:0:
117,146,35627,1,0,0:0:0:0:
89,111,35804,1,0,0:0:0:0:
117,146,35980,1,8,0:0:0:0:
111,126,36157,1,0,0:0:0:0:
111,126,36245,1,0,0:0:0:0:
99,147,36333,1,8,0:0:0:0:
99,147,36686,1,0,0:0:0:0:
154,80,36863,1,0,0:0:0:0:
154,80,37039,1,8,0:0:0:0:
162,85,37216,1,0,0:0:0:0:
162,85,37392,1,8,0:0:0:0:
177,143,37569,1,8,0:0:0:0:
162,85,37745,1,0,0:0:0:0:
165,141,38098,1,0,0:0:0:0:
162,85,38274,1,0,0:0:0:0:
154,88,38451,1,8,0:0:0:0:
165,141,38627,1,0,0:0:0:0:
154,88,38804,1,8,0:0:0:0:
152,89,38980,1,8,0:0:0:0:
246,182,39069,1,0,0:0:0:0:
147,89,39157,1,8,0:0:0:0:
147,89,39333,1,8,0:0:0:0:
144,89,39510,1,0,0:0:0:0:
104,149,39863,1,0,0:0:0:0:
147,89,40039,1,0,0:0:0:0:
147,89,40216,1,8,0:0:0:0:
147,89,40569,1,8,0:0:0:0:
176,144,40745,1,0,0:0:0:0:
176,144,40922,1,8,0:0:0:0:
16,189,41274,1,0,0:0:0:0:
147,89,41451,1,0,0:0:0:0:
110,128,41627,1,8,0:0:0:0:
98,129,41804,1,0,0:0:0:0:
97,129,41892,1,0,0:0:0:0:
97,129,41980,1,8,0:0:0:0:
96,143,42333,1,0,0:0:0:0:
87,106,42510,1,0,0:0:0:0:
87,106,42686,1,8,0:0:0:0:
169,155,42863,1,0,0:0:0:0:
169,155,43039,1,8,0:0:0:0:
169,155,43392,1,8,0:0:0:0:
131,142,43745,1,0,0:0:0:0:
196,89,43922,1,0,0:0:0:0:
88,145,44098,1,8,0:0:0:0:
83,146,44274,1,0,0:0:0:0:
149,96,44451,1,8,0:0:0:0:
149,96,44627,1,8,0:0:0:0:
62,151,44716,1,8,0:0:0:0:
149,96,44804,1,8,0:0:0:0:
149,96,44980,1,8,0:0:0:0:
149,96,45157,1,0,0:0:0:0:
161,92,45510,1,8,0:0:0:0:
161,92,45686,1,0,0:0:0:0:
161,92,45863,1,8,0:0:0:0:
124,113,46039,1,0,0:0:0:0:
161,92,46216,1,8,0:0:0:0:
161,92,46569,1,0,0:0:0:0:
163,101,46745,1,8,0:0:0:0:
163,101,46833,1,8,0:0:0:0:
161,100,46922,1,8,0:0:0:0:
75,91,47098,1,0,0:0:0:0:
149,165,47274,1,8,0:0:0:0:
208,191,47451,1,0,0:0:0:0:
208,191,47539,1,0,0:0:0:0:
149,165,47627,1,8,0:0:0:0:
208,191,47804,1,8,0:0:0:0:
149,165,47980,1,0,0:0:0:0:
149,165,48333,1,0,0:0:0:0:
98,118,48510,1,0,0:0:0:0:
149,165,48686,1,8,0:0:0:0:
98,118,48863,1,0,0:0:0:0:
149,165,49039,1,8,0:0:0:0:
98,118,49216,1,0,0:0:0:0:
149,165,49392,1,8,0:0:0:0:
149,165,49745,1,0,0:0:0:0:
98,118,49922,1,0,0:0:0:0:
149,165,50098,1,8,0:0:0:0:
98,118,50274,1,8,0:0:0:0:
98,118,50363,1,0,0:0:0:0:
149,165,50451,1,8,0:0:0:0:
98,118,50539,1,8,0:0:0:0:
98,118,50627,1,0,0:0:0:0:
149,165,50804,1,0,0:0:0:0:
160,96,51157,1,8,0:0:0:0:
72,118,51333,1,0,0:0:0:0:
160,96,51510,1,8,0:0:0:0:
149,165,51863,1,0,0:0:0:0:
160,96,52216,1,8,0:0:0:0:
130,67,52392,1,0,0:0:0:0:
109,63,52480,1,0,0:0:0:0:
149,165,52569,1,0,0:0:0:0:
160,96,52745,1,8,0:0:0:0:
149,165,52922,1,0,0:0:0:0:
128,96,53098,1,8,0:0:0:0:
89,60,53186,1,0,0:0:0:0:
128,96,53274,1,8,0:0:0:0:
81,59,53451,1,0,0:0:0:0:
149,165,53627,1,0,0:0:0:0:
256,192,54333,12,0,56098,0:0:0:0:
149,165,56451,5,8,0:0:0:0:
122,61,56539,1,8,0:0:0:0:
116,148,56627,1,0,0:0:0:0:
122,61,56804,1,8,0:0:0:0:
149,165,56980,1,0,0:0:0:0:
149,165,57157,1,8,0:0:0:0:
124,55,57245,1,8,0:0:0:0:
166,157,57333,1,0,0:0:0:0:
149,165,57510,1,8,0:0:0:0:
171,169,57598,1,0,0:0:0:0:
167,117,57686,1,0,0:0:0:0:
91,61,57863,1,8,0:0:0:0:
149,165,58216,1,0,0:0:0:0:
167,98,58392,1,0,0:0:0:0:
149,165,58569,1,8,0:0:0:0:
167,98,58745,1,0,0:0:0:0:
226,60,58833,1,8,0:0:0:0:
159,80,59010,1,0,0:0:0:0:
149,165,59098,1,8,0:0:0:0:
149,165,59274,1,8,0:0:0:0:
157,91,59363,1,8,0:0:0:0:
143,46,59451,1,0,0:0:0:0:
149,165,59627,1,8,0:0:0:0:
83,61,59804,1,0,0:0:0:0:
149,165,59980,1,8,0:0:0:0:
156,91,60069,1,8,0:0:0:0:
157,91,60157,1,0,0:0:0:0:
149,165,60333,1,8,0:0:0:0:
183,99,60422,1,0,0:0:0:0:
156,91,60510,1,0,0:0:0:0:
149,165,60686,1,8,0:0:0:0:
149,165,61039,1,0,0:0:0:0:
157,91,61216,1,0,0:0:0:0:
149,165,61392,1,8,0:0:0:0:
156,91,61569,1,0,0:0:0:0:
156,91,61657,1,8,0:0:0:0:
151,107,61833,1,8,0:0:0:0:
154,136,61922,1,8,0:0:0:0:
154,136,62010,1,8,0:0:0:0:
149,165,62098,1,0,0:0:0:0:
133,47,62274,1,0,0:0:0:0:
149,165,62451,1,8,0:0:0:0:
142,126,62627,1,0,0:0:0:0:
149,165,62804,1,8,0:0:0:0:
142,126,62892,1,8,0:0:0:0:
142,126,62980,1,0,0:0:0:0:
149,165,63157,1,8,0:0:0:0:
133,58,63245,1,0,0:0:0:0:
142,126,63333,1,0,0:0:0:0:
149,165,63510,1,8,0:0:0:0:
149,165,63863,1,0,0:0:0:0:
142,126,64039,1,0,0:0:0:0:
149,165,64216,1,8,0:0:0:0:
142,126,64392,1,0,0:0:0:0:
142,126,64480,1,8,0:0:0:0:
149,165,64657,1,0,0:0:0:0:
134,130,64745,1,8,0:0:0:0:
149,165,64922,1,8,0:0:0:0:
156,94,65010,1,8,0:0:0:0:
156,94,65098,1,0,0:0:0:0:
149,165,65274,1,8,0:0:0:0:
148,100,65451,1,0,0:0:0:0:
149,165,65627,1,8,0:0:0:0:
148,103,65716,1,8,0:0:0:0:
148,103,65804,1,0,0:0:0:0:
149,165,65980,1,8,0:0:0:0:
144,103,66157,1,0,0:0:0:0:
149,165,66686,1,0,0:0:0:0:
103,123,66863,1,0,0:0:0:0:
149,165,67039,1,8,0:0:0:0:
149,165,67392,1,8,0:0:0:0:
149,165,67745,1,0,0:0:0:0:
128,128,67922,1,8,0:0:0:0:
128,128,68010,1,8,0:0:0:0:
149,165,68098,1,0,0:0:0:0:
128,128,68274,1,8,0:0:0:0:
149,165,68451,1,0,0:0:0:0:
128,128,68539,1,0,0:0:0:0:
128,128,68627,1,8,0:0:0:0:
149,165,68804,1,8,0:0:0:0:
128,128,68892,1,0,0:0:0:0:
128,128,68980,1,8,0:0:0:0:
149,165,69157,1,8,0:0:0:0:
192,128,69333,1,0,0:0:0:0:
149,165,69510,1,8,0:0:0:0:
192,128,69686,1,8,0:0:0:0:
149,165,69863,1,0,0:0:0:0:
192,128,70039,1,0,0:0:0:0:
192,128,70127,1,8,0:0:0:0:
149,165,70216,1,0,0:0:0:0:
160,128,70392,1,0,0:0:0:0:
149,165,70569,1,0,0:0:0:0:
128,128,70746,1,8,0:0:0:0:
128,128,70834,1,8,0:0:0:0:
149,165,70922,1,0,0:0:0:0:
128,128,71098,1,8,0:0:0:0:
149,165,71275,1,0,0:0:0:0:
128,128,71363,1,8,0:0:0:0:
128,128,71451,1,0,0:0:0:0:
149,165,71628,1,8,0:0:0:0:
128,128,71716,1,8,0:0:0:0:
128,128,71804,1,0,0:0:0:0:
149,165,71981,1,8,0:0:0:0:
192,128,72157,1,0,0:0:0:0:
149,165,72334,1,8,0:0:0:0:
192,128,72510,1,8,0:0:0:0:
149,165,72687,1,0,0:0:0:0:
160,96,72863,1,0,0:0:0:0:
128,64,72951,1,0,0:0:0:0:
149,165,73039,1,8,0:0:0:0:
160,64,73127,5,8,0:0:0:0:
160,128,73216,1,8,0:0:0:0:
149,165,73392,1,0,0:0:0:0:
149,165,73745,1,0,0:0:0:0:
128,128,73921,1,8,0:0:0:0:
149,165,74098,1,0,0:0:0:0:
128,128,74186,1,0,0:0:0:0:
128,128,74274,1,8,0:0:0:0:
149,165,74451,1,8,0:0:0:0:
128,128,74539,1,8,0:0:0:0:
128,128,74627,1,0,0:0:0:0:
149,165,74804,1,8,0:0:0:0:
192,128,74980,1,0,0:0:0:0:
149,165,75157,1,8,0:0:0:0:
192,128,75333,1,8,0:0:0:0:
149,165,75510,1,0,0:0:0:0:
192,128,75686,1,0,0:0:0:0:
192,128,75774,1,8,0:0:0:0:
149,165,75863,1,0,0:0:0:0:
160,128,76039,1,0,0:0:0:0:
128,128,76216,1,0,0:0:0:0:
128,128,76392,1,8,0:0:0:0:
128,160,76480,1,0,0:0:0:0:
128,128,76569,1,0,0:0:0:0:
128,128,76745,1,8,0:0:0:0:
96,128,76922,1,0,0:0:0:0:
192,96,77098,1,8,0:0:0:0:
96,128,77274,1,0,0:0:0:0:
192,96,77363,1,0,0:0:0:0:
192,96,77451,1,8,0:0:0:0:
169,157,77627,5,4,0:0:0:0:
169,157,77980,1,0,0:0:0:0:
169,157,78157,1,0,0:0:0:0:
163,157,78333,1,8,0:0:0:0:
158,158,78686,1,8,0:0:0:0:
138,102,78863,1,8,0:0:0:0:
158,158,79039,1,4,0:0:0:0:
158,158,79392,1,4,0:0:0:0:
151,160,79745,1,4,0:0:0:0:
149,161,80098,1,12,0:0:0:0:
149,161,80274,1,4,0:0:0:0:
151,160,80451,1,12,0:0:0:0:
146,163,80804,1,12,0:0:0:0:
139,171,81863,1,4,0:0:0:0:
139,171,82216,1,4,0:0:0:0:
139,171,82569,1,4,0:0:0:0:
139,171,82922,1,4,0:0:0:0:
202,151,83098,1,0,0:0:0:0:
215,207,83186,1,0,0:0:0:0:
139,171,83274,1,12,0:0:0:0:
81,103,83627,1,12,0:0:0:0:
73,103,84686,1,4,0:0:0:0:
73,103,85039,1,4,0:0:0:0:
69,107,85392,1,4,0:0:0:0:
69,111,85745,1,12,0:0:0:0:
67,111,85922,1,4,0:0:0:0:
69,107,86098,1,12,0:0:0:0:
69,111,86451,1,12,0:0:0:0:
63,113,87510,1,4,0:0:0:0:
63,113,87863,1,4,0:0:0:0:
63,113,88216,1,4,0:0:0:0:
63,113,88569,1,4,0:0:0:0:
63,113,88745,1,8,0:0:0:0:
63,113,88833,1,8,0:0:0:0:
63,113,88922,1,4,0:0:0:0:
58,115,89274,1,4,0:0:0:0:
93,131,89627,1,8,0:0:0:0:
85,132,89716,1,8,0:0:0:0:
77,135,89804,1,8,0:0:0:0:
72,135,89980,1,8,0:0:0:0:
69,136,90157,1,8,0:0:0:0:
180,97,90333,1,4,0:0:0:0:
180,97,90686,1,4,0:0:0:0:
180,97,91039,1,12,0:0:0:0:
156,83,91304,1,0,0:0:0:0:
168,85,91392,1,8,0:0:0:0:
142,90,91569,1,0,0:0:0:0:
132,92,91745,1,12,0:0:0:0:
132,92,92098,1,12,0:0:0:0:
128,94,92451,1,0,0:0:0:0:
132,92,92627,1,0,0:0:0:0:
132,92,92804,1,8,0:0:0:0:
132,92,92980,1,8,0:0:0:0:
119,94,93157,1,4,0:0:0:0:
119,94,93510,1,4,0:0:0:0:
119,94,93863,1,12,0:0:0:0:
114,96,94127,1,0,0:0:0:0:
112,97,94216,1,8,0:0:0:0:
130,109,94392,1,0,0:0:0:0:
129,109,94569,1,12,0:0:0:0:
123,109,94922,1,12,0:0:0:0:
115,109,95274,1,8,0:0:0:0:
115,109,95451,1,0,0:0:0:0:
115,109,95627,1,8,0:0:0:0:
114,109,95980,1,4,0:0:0:0:
138,71,96333,1,4,0:0:0:0:
138,71,96686,1,12,0:0:0:0:
138,71,96951,1,0,0:0:0:0:
138,71,97039,1,8,0:0:0:0:
131,72,97216,1,0,0:0:0:0:
128,72,97392,1,12,0:0:0:0:
128,72,97745,1,12,0:0:0:0:
132,91,98098,1,0,0:0:0:0:
129,126,98274,1,8,0:0:0:0:
129,126,98451,1,8,0:0:0:0:
98,118,98627,1,0,0:0:0:0:
120,91,98804,1,4,0:0:0:0:
120,91,99157,1,4,0:0:0:0:
120,91,99510,1,12,0:0:0:0:
120,91,99774,1,0,0:0:0:0:
114,93,99863,1,8,0:0:0:0:
105,95,100039,1,8,0:0:0:0:
104,96,100216,1,4,0:0:0:0:
155,166,112922,5,0,0:0:0:0:
155,166,113098,1,0,0:0:0:0:
155,166,113274,1,8,0:0:0:0:
155,166,113627,1,8,0:0:0:0:
155,166,113980,1,8,0:0:0:0:
155,166,114157,1,0,0:0:0:0:
155,166,114333,1,8,0:0:0:0:
155,166,114686,1,0,0:0:0:0:
155,166,114863,1,8,0:0:0:0:
128,160,114951,1,0,0:0:0:0:
155,166,115039,1,8,0:0:0:0:
155,166,115392,1,0,0:0:0:0:
155,166,115745,1,0,0:0:0:0:
155,166,115922,1,0,0:0:0:0:
155,166,116098,1,8,0:0:0:0:
155,166,116274,1,0,0:0:0:0:
155,166,116451,1,8,0:0:0:0:
155,166,116627,1,8,0:0:0:0:
155,166,116804,1,0,0:0:0:0:
146,153,117157,1,8,0:0:0:0:
142,156,117333,1,8,0:0:0:0:
142,157,117510,1,0,0:0:0:0:
142,156,117686,1,0,0:0:0:0:
142,157,117863,1,8,0:0:0:0:
128,96,117951,1,8,0:0:0:0:
127,165,118039,1,0,0:0:0:0:
132,163,118127,1,0,0:0:0:0:
132,163,118216,1,8,0:0:0:0:
108,81,118569,1,8,0:0:0:0:
108,81,118745,1,8,0:0:0:0:
108,81,118922,1,0,0:0:0:0:
105,198,119098,1,0,0:0:0:0:
108,81,119274,1,8,0:0:0:0:
108,81,119627,1,0,0:0:0:0:
108,81,119804,1,0,0:0:0:0:
108,81,119980,1,8,0:0:0:0:
103,83,120333,1,8,0:0:0:0:
97,84,120510,1,0,0:0:0:0:
92,84,120686,1,8,0:0:0:0:
96,128,120863,1,0,0:0:0:0:
96,128,120951,1,8,0:0:0:0:
91,85,121039,1,0,0:0:0:0:
91,85,121392,1,8,0:0:0:0:
92,84,121569,1,8,0:0:0:0:
91,85,121745,1,0,0:0:0:0:
91,85,121922,1,0,0:0:0:0:
91,85,122098,1,8,0:0:0:0:
78,89,122451,1,0,0:0:0:0:
77,89,122804,1,0,0:0:0:0:
103,109,122980,1,0,0:0:0:0:
98,105,123157,1,8,0:0:0:0:
98,104,123333,1,0,0:0:0:0:
97,104,123510,1,8,0:0:0:0:
128,128,123598,1,0,0:0:0:0:
128,128,123686,1,8,0:0:0:0:
128,128,123774,1,8,0:0:0:0:
128,128,123863,1,0,0:0:0:0:
63,120,124216,1,0,0:0:0:0:
260,134,124392,1,0,0:0:0:0:
260,134,124569,1,8,0:0:0:0:
260,134,124745,1,8,0:0:0:0:
260,134,124922,1,0,0:0:0:0:
260,134,125098,1,0,0:0:0:0:
260,134,125274,1,8,0:0:0:0:
59,123,125627,1,8,0:0:0:0:
59,123,125804,1,8,0:0:0:0:
58,123,125980,1,0,0:0:0:0:
192,160,126157,1,0,0:0:0:0:
49,126,126333,1,8,0:0:0:0:
128,128,126510,1,0,0:0:0:0:
128,128,126598,1,0,0:0:0:0:
128,160,126686,1,8,0:0:0:0:
24,128,127039,1,0,0:0:0:0:
88,173,127216,1,0,0:0:0:0:
22,128,127392,1,8,0:0:0:0:
88,173,127569,1,0,0:0:0:0:
18,130,127745,1,8,0:0:0:0:
88,173,127922,1,8,0:0:0:0:
18,130,128098,1,0,0:0:0:0:
88,173,128274,1,0,0:0:0:0:
18,130,128451,1,8,0:0:0:0:
18,130,128804,1,0,0:0:0:0:
160,160,128980,1,0,0:0:0:0:
12,131,129157,1,8,0:0:0:0:
160,160,129245,1,8,0:0:0:0:
76,129,129333,1,0,0:0:0:0:
128,128,129422,1,0,0:0:0:0:
11,131,129510,1,8,0:0:0:0:
0,136,129863,1,0,0:0:0:0:
192,96,130039,1,0,0:0:0:0:
192,96,130127,1,0,0:0:0:0:
192,96,130216,1,8,0:0:0:0:
134,128,130392,1,0,0:0:0:0:
52,77,130569,1,8,0:0:0:0:
160,160,130745,1,8,0:0:0:0:
60,182,130922,1,0,0:0:0:0:
160,160,131098,1,8,0:0:0:0:
160,128,131451,1,8,0:0:0:0:
83,128,131627,1,8,0:0:0:0:
160,128,131804,1,0,0:0:0:0:
83,128,131980,1,8,0:0:0:0:
160,128,132157,1,0,0:0:0:0:
160,128,132245,1,8,0:0:0:0:
83,128,132333,1,0,0:0:0:0:
134,128,132510,1,8,0:0:0:0:
83,128,132686,1,0,0:0:0:0:
160,32,132863,1,0,0:0:0:0:
83,128,133039,1,8,0:0:0:0:
160,32,133216,1,0,0:0:0:0:
160,96,133304,1,0,0:0:0:0:
83,128,133392,1,8,0:0:0:0:
160,32,133569,1,8,0:0:0:0:
83,128,133745,1,0,0:0:0:0:
103,149,133922,1,0,0:0:0:0:
83,128,135510,1,0,0:0:0:0:
79,130,135863,1,0,0:0:0:0:
77,131,136216,1,8,0:0:0:0:
193,125,136569,1,8,0:0:0:0:
193,125,136922,1,0,0:0:0:0:
72,132,137274,1,8,0:0:0:0:
193,125,137451,1,0,0:0:0:0:
193,125,137627,1,8,0:0:0:0:
192,128,137804,1,0,0:0:0:0:
192,128,137892,1,0,0:0:0:0:
183,126,137980,1,8,0:0:0:0:
183,126,138157,1,8,0:0:0:0:
72,132,138333,1,0,0:0:0:0:
75,131,138686,1,0,0:0:0:0:
155,128,139039,1,8,0:0:0:0:
72,132,139392,1,0,0:0:0:0:
149,130,139745,1,8,0:0:0:0:
149,130,140098,1,8,0:0:0:0:
149,130,140274,1,0,0:0:0:0:
149,130,140451,1,8,0:0:0:0:
160,128,140627,1,8,0:0:0:0:
160,128,140716,1,0,0:0:0:0:
149,130,140804,1,8,0:0:0:0:
149,130,140980,1,8,0:0:0:0:
68,135,141157,1,0,0:0:0:0:
68,135,141510,1,0,0:0:0:0:
135,141,141863,1,8,0:0:0:0:
68,135,142216,1,0,0:0:0:0:
135,141,142569,1,8,0:0:0:0:
135,141,142922,1,8,0:0:0:0:
135,141,143098,1,0,0:0:0:0:
135,141,143274,1,8,0:0:0:0:
96,96,143451,1,0,0:0:0:0:
96,96,143539,1,0,0:0:0:0:
68,135,143627,1,8,0:0:0:0:
114,157,143804,1,8,0:0:0:0:
124,156,143980,1,0,0:0:0:0:
192,160,146804,5,4,0:0:0:0:
160,128,146980,1,8,0:0:0:0:
192,160,147333,1,4,0:0:0:0:
192,160,147510,1,4,0:0:0:0:
160,128,147686,1,8,0:0:0:0:
192,160,147863,1,4,0:0:0:0:
160,128,148039,1,8,0:0:0:0:
192,160,148392,1,12,0:0:0:0:
192,160,148568,1,12,0:0:0:0:
160,96,148745,1,0,0:0:0:0:
192,128,149627,1,4,0:0:0:0:
160,96,149804,1,8,0:0:0:0:
192,128,150157,1,12,0:0:0:0:
192,128,150333,1,4,0:0:0:0:
192,128,150510,1,8,0:0:0:0:
192,128,150686,1,4,0:0:0:0:
192,128,150863,1,8,0:0:0:0:
192,128,151216,1,12,0:0:0:0:
192,128,151392,1,4,0:0:0:0:
192,160,151569,1,8,0:0:0:0:
160,160,152451,1,4,0:0:0:0:
224,128,152627,1,8,0:0:0:0:
160,160,152980,1,4,0:0:0:0:
160,160,153157,1,4,0:0:0:0:
224,128,153333,1,8,0:0:0:0:
160,160,153510,1,4,0:0:0:0:
224,128,153686,1,8,0:0:0:0:
160,160,154039,1,12,0:0:0:0:
160,160,154215,1,12,0:0:0:0:
224,128,154392,1,0,0:0:0:0:
160,128,155274,1,4,0:0:0:0:
128,192,155627,1,4,0:0:0:0:
128,192,155980,1,12,0:0:0:0:
128,192,156333,1,12,0:0:0:0:
128,192,156686,1,0,0:0:0:0:
128,192,156863,1,0,0:0:0:0:
128,192,157039,1,8,0:0:0:0:
128,192,157216,1,8,0:0:0:0:
128,160,157569,1,8,0:0:0:0:
128,192,157657,1,8,0:0:0:0:
128,192,157745,1,8,0:0:0:0:
160,160,157922,1,0,0:0:0:0:
160,160,158098,1,12,0:0:0:0:
192,96,158274,1,0,0:0:0:0:
224,64,158363,1,0,0:0:0:0:
256,224,158451,1,0,0:0:0:0:
256,256,158627,1,8,0:0:0:0:
256,256,158804,1,8,0:0:0:0:
224,96,158892,1,8,0:0:0:0:
256,256,158980,1,0,0:0:0:0:
256,256,159157,1,8,0:0:0:0:
256,256,159333,1,0,0:0:0:0:
256,256,159510,1,8,0:0:0:0:
256,256,159686,1,0,0:0:0:0:
192,96,159774,1,0,0:0:0:0:
256,256,159863,1,8,0:0:0:0:
256,256,160039,1,0,0:0:0:0:
256,256,160216,1,8,0:0:0:0:
192,160,160392,1,0,0:0:0:0:
160,96,160480,1,8,0:0:0:0:
256,256,160657,1,0,0:0:0:0:
160,96,160745,1,8,0:0:0:0:
256,256,160922,1,8,0:0:0:0:
160,96,161010,1,8,0:0:0:0:
256,256,161098,1,0,0:0:0:0:
256,256,161274,1,0,0:0:0:0:
256,256,161451,1,8,0:0:0:0:
160,96,161539,1,0,0:0:0:0:
256,256,161627,1,8,0:0:0:0:
160,96,161716,1,8,0:0:0:0:
256,256,161804,1,0,0:0:0:0:
256,256,161980,1,8,0:0:0:0:
256,256,162157,1,0,0:0:0:0:
256,256,162333,1,8,0:0:0:0:
224,192,162422,1,0,0:0:0:0:
256,256,162510,1,8,0:0:0:0:
224,192,162686,1,8,0:0:0:0:
256,256,162863,1,0,0:0:0:0:
256,256,163039,1,8,0:0:0:0:
128,160,163216,1,0,0:0:0:0:
128,160,163304,1,0,0:0:0:0:
256,256,163392,1,8,0:0:0:0:
160,160,163745,1,12,0:0:0:0:
192,96,163921,1,0,0:0:0:0:
224,64,164010,1,0,0:0:0:0:
256,224,164098,1,0,0:0:0:0:
256,256,164274,1,8,0:0:0:0:
256,256,164451,1,8,0:0:0:0:
224,96,164539,1,0,0:0:0:0:
256,256,164627,1,8,0:0:0:0:
256,256,164804,1,8,0:0:0:0:
256,256,164980,1,0,0:0:0:0:
256,256,165157,1,0,0:0:0:0:
256,256,165333,1,8,0:0:0:0:
192,96,165421,1,0,0:0:0:0:
256,256,165510,1,8,0:0:0:0:
256,256,165686,1,0,0:0:0:0:
256,256,165863,1,8,0:0:0:0:
160,96,166039,1,0,0:0:0:0:
160,96,166127,1,8,0:0:0:0:
256,256,166304,1,8,0:0:0:0:
192,160,166392,1,0,0:0:0:0:
256,256,166569,1,8,0:0:0:0:
160,96,166657,1,8,0:0:0:0:
256,256,166745,1,0,0:0:0:0:
256,256,166921,1,8,0:0:0:0:
256,256,167098,1,0,0:0:0:0:
256,256,167274,1,8,0:0:0:0:
160,96,167363,1,8,0:0:0:0:
256,256,167451,1,0,0:0:0:0:
128,128,167539,1,0,0:0:0:0:
256,256,167627,1,8,0:0:0:0:
128,96,167804,1,8,0:0:0:0:
256,256,167980,1,0,0:0:0:0:
160,224,168686,2,0,L|320:224,1,140
160,160,169392,1,12,0:0:0:0:
192,96,169568,1,0,0:0:0:0:
224,64,169657,1,0,0:0:0:0:
256,224,169745,1,0,0:0:0:0:
256,256,169921,1,8,0:0:0:0:
256,256,170098,1,8,0:0:0:0:
224,96,170186,1,8,0:0:0:0:
256,256,170274,1,0,0:0:0:0:
256,256,170451,1,8,0:0:0:0:
256,256,170627,1,0,0:0:0:0:
256,256,170804,1,8,0:0:0:0:
256,256,170980,1,0,0:0:0:0:
192,96,171068,1,0,0:0:0:0:
256,256,171157,1,8,0:0:0:0:
256,256,171333,1,0,0:0:0:0:
256,256,171510,1,8,0:0:0:0:
160,128,171686,1,0,0:0:0:0:
160,96,171774,1,8,0:0:0:0:
256,256,171951,1,0,0:0:0:0:
160,128,172039,1,0,0:0:0:0:
256,256,172216,1,8,0:0:0:0:
160,96,172304,1,8,0:0:0:0:
256,256,172392,1,0,0:0:0:0:
256,256,172568,1,0,0:0:0:0:
256,256,172745,1,8,0:0:0:0:
160,96,172833,1,0,0:0:0:0:
256,256,172921,1,8,0:0:0:0:
160,96,173010,1,8,0:0:0:0:
256,256,173098,1,0,0:0:0:0:
256,256,173274,1,8,0:0:0:0:
256,256,173451,1,0,0:0:0:0:
256,256,173627,1,8,0:0:0:0:
224,192,173716,1,0,0:0:0:0:
256,256,173804,1,8,0:0:0:0:
224,192,173980,1,8,0:0:0:0:
256,256,174157,1,0,0:0:0:0:
256,256,174333,1,8,0:0:0:0:
128,160,174510,1,0,0:0:0:0:
128,160,174598,1,0,0:0:0:0:
256,256,174686,1,8,0:0:0:0:
160,160,175039,1,12,0:0:0:0:
192,96,175215,1,0,0:0:0:0:
224,64,175304,1,0,0:0:0:0:
256,224,175392,1,0,0:0:0:0:
256,256,175568,1,8,0:0:0:0:
256,256,175745,1,8,0:0:0:0:
224,96,175833,1,8,0:0:0:0:
256,256,175922,1,0,0:0:0:0:
256,256,176098,1,8,0:0:0:0:
256,256,176274,1,0,0:0:0:0:
256,256,176451,1,0,0:0:0:0:
256,256,176627,1,8,0:0:0:0:
192,96,176715,1,0,0:0:0:0:
256,256,176804,1,8,0:0:0:0:
256,256,176980,1,0,0:0:0:0:
256,256,177157,1,8,0:0:0:0:
160,64,177333,1,0,0:0:0:0:
160,96,177421,1,0,0:0:0:0:
256,256,177598,1,8,0:0:0:0:
192,128,177686,1,8,0:0:0:0:
256,256,177863,1,0,0:0:0:0:
160,96,177951,1,8,0:0:0:0:
256,256,178039,1,0,0:0:0:0:
256,256,178215,1,8,0:0:0:0:
256,256,178392,1,0,0:0:0:0:
256,256,178568,1,8,0:0:0:0:
160,96,178657,1,8,0:0:0:0:
256,256,178745,1,0,0:0:0:0:
128,128,178833,5,0,0:0:0:0:
256,256,178921,1,8,0:0:0:0:
128,96,179098,1,8,0:0:0:0:
256,256,179274,1,0,0:0:0:0:
256,224,179451,1,0,0:0:0:0:
256,224,179627,1,8,0:0:0:0:
256,224,179804,1,0,0:0:0:0:
256,224,179980,1,8,0:0:0:0:
256,224,180157,1,8,0:0:0:0:
224,224,180333,1,0,0:0:0:0:
224,224,180510,1,8,0:0:0:0:
