osu file format v14

[General]
AudioFilename: audio.mp3
AudioLeadIn: 0
PreviewTime: 73049
Countdown: 0
SampleSet: Soft
StackLeniency: 0.7
Mode: 2
LetterboxInBreaks: 0
WidescreenStoryboard: 0

[Editor]
DistanceSpacing: 0.8
BeatDivisor: 4
GridSize: 8
TimelineZoom: 1

[Metadata]
Title:Like Prom Night
TitleUnicode:Like Prom Night
Artist:YungJZAisDead
ArtistUnicode:YungJZAisDead
Creator:MBomb
Version:Cup
Source:
Tags:magic bomb pink and blue wonjae ajamez krfawy english alternative hip-hop ugly zucc
BeatmapID:1866045
BeatmapSetID:892731

[Difficulty]
HPDrainRate:3
CircleSize:2.5
OverallDifficulty:5.5
ApproachRate:5.5
SliderMultiplier:1.6
SliderTickRate:1

[Events]
//Background and Video events
0,0,"love.jpg",0,0
//Break Periods
2,59402,70525
//Storyboard Layer 0 (Background)
//Storyboard Layer 1 (Fail)
//Storyboard Layer 2 (Pass)
//Storyboard Layer 3 (Foreground)
//Storyboard Sound Samples

[TimingPoints]
126,461.538461538462,4,2,0,15,1,0
28741,-100,4,2,0,50,0,0
29895,-100,4,3,0,75,0,0
30010,-100,4,2,0,50,0,0
31741,-100,4,3,0,75,0,0
31856,-100,4,2,0,50,0,0
33587,-100,4,3,0,50,0,0
33702,-100,4,2,0,50,0,0
37279,-100,4,3,0,75,0,0
37395,-100,4,2,0,50,0,0
39126,-100,4,3,0,75,0,0
39241,-100,4,2,0,50,0,0
40972,-100,4,3,0,75,0,0
41087,-100,4,2,0,50,0,0
42818,-100,4,3,0,75,0,0
42933,-100,4,2,0,50,0,0
48356,-100,4,3,0,75,0,0
48472,-100,4,2,0,50,0,0
52049,-100,4,3,0,75,0,0
52164,-100,4,2,0,50,0,0
53895,-100,4,3,0,75,0,0
54010,-100,4,2,0,50,0,0
55741,-100,4,3,0,75,0,0
55856,-100,4,2,0,50,0,0
58510,-100,4,3,0,75,0,0
58626,-100,4,2,0,50,0,0
73972,-100,4,2,0,50,0,1
103510,-100,4,2,0,50,0,0
104087,-100,4,3,0,50,0,0
104779,-100,4,2,0,50,0,0
107433,-100,4,3,0,50,0,0
107549,-100,4,2,0,50,0,0
109164,-100,4,3,0,50,0,0
109856,-100,4,2,0,50,0,0
110895,-100,4,2,0,30,0,0

[Colours]
Combo1 : 0,0,255
Combo2 : 255,128,255

[HitObjects]
256,192,26895,12,2,28741,0:0:0:0:
232,192,29664,6,0,L|400:192,1,160,4|0,1:0|0:0,0:0:0:0:
216,192,30587,1,8,0:1:0:0:
72,192,31049,1,0,0:0:0:0:
264,192,31510,6,0,L|80:192,1,160,8|2,3:0|1:2,0:0:0:0:
280,192,32433,1,8,0:1:0:0:
456,192,32895,1,0,0:0:0:0:
376,192,33126,1,2,0:0:0:0:
272,192,33356,6,0,L|464:192,1,160,8|0,0:3|1:0,0:0:0:0:
256,192,34279,2,0,P|208:128|264:104,1,160,8|0,0:1|0:0,0:0:0:0:
456,192,35202,5,8,1:3:0:0:
272,192,35664,1,2,3:0:0:0:
456,192,36126,2,0,L|280:192,1,160,8|0,0:1|0:0,0:0:0:0:
104,192,37049,6,0,L|280:192,1,160,4|2,1:0|0:0,0:0:0:0:
440,192,37972,1,8,0:1:0:0:
280,192,38433,1,0,0:0:0:0:
360,192,38664,1,2,3:0:0:0:
464,192,38895,6,0,L|296:192,1,160,8|2,0:3|3:0,0:0:0:0:
120,192,39818,2,0,L|280:192,1,160,8|0,0:1|0:0,0:0:0:0:
80,192,40741,6,0,L|248:192,1,160,8|0,0:3|1:0,0:0:0:0:
56,192,41664,1,8,0:1:0:0:
232,192,42126,1,0,0:0:0:0:
424,192,42587,5,8,1:3:0:0:
248,192,43049,1,2,3:0:0:0:
72,192,43510,2,0,P|16:144|72:104,1,160,8|0,0:1|0:0,0:0:0:0:
256,192,44433,6,0,L|88:192,1,160,4|2,1:0|0:0,0:0:0:0:
280,192,45356,1,8,0:1:0:0:
432,192,45818,1,0,0:0:0:0:
240,192,46279,6,0,L|408:192,1,160,8|2,0:3|3:0,0:0:0:0:
224,192,47202,2,0,P|152:176|136:88,1,160,8|0,0:1|0:0,0:0:0:0:
224,192,47895,1,2,0:0:0:0:
328,192,48126,6,0,L|160:192,1,160,8|2,0:3|1:2,0:0:0:0:
344,192,49049,2,0,P|392:176|344:112,1,160,8|0,0:1|0:0,0:0:0:0:
144,192,49972,5,8,1:3:0:0:
328,192,50433,1,2,3:0:0:0:
496,192,50895,2,0,L|336:192,1,160,8|0,0:1|0:0,0:0:0:0:
136,192,51818,6,0,L|312:192,1,160,4|2,1:0|0:0,0:0:0:0:
480,192,52741,1,8,0:1:0:0:
320,192,53202,1,0,0:0:0:0:
240,192,53433,1,2,3:0:0:0:
136,192,53664,6,0,P|48:152|24:96,1,160,8|2,0:3|3:0,0:0:0:0:
200,192,54587,2,0,L|40:192,1,160,8|0,0:1|0:0,0:0:0:0:
240,192,55510,6,0,L|400:192,1,160,8|2,0:3|1:2,0:0:0:0:
216,192,56433,1,8,0:1:0:0:
48,192,56895,1,0,0:0:0:0:
248,192,57356,5,8,1:3:0:0:
64,192,57818,1,2,3:0:0:0:
248,192,58279,2,0,L|432:192,1,160,8|2,0:1|0:0,0:0:0:0:
184,192,59202,5,4,0:1:0:0:
256,192,71664,12,2,73049,0:0:0:0:
384,192,73972,5,4,1:0:0:0:
200,192,74433,1,2,0:0:0:0:
384,192,74895,2,0,P|456:144|408:96,1,160,8|0,0:1|0:0,0:0:0:0:
224,192,75818,5,8,0:3:0:0:
40,192,76279,1,2,3:0:0:0:
224,192,76741,2,0,L|48:192,1,160,8|0,0:1|0:0,0:0:0:0:
152,192,77433,1,2,0:0:0:0:
256,192,77664,5,8,0:3:0:0:
160,192,77895,1,2,3:0:0:0:
64,192,78126,1,2,1:2:0:0:
248,192,78587,2,0,L|440:192,1,160,8|0,0:1|0:0,0:0:0:0:
208,192,79510,5,8,1:3:0:0:
392,192,79972,1,2,3:0:0:0:
208,192,80433,2,0,P|144:168|120:80,1,160,8|0,0:1|0:0,0:0:0:0:
312,192,81356,5,4,1:0:0:0:
496,192,81818,1,2,0:0:0:0:
312,192,82279,2,0,L|480:192,1,160,8|0,0:1|0:0,0:0:0:0:
272,192,83202,5,8,0:3:0:0:
112,192,83664,1,2,3:0:0:0:
200,192,83895,1,2,0:3:0:0:
296,192,84126,2,0,L|456:192,1,160,8|0,0:1|0:0,0:0:0:0:
256,192,85049,5,8,0:3:0:0:
160,192,85279,1,2,3:0:0:0:
256,192,85510,1,2,1:2:0:0:
448,192,85972,1,8,0:1:0:0:
272,192,86433,1,0,0:0:0:0:
72,192,86895,5,8,1:3:0:0:
256,192,87356,1,2,3:0:0:0:
440,192,87818,2,0,L|272:192,1,160,8|0,0:1|0:0,0:0:0:0:
80,192,88741,5,4,1:0:0:0:
264,192,89202,1,2,0:0:0:0:
64,192,89664,2,0,P|120:152|208:144,1,160,8|0,0:1|0:0,0:0:0:0:
408,192,90587,5,8,0:3:0:0:
224,192,91049,1,2,3:0:0:0:
40,192,91510,2,0,L|200:192,1,160,8|0,0:1|0:0,0:0:0:0:
288,192,92202,1,2,0:0:0:0:
392,192,92433,5,8,3:3:0:0:
296,192,92664,1,2,3:0:0:0:
200,192,92895,1,0,1:0:0:0:
400,192,93356,1,8,0:1:0:0:
224,192,93818,1,0,0:0:0:0:
424,192,94279,5,8,1:3:0:0:
240,192,94741,1,2,3:0:0:0:
56,192,95202,2,0,L|224:192,1,160,8|0,0:1|0:0,0:0:0:0:
16,192,96126,5,4,1:0:0:0:
200,192,96587,1,2,0:0:0:0:
376,192,97049,2,0,P|424:144|344:104,1,160,8|0,0:1|0:0,0:0:0:0:
280,192,97741,1,2,3:0:0:0:
176,192,97972,5,8,0:3:0:0:
368,192,98433,1,2,3:0:0:0:
276,182,98664,1,0,0:0:0:0:
184,192,98895,1,8,0:1:0:0:
16,192,99356,1,0,0:0:0:0:
208,192,99818,5,8,0:3:0:0:
112,192,100049,1,2,3:0:0:0:
16,192,100279,1,2,1:2:0:0:
208,192,100741,2,0,L|368:192,1,160,8|0,0:1|0:0,0:0:0:0:
168,192,101664,5,8,1:3:0:0:
360,192,102126,1,2,3:0:0:0:
176,192,102587,2,0,P|216:124|312:104,1,160,8|0,0:1|0:0,0:0:0:0:
496,192,103510,5,4,0:1:0:0:
304,192,103972,2,0,P|184:144|304:88,1,320,2|2,0:0|0:0,0:0:0:0:
480,192,105356,5,0,0:0:0:0:
320,192,105818,2,0,L|504:192,2,160,2|2|0,0:0|0:0|0:0,0:0:0:0:
128,192,107202,5,2,0:0:0:0:
416,192,108126,2,0,L|248:192,1,160,0|2,0:0|0:0,0:0:0:0:
456,192,109049,6,0,P|488:144|320:80,1,320,2|2,0:0|0:0,0:0:0:0:
136,192,110433,1,0,0:0:0:0:
352,192,110895,5,4,0:0:0:0:
