osu file format v14

[General]
AudioFilename: audio.mp3
AudioLeadIn: 0
PreviewTime: 24148
Countdown: 0
SampleSet: Soft
StackLeniency: 0.7
Mode: 0
LetterboxInBreaks: 0
WidescreenStoryboard: 1

[Editor]
Bookmarks: 12854,38618,46736,58030
DistanceSpacing: 1
BeatDivisor: 4
GridSize: 16
TimelineZoom: 1.4

[Metadata]
Title:JENNI
TitleUnicode:JENNI
Artist:Yung Kage
ArtistUnicode:Yung Kage
Creator:Lurumic
Version:momothx's Extra
Source:
Tags:Ajitani Hifumi we vibing peroro momothx actiol english pop hyperpop Airiesu Mujina LeCandy yungspoiler softwilly music punk rock
BeatmapID:3930765
BeatmapSetID:1872708

[Difficulty]
HPDrainRate:5
CircleSize:4.2
OverallDifficulty:8.2
ApproachRate:9.1
SliderMultiplier:1.8
SliderTickRate:1

[Events]
//Background and Video events
0,0,"is that jenni in the bg.jpg",0,0
//Break Periods
//Storyboard Layer 0 (Background)
//Storyboard Layer 1 (Fail)
//Storyboard Layer 2 (Pass)
//Storyboard Layer 3 (Foreground)
//Storyboard Layer 4 (Overlay)
//Storyboard Sound Samples

[TimingPoints]
148,352.941176470588,4,2,1,70,1,0
236,-100,4,2,1,70,0,0
324,-100,4,2,1,70,0,0
589,-100,4,2,1,70,0,0
677,-100,4,2,1,70,0,0
942,-100,4,2,1,70,0,0
1030,-100,4,2,1,70,0,0
1471,-100,4,2,1,70,0,0
1559,-100,4,2,1,70,0,0
1823,-100,4,2,1,70,0,0
1911,-100,4,2,2,70,0,0
2264,-100,4,2,2,70,0,0
2353,-100,4,2,2,70,0,0
2441,-100,4,2,2,70,0,0
2529,-100,4,2,2,70,0,0
2617,-100,4,2,2,70,0,0
3058,-100,4,2,2,5,0,0
3147,-100,4,2,2,70,0,0
3235,-100,4,2,2,70,0,0
3323,-100,4,2,2,70,0,0
3676,-100,4,2,2,70,0,0
4294,-100,4,2,2,70,0,0
4383,-100,4,2,2,70,0,0
4647,-100,4,2,2,5,0,0
4735,-100,4,2,2,70,0,0
4911,-100,4,2,1,70,0,0
5088,-100,4,2,1,70,0,0
5176,-100,4,2,1,5,0,0
5264,-100,4,2,1,70,0,0
5442,-100,4,2,2,70,0,0
5882,-100,4,2,2,70,0,0
5970,-100,4,2,2,70,0,0
6058,-100,4,2,2,70,0,0
6147,-100,4,2,2,70,0,0
6411,-100,4,2,2,70,0,0
6500,-100,4,2,2,70,0,0
7382,-100,4,2,2,70,0,0
7470,-100,4,2,2,5,0,0
7558,-100,4,2,2,70,0,0
7735,-100,4,2,1,70,0,0
7911,-100,4,2,1,70,0,0
8000,-100,4,2,1,5,0,0
8088,-100,4,2,1,70,0,0
8265,-100,4,2,2,70,0,0
9235,-100,4,2,2,70,0,0
9323,-100,4,2,2,70,0,0
10030,-100,4,2,2,70,0,0
10294,-100,4,2,2,5,0,0
10382,-100,4,2,2,70,0,0
10558,-100,4,2,1,70,0,0
10735,-100,4,2,1,70,0,0
10823,-100,4,2,1,5,0,0
10911,-100,4,2,1,70,0,0
11089,-100,4,2,2,70,0,0
11529,-100,4,2,2,70,0,0
11617,-100,4,2,2,70,0,0
11706,-100,4,2,2,70,0,0
11795,-100,4,2,2,72,0,0
11971,-100,4,2,1,75,0,0
12148,-100,4,2,2,80,0,0
12677,-100,4,2,2,80,0,0
12854,-100,4,2,2,80,0,0
13207,-100,4,2,1,80,0,0
18500,-133.333333333333,4,2,1,80,0,0
18854,-133.333333333333,4,2,1,50,0,0
22206,-133.333333333333,4,2,1,65,0,0
23618,-133.333333333333,4,2,1,80,0,0
23706,-133.333333333333,4,2,1,80,0,0
23794,-133.333333333333,4,2,2,80,0,0
24147,-66.6666666666667,4,2,2,80,0,1
24324,-66.6666666666667,4,2,1,80,0,1
24411,-66.6666666666667,4,2,1,80,0,1
24501,-83.3333333333333,4,2,2,80,0,1
24677,-66.6666666666667,4,2,1,80,0,1
24854,-66.6666666666667,4,2,2,80,0,1
24942,-66.6666666666667,4,2,2,80,0,1
25030,-66.6666666666667,4,2,2,80,0,1
25207,-83.3333333333333,4,2,2,80,0,1
25559,-83.3333333333333,4,2,1,80,0,1
25647,-83.3333333333333,4,2,1,80,0,1
25736,-83.3333333333333,4,2,2,80,0,1
25824,-83.3333333333333,4,2,2,80,0,1
25912,-83.3333333333333,4,2,2,80,0,1
26089,-83.3333333333333,4,2,1,80,0,1
26265,-83.3333333333333,4,2,2,80,0,1
26795,-83.3333333333333,4,2,1,80,0,1
26971,-83.3333333333333,4,2,2,80,0,1
27148,-83.3333333333333,4,2,1,80,0,1
27235,-83.3333333333333,4,2,1,5,0,1
27324,-83.3333333333333,4,2,2,80,0,1
27501,-83.3333333333333,4,2,1,80,0,1
27677,-83.3333333333333,4,2,2,80,0,1
27765,-83.3333333333333,4,2,2,80,0,1
27853,-83.3333333333333,4,2,2,80,0,1
27942,-83.3333333333333,4,2,2,80,0,1
28030,-83.3333333333333,4,2,2,80,0,1
28383,-83.3333333333333,4,2,1,80,0,1
28470,-83.3333333333333,4,2,1,80,0,1
28559,-83.3333333333333,4,2,2,80,0,1
28823,-83.3333333333333,4,2,2,80,0,1
28912,-83.3333333333333,4,2,1,80,0,1
29089,-83.3333333333333,4,2,2,80,0,1
29795,-333.333333333333,4,2,2,80,0,1
29971,-333.333333333333,4,2,1,80,0,1
30058,-333.333333333333,4,2,1,80,0,1
30148,-83.3333333333333,4,2,2,80,0,1
30324,-83.3333333333333,4,2,1,80,0,1
30501,-83.3333333333333,4,2,2,80,0,1
30589,-83.3333333333333,4,2,2,80,0,1
30677,-83.3333333333333,4,2,2,80,0,1
31207,-83.3333333333333,4,2,1,80,0,1
31294,-83.3333333333333,4,2,1,80,0,1
31383,-83.3333333333333,4,2,2,80,0,1
31471,-83.3333333333333,4,2,2,80,0,1
31559,-83.3333333333333,4,2,2,80,0,1
31736,-83.3333333333333,4,2,1,80,0,1
31912,-83.3333333333333,4,2,2,80,0,1
32442,-83.3333333333333,4,2,1,80,0,1
32618,-83.3333333333333,4,2,2,80,0,1
32795,-83.3333333333333,4,2,1,80,0,1
32882,-83.3333333333333,4,2,1,5,0,1
32971,-83.3333333333333,4,2,2,80,0,1
33148,-83.3333333333333,4,2,1,80,0,1
33324,-83.3333333333333,4,2,2,80,0,1
34030,-83.3333333333333,4,2,1,80,0,1
34207,-83.3333333333333,4,2,2,80,0,1
34295,-83.3333333333333,4,2,2,80,0,1
34383,-83.3333333333333,4,2,2,80,0,1
34559,-83.3333333333333,4,2,1,80,0,1
34736,-83.3333333333333,4,2,2,80,0,1
35354,-83.3333333333333,4,2,2,80,0,1
35442,-83.3333333333333,4,2,2,80,0,1
35618,-83.3333333333333,4,2,1,80,0,1
35706,-83.3333333333333,4,2,1,5,0,1
35795,-83.3333333333333,4,2,2,80,0,1
35971,-83.3333333333333,4,2,1,80,0,1
36148,-83.3333333333333,4,2,2,80,0,1
36236,-83.3333333333333,4,2,2,80,0,1
36324,-83.3333333333333,4,2,2,80,0,1
36412,-83.3333333333333,4,2,2,80,0,1
36500,-83.3333333333333,4,2,2,80,0,1
36854,-83.3333333333333,4,2,1,80,0,1
36941,-83.3333333333333,4,2,1,80,0,1
37030,-83.3333333333333,4,2,2,80,0,1
37118,-83.3333333333333,4,2,2,80,0,1
37206,-83.3333333333333,4,2,2,80,0,1
37383,-83.3333333333333,4,2,1,80,0,1
37559,-83.3333333333333,4,2,2,80,0,1
38000,-83.3333333333333,4,2,2,5,0,1
38089,-83.3333333333333,4,2,1,80,0,1
38265,-83.3333333333333,4,2,2,80,0,1
38442,-83.3333333333333,4,2,1,80,0,1
38529,-83.3333333333333,4,2,1,5,0,1
38618,-83.3333333333333,4,2,2,80,0,1
38795,-83.3333333333333,4,2,1,80,0,1
38971,-83.3333333333333,4,2,2,80,0,1
39059,-83.3333333333333,4,2,2,80,0,1
39147,-83.3333333333333,4,2,2,80,0,1
39236,-83.3333333333333,4,2,2,80,0,1
39324,-83.3333333333333,4,2,2,80,0,1
39677,-83.3333333333333,4,2,1,80,0,1
39764,-83.3333333333333,4,2,1,5,0,1
39854,-83.3333333333333,4,2,2,80,0,1
39942,-83.3333333333333,4,2,2,80,0,1
40030,-83.3333333333333,4,2,2,80,0,1
40207,-83.3333333333333,4,2,1,80,0,1
40383,-83.3333333333333,4,2,2,80,0,1
40824,-83.3333333333333,4,2,2,5,0,1
40912,-83.3333333333333,4,2,2,80,0,1
41265,-83.3333333333333,4,2,1,80,0,1
41353,-83.3333333333333,4,2,1,5,0,1
41442,-83.3333333333333,4,2,2,80,0,1
41618,-83.3333333333333,4,2,1,80,0,1
41795,-83.3333333333333,4,2,2,80,0,1
41883,-83.3333333333333,4,2,2,80,0,1
41971,-83.3333333333333,4,2,2,80,0,1
42059,-83.3333333333333,4,2,2,80,0,1
42147,-83.3333333333333,4,2,2,80,0,1
42501,-83.3333333333333,4,2,1,80,0,1
42588,-83.3333333333333,4,2,1,80,0,1
42677,-83.3333333333333,4,2,2,80,0,1
42765,-83.3333333333333,4,2,2,80,0,1
42853,-83.3333333333333,4,2,2,80,0,1
43030,-83.3333333333333,4,2,1,80,0,1
43207,-83.3333333333333,4,2,2,80,0,1
43647,-83.3333333333333,4,2,2,5,0,1
43736,-83.3333333333333,4,2,1,80,0,1
43912,-83.3333333333333,4,2,2,80,0,1
44089,-83.3333333333333,4,2,1,80,0,1
44176,-83.3333333333333,4,2,1,5,0,1
44265,-83.3333333333333,4,2,2,80,0,1
44353,-83.3333333333333,4,2,2,80,0,1
44442,-83.3333333333333,4,2,1,80,0,1
44530,-83.3333333333333,4,2,1,80,0,1
44618,-83.3333333333333,4,2,2,80,0,1
45059,-83.3333333333333,4,2,2,80,0,1
45147,-83.3333333333333,4,2,2,80,0,1
45324,-83.3333333333333,4,2,1,80,0,1
45411,-83.3333333333333,4,2,1,80,0,1
45501,-83.3333333333333,4,2,2,80,0,1
45854,-83.3333333333333,4,2,1,80,0,1
46030,-83.3333333333333,4,2,2,80,0,1
46559,-83.3333333333333,4,2,2,80,0,1
46736,-133.333333333333,4,2,2,40,0,0
46912,-133.333333333333,4,2,1,40,0,0
47794,-133.333333333333,4,2,1,35,0,0
48147,-133.333333333333,4,2,1,40,0,0
49206,-133.333333333333,4,2,1,35,0,0
49558,-133.333333333333,4,2,1,40,0,0
50617,-133.333333333333,4,2,1,35,0,0
50970,-133.333333333333,4,2,1,40,0,0
52029,-133.333333333333,4,2,1,35,0,0
52736,-133.333333333333,4,2,1,40,0,0
58030,-133.333333333333,4,2,1,45,0,0
67912,-133.333333333333,4,2,1,45,0,0
68265,-133.333333333333,4,2,1,45,0,0
68529,-133.333333333333,4,2,1,45,0,0
68618,-133.333333333333,4,2,1,70,0,0
68882,-133.333333333333,4,2,1,70,0,0
68971,-133.333333333333,4,2,1,75,0,0
69235,-133.333333333333,4,2,1,75,0,0
69324,-66.6666666666667,4,2,2,85,0,1
69501,-83.3333333333333,4,2,1,85,0,1
69588,-83.3333333333333,4,2,1,85,0,1
69677,-83.3333333333333,4,2,2,85,0,1
69854,-66.6666666666667,4,2,1,85,0,1
70030,-83.3333333333333,4,2,2,85,0,1
70118,-83.3333333333333,4,2,2,85,0,1
70206,-83.3333333333333,4,2,2,85,0,1
70736,-83.3333333333333,4,2,1,85,0,1
70823,-83.3333333333333,4,2,1,85,0,1
70912,-83.3333333333333,4,2,2,85,0,1
71000,-83.3333333333333,4,2,2,85,0,1
71089,-83.3333333333333,4,2,2,85,0,1
71265,-83.3333333333333,4,2,1,85,0,1
71442,-83.3333333333333,4,2,2,85,0,1
71971,-83.3333333333333,4,2,1,85,0,1
72148,-83.3333333333333,4,2,2,85,0,1
72324,-83.3333333333333,4,2,1,85,0,1
72411,-83.3333333333333,4,2,1,5,0,1
72501,-83.3333333333333,4,2,2,85,0,1
72677,-83.3333333333333,4,2,1,85,0,1
72854,-83.3333333333333,4,2,2,85,0,1
72942,-83.3333333333333,4,2,2,85,0,1
73030,-83.3333333333333,4,2,2,85,0,1
73118,-83.3333333333333,4,2,2,85,0,1
73206,-83.3333333333333,4,2,2,85,0,1
73559,-83.3333333333333,4,2,1,85,0,1
73647,-83.3333333333333,4,2,1,85,0,1
73736,-83.3333333333333,4,2,2,85,0,1
74089,-83.3333333333333,4,2,1,85,0,1
74265,-83.3333333333333,4,2,2,85,0,1
75148,-83.3333333333333,4,2,1,85,0,1
75235,-83.3333333333333,4,2,1,85,0,1
75324,-83.3333333333333,4,2,2,85,0,1
75501,-83.3333333333333,4,2,1,85,0,1
75677,-83.3333333333333,4,2,2,85,0,1
75765,-83.3333333333333,4,2,2,85,0,1
75853,-83.3333333333333,4,2,2,85,0,1
75942,-83.3333333333333,4,2,2,85,0,1
76030,-83.3333333333333,4,2,2,85,0,1
76383,-83.3333333333333,4,2,1,85,0,1
76470,-83.3333333333333,4,2,1,85,0,1
76559,-83.3333333333333,4,2,2,85,0,1
76647,-83.3333333333333,4,2,2,85,0,1
76736,-83.3333333333333,4,2,2,85,0,1
76912,-83.3333333333333,4,2,1,85,0,1
77089,-83.3333333333333,4,2,2,85,0,1
77618,-83.3333333333333,4,2,1,85,0,1
77795,-83.3333333333333,4,2,2,85,0,1
77971,-83.3333333333333,4,2,1,85,0,1
78058,-83.3333333333333,4,2,1,5,0,1
78148,-83.3333333333333,4,2,2,85,0,1
78324,-83.3333333333333,4,2,1,85,0,1
78501,-83.3333333333333,4,2,2,85,0,1
78589,-83.3333333333333,4,2,2,85,0,1
78677,-83.3333333333333,4,2,2,85,0,1
78765,-83.3333333333333,4,2,2,85,0,1
78853,-83.3333333333333,4,2,2,85,0,1
79207,-83.3333333333333,4,2,1,85,0,1
79294,-83.3333333333333,4,2,1,85,0,1
79383,-83.3333333333333,4,2,2,85,0,1
79648,-83.3333333333333,4,2,1,85,0,1
79736,-83.3333333333333,4,2,1,85,0,1
79912,-83.3333333333333,4,2,2,85,0,1
80530,-83.3333333333333,4,2,2,85,0,1
80618,-83.3333333333333,4,2,2,85,0,1
80795,-83.3333333333333,4,2,1,85,0,1
80882,-83.3333333333333,4,2,1,5,0,1
80971,-83.3333333333333,4,2,2,85,0,1
81148,-83.3333333333333,4,2,1,85,0,1
81324,-83.3333333333333,4,2,2,85,0,1
81412,-83.3333333333333,4,2,2,85,0,1
81500,-83.3333333333333,4,2,2,85,0,1
81589,-83.3333333333333,4,2,2,85,0,1
81677,-83.3333333333333,4,2,2,85,0,1
82030,-83.3333333333333,4,2,1,85,0,1
82117,-83.3333333333333,4,2,1,85,0,1
82207,-83.3333333333333,4,2,2,85,0,1
82295,-83.3333333333333,4,2,2,85,0,1
82382,-83.3333333333333,4,2,2,85,0,1
82559,-83.3333333333333,4,2,1,85,0,1
82736,-83.3333333333333,4,2,2,85,0,1
83265,-83.3333333333333,4,2,1,85,0,1
83442,-83.3333333333333,4,2,2,85,0,1
83618,-83.3333333333333,4,2,1,85,0,1
83706,-83.3333333333333,4,2,1,5,0,1
83795,-83.3333333333333,4,2,2,85,0,1
83883,-83.3333333333333,4,2,2,85,0,1
83971,-83.3333333333333,4,2,1,85,0,1
84059,-83.3333333333333,4,2,1,85,0,1
84148,-83.3333333333333,4,2,2,85,0,1
84854,-83.3333333333333,4,2,1,85,0,1
84941,-83.3333333333333,4,2,1,85,0,1
85030,-83.3333333333333,4,2,2,85,0,1
85118,-83.3333333333333,4,2,2,85,0,1
85206,-83.3333333333333,4,2,2,85,0,1
85383,-83.3333333333333,4,2,1,85,0,1
85559,-83.3333333333333,4,2,2,85,0,1
86177,-83.3333333333333,4,2,2,85,0,1
86265,-83.3333333333333,4,2,2,85,0,1
86442,-83.3333333333333,4,2,1,85,0,1
86529,-83.3333333333333,4,2,1,5,0,1
86618,-83.3333333333333,4,2,2,85,0,1
86795,-83.3333333333333,4,2,1,85,0,1
86971,-83.3333333333333,4,2,2,85,0,1
87059,-83.3333333333333,4,2,2,85,0,1
87147,-83.3333333333333,4,2,2,85,0,1
87236,-83.3333333333333,4,2,2,85,0,1
87324,-83.3333333333333,4,2,2,85,0,1
87677,-83.3333333333333,4,2,1,85,0,1
87764,-83.3333333333333,4,2,1,85,0,1
87854,-83.3333333333333,4,2,2,85,0,1
87942,-83.3333333333333,4,2,2,85,0,1
88030,-83.3333333333333,4,2,2,85,0,1
88207,-83.3333333333333,4,2,1,85,0,1
88383,-83.3333333333333,4,2,2,85,0,1
88912,-83.3333333333333,4,2,1,85,0,1
89089,-83.3333333333333,4,2,2,85,0,1
89265,-83.3333333333333,4,2,1,85,0,1
89353,-83.3333333333333,4,2,1,5,0,1
89442,-83.3333333333333,4,2,2,85,0,1
89530,-83.3333333333333,4,2,2,85,0,1
89618,-83.3333333333333,4,2,1,85,0,1
89706,-83.3333333333333,4,2,1,85,0,1
89795,-83.3333333333333,4,2,2,85,0,1
90501,-83.3333333333333,4,2,1,85,0,1
90677,-83.3333333333333,4,2,2,85,0,1
90765,-83.3333333333333,4,2,2,85,0,1
90853,-83.3333333333333,4,2,2,85,0,1
91030,-83.3333333333333,4,2,1,85,0,1
91207,-83.3333333333333,4,2,2,85,0,1
91824,-83.3333333333333,4,2,2,85,0,1
91912,-83.3333333333333,4,2,2,85,0,1
92089,-83.3333333333333,4,2,1,85,0,1
92265,-133.333333333333,4,2,1,35,0,0

[Colours]
Combo1 : 209,164,255
Combo2 : 140,198,255
Combo3 : 255,214,193
Combo4 : 199,141,141

[HitObjects]
134,125,148,5,10,2:2:0:0:
200,108,501,1,10,2:2:0:0:
265,130,854,1,10,2:2:0:0:
456,19,1207,1,10,2:2:0:0:
456,19,1559,6,0,P|435:62|436:111,1,90,0|0,1:1|0:0,0:0:0:0:
487,256,1912,1,8,1:2:0:0:
487,256,2265,1,0,1:1:0:0:
409,229,2442,1,0,1:1:0:0:
267,355,2618,1,8,1:2:0:0:
321,299,2794,2,0,P|327:245|326:147,1,135,0|0,1:1|0:0,0:0:0:0:
327,164,3148,1,0,1:1:0:0:
173,16,3324,1,8,1:2:0:0:
173,16,3677,1,0,1:1:0:0:
249,84,3854,1,0,1:1:0:0:
122,172,4030,2,0,P|79:149|25:150,1,90,10|0,1:2|0:0,0:0:0:0:
183,363,4383,6,0,P|229:339|316:328,1,135,2|0,1:2|0:0,0:0:0:0:
310,327,4736,1,8,1:2:0:0:
503,320,4912,2,0,P|436:313|375:284,1,135,2|0,2:2|0:0,0:0:0:0:
375,284,5265,1,0,1:1:0:0:
183,363,5442,1,10,1:2:0:0:
131,276,5618,2,0,B|163:283|163:283|251:235|251:235|308:243,1,180,0|0,1:1|1:1,0:0:0:0:
54,114,6148,1,8,1:2:0:0:
54,114,6501,1,0,1:1:0:0:
161,167,6677,1,0,1:1:0:0:
45,243,6854,2,0,P|36:292|48:334,1,90,10|0,1:2|1:1,0:0:0:0:
248,36,7207,6,0,P|200:76|120:84,1,135,2|0,1:2|0:0,0:0:0:0:
129,86,7559,1,8,1:2:0:0:
363,198,7735,2,0,P|311:156|244:147,1,135,2|0,2:2|0:0,0:0:0:0:
244,147,8088,1,0,1:1:0:0:
467,61,8265,1,10,1:2:0:0:
383,18,8442,2,0,L|361:206,1,180,0|0,1:1|1:1,0:0:0:0:
243,322,8971,1,8,1:2:0:0:
243,322,9324,1,0,1:1:0:0:
336,287,9501,1,0,1:1:0:0:
425,256,9677,2,0,P|468:248|512:258,1,90,10|0,1:2|0:0,0:0:0:0:
153,167,10030,6,0,P|208:168|271:250,1,135,2|0,1:2|0:0,0:0:0:0:
264,220,10383,1,8,1:2:0:0:
43,327,10558,2,0,P|76:281|55:188,1,135,2|0,2:2|0:0,0:0:0:0:
69,207,10911,1,0,1:1:0:0:
205,361,11089,1,10,1:2:0:0:
264,302,11265,2,0,B|298:320|298:320|387:291|387:291|450:324,1,180,0|0,1:1|1:1,0:0:0:0:
323,222,11795,2,0,L|315:126,1,90,10|0,3:2|3:3,0:0:0:0:
68,14,12148,1,2,3:2:0:0:
131,74,12324,1,0,3:3:0:0:
155,0,12501,1,10,3:2:0:0:
126,42,12677,1,2,1:2:0:0:
126,42,12765,1,0,1:1:0:0:
126,42,12854,1,0,1:1:0:0:
256,192,13030,12,2,18148,2:2:0:0:
94,264,18500,6,0,L|76:121,1,135.000005149842,0|10,0:0|2:1,0:0:0:0:
265,226,19207,2,0,L|247:368,1,135.000005149842,2|10,2:2|2:1,0:0:0:0:
417,244,19912,2,0,L|399:101,1,135.000005149842,0|8,0:0|2:1,0:0:0:0:
247,16,20618,1,2,2:2:0:0:
247,16,20971,1,10,2:1:0:0:
315,129,21324,6,0,L|172:111,1,135.000005149842,0|10,0:0|2:1,0:0:0:0:
305,246,22030,2,0,L|447:228,1,135.000005149842,2|10,2:2|2:1,0:0:0:0:
235,350,22736,1,2,2:2:0:0:
410,122,23618,5,0,1:1:0:0:
104,218,23795,1,10,1:2:0:0:
512,310,24147,6,0,B|466:286|400:313|433:342|366:377|310:346,1,202.500007724762,0|0,3:3|0:0,0:0:0:0:
274,293,24501,2,0,L|292:172,1,107.999996704102,10|0,3:2|3:3,0:0:0:0:
131,34,24854,1,2,3:2:0:0:
175,286,25030,1,0,3:3:0:0:
6,75,25207,1,10,3:2:0:0:
48,154,25383,2,0,P|78:232|89:384,2,215.999993408203,2|2|2,3:2|3:2|3:2,0:0:0:0:
178,384,26265,1,2,3:2:0:0:
245,129,26442,1,0,3:3:0:0:
418,281,26617,2,0,P|434:339|423:389,1,107.999996704102,8|0,3:2|3:3,0:0:0:0:
203,213,26971,6,0,B|243:205|243:205|322:236|322:236|383:224,1,161.999995056153,0|0,3:3|0:0,0:0:0:0:
437,171,27324,2,0,L|431:38,1,107.999996704102,10|0,3:2|3:3,0:0:0:0:
335,325,27677,1,2,3:2:0:0:
218,104,27854,1,0,3:3:0:0:
78,320,28030,1,10,3:2:0:0:
126,253,28207,2,0,P|129:187|31:68,2,215.999993408203,2|2|2,3:2|3:2|3:2,0:0:0:0:
149,24,29089,5,2,3:2:0:0:
32,194,29265,1,0,3:3:0:0:
287,72,29442,1,10,3:2:0:0:
324,302,29618,1,0,3:3:0:0:
482,169,29795,6,0,P|495:153|512:144,1,40.4999987640381,2|0,3:2|0:0,0:0:0:0:
414,117,30148,2,0,P|350:150|281:154,1,107.999996704102,10|0,3:2|3:3,0:0:0:0:
73,11,30501,1,2,3:2:0:0:
179,154,30677,1,0,3:3:0:0:
5,320,30854,1,10,3:2:0:0:
58,257,31030,2,0,P|65:183|-11:43,2,215.999993408203,2|2|2,3:2|3:2|3:2,0:0:0:0:
142,15,31912,1,2,3:2:0:0:
226,265,32089,1,0,3:3:0:0:
450,33,32265,2,0,P|371:58|350:98,1,107.999996704102,8|0,3:2|3:3,0:0:0:0:
179,154,32618,6,0,P|271:172|328:246,1,161.999995056153,0|0,3:3|0:0,0:0:0:0:
361,293,32971,2,0,P|420:295|491:257,1,107.999996704102,10|0,3:2|3:3,0:0:0:0:
280,70,33324,1,2,3:2:0:0:
167,330,33501,1,0,3:3:0:0:
5,104,33677,1,10,3:2:0:0:
30,182,33854,2,0,L|266:148,2,215.999993408203,2|2|2,3:2|3:2|3:2,0:0:0:0:
390,226,34736,1,2,3:2:0:0:
240,69,34912,1,0,3:3:0:0:
115,320,35089,1,10,3:2:0:0:
194,257,35265,1,0,3:3:0:0:
194,257,35353,1,0,1:1:0:0:
194,257,35442,6,0,P|262:275|359:364,1,161.999995056153,0|0,3:3|0:0,0:0:0:0:
419,368,35795,2,0,P|420:318|461:253,1,107.999996704102,10|0,3:2|3:3,0:0:0:0:
344,114,36148,1,2,3:2:0:0:
235,357,36324,1,0,3:3:0:0:
182,86,36501,1,10,3:2:0:0:
135,152,36677,2,0,P|83:140|3:148,1,107.999996704102,2|0,3:2|3:3,0:0:0:0:
146,372,37030,1,2,3:2:0:0:
275,200,37207,2,0,P|335:184|393:183,1,107.999996704102,10|0,3:2|3:3,0:0:0:0:
499,351,37559,1,2,3:2:0:0:
363,100,37736,1,0,3:3:0:0:
227,384,37912,2,0,P|240:361|247:335,1,53.9999983520508,10|0,3:2|0:0,0:0:0:0:
216,269,38089,1,2,3:2:0:0:
0,146,38264,6,0,P|59:170|168:117,1,161.999995056153,0|0,3:3|0:0,0:0:0:0:
172,60,38618,2,0,P|244:44|286:55,1,107.999996704102,10|0,3:2|3:3,0:0:0:0:
396,188,38971,1,2,3:2:0:0:
130,271,39148,1,0,3:3:0:0:
405,384,39324,1,10,3:2:0:0:
208,194,39501,2,0,P|230:258|206:355,1,161.999995056153,2|0,3:2|0:0,0:0:0:0:
138,376,39854,1,2,3:2:0:0:
291,176,40030,2,0,P|348:171|409:196,1,107.999996704102,10|0,3:2|3:3,0:0:0:0:
95,52,40383,1,2,3:2:0:0:
232,289,40559,1,0,3:3:0:0:
366,89,40736,2,0,P|343:73|317:68,1,53.9999983520508,10|0,3:2|0:0,0:0:0:0:
245,74,40912,1,2,3:2:0:0:
26,260,41089,6,0,P|90:226|187:231,1,161.999995056153,0|0,3:3|0:0,0:0:0:0:
233,292,41442,2,0,P|287:309|355:295,1,107.999996704102,10|0,3:2|3:3,0:0:0:0:
146,93,41795,1,2,3:2:0:0:
0,337,41971,1,0,3:3:0:0:
239,169,42148,1,10,3:2:0:0:
96,0,42324,2,0,P|132:49|147:99,1,107.999996704102,2|0,3:2|3:3,0:0:0:0:
117,302,42677,1,2,3:2:0:0:
264,77,42854,2,0,P|324:79|375:115,1,107.999996704102,10|0,3:2|3:3,0:0:0:0:
241,306,43207,1,2,3:2:0:0:
146,93,43383,1,0,3:3:0:0:
412,184,43559,2,0,P|414:218|404:249,1,53.9999983520508,10|0,3:2|0:0,0:0:0:0:
366,300,43736,1,2,3:2:0:0:
110,376,43912,6,0,P|125:306|95:223,1,161.999995056153,0|0,3:3|0:0,0:0:0:0:
24,187,44265,2,0,P|75:142|146:147,1,107.999996704102,10|0,3:2|3:3,0:0:0:0:
247,372,44618,1,2,3:2:0:0:
334,149,44795,1,0,3:3:0:0:
469,332,44971,1,10,3:2:0:0:
441,247,45148,2,0,P|387:251|334:261,1,107.999996704102,2|0,3:2|3:3,0:0:0:0:
115,353,45501,1,2,3:2:0:0:
218,99,45677,1,10,3:2:0:0:
361,344,45854,1,2,3:2:0:0:
430,85,46030,5,2,3:2:0:0:
485,139,46206,1,0,3:3:0:0:
509,65,46383,1,10,3:2:0:0:
480,107,46559,1,0,1:1:0:0:
480,107,46647,1,0,1:1:0:0:
480,107,46736,5,2,1:2:0:0:
427,51,47265,1,2,2:2:0:0:
427,51,47442,1,2,2:2:0:0:
368,4,48148,1,2,2:2:0:0:
294,18,48677,1,2,2:2:0:0:
294,18,48854,1,2,2:2:0:0:
229,54,49559,1,2,2:2:0:0:
208,127,50089,1,0,0:0:0:0:
208,127,50265,1,2,2:2:0:0:
237,196,50971,1,2,2:2:0:0:
308,219,51501,1,2,2:2:0:0:
308,219,51677,1,2,2:2:0:0:
17,167,52383,6,0,L|42:325,1,135.000005149842,2|10,2:2|2:1,0:0:0:0:
102,187,53089,2,0,L|127:28,1,135.000005149842,2|10,2:2|2:1,0:0:0:0:
191,161,53795,2,0,L|212:294,1,135.000005149842,2|10,2:2|2:1,0:0:0:0:
276,177,54501,1,2,2:2:0:0:
276,177,54854,1,10,2:1:0:0:
450,171,55207,6,0,L|424:12,1,135.000005149842,2|10,2:2|2:1,0:0:0:0:
365,151,55911,2,0,L|339:309,1,135.000005149842,2|10,2:2|2:1,0:0:0:0:
276,177,56617,2,0,L|254:43,1,135.000005149842,2|10,2:2|2:1,0:0:0:0:
191,161,57323,1,2,2:2:0:0:
191,161,57676,1,10,2:1:0:0:
410,42,58030,5,2,3:2:0:0:
406,127,58207,1,2,3:2:0:0:
328,175,58383,1,10,3:1:0:0:
328,175,58559,2,0,P|242:170|182:120,1,135.000005149842,2|2,3:2|3:2,0:0:0:0:
384,120,59089,1,10,3:1:0:0:
384,120,59265,2,0,P|403:151|358:253,1,135.000005149842,2|2,3:2|3:2,0:0:0:0:
186,256,59795,1,10,3:1:0:0:
186,256,59971,2,0,P|223:257|304:320,1,135.000005149842,2|2,3:2|3:2,0:0:0:0:
139,185,60501,5,8,3:1:0:0:
139,185,60854,1,2,3:2:0:0:
180,273,61030,1,2,3:2:0:0:
127,348,61207,1,10,3:1:0:0:
127,348,61383,2,0,P|91:336|-20:375,1,135.000005149842,2|2,3:2|3:2,0:0:0:0:
224,384,61912,1,10,3:1:0:0:
224,384,62089,2,0,P|249:343|240:245,1,135.000005149842,2|2,3:2|3:2,0:0:0:0:
84,182,62618,1,10,3:1:0:0:
84,182,62795,2,0,P|121:194|161:282,1,135.000005149842,2|2,3:2|3:2,0:0:0:0:
293,148,63324,1,8,3:1:0:0:
293,148,63677,5,2,3:2:0:0:
215,183,63854,1,2,3:2:0:0:
154,119,64030,1,10,3:1:0:0:
154,119,64206,2,0,P|180:93|194:-6,1,135.000005149842,2|2,3:2|3:2,0:0:0:0:
22,126,64736,1,10,3:1:0:0:
22,126,64912,2,0,P|73:151|102:247,1,135.000005149842,2|2,3:2|3:2,0:0:0:0:
162,336,65442,1,10,3:1:0:0:
68,293,65618,1,2,3:2:0:0:
185,238,65795,2,0,P|231:257|275:262,1,67.5000025749208,2|2,3:2|3:2,0:0:0:0:
319,228,66148,1,10,3:1:0:0:
504,125,66501,5,0,3:3:0:0:
372,66,66677,1,2,3:2:0:0:
476,218,66854,2,0,P|496:267|498:305,1,67.5000025749208,10|2,3:1|3:2,0:0:0:0:
310,384,67207,2,0,P|330:335|332:297,1,67.5000025749208,2|2,3:2|3:2,0:0:0:0:
165,162,67559,1,10,3:1:0:0:
190,366,67736,1,2,3:2:0:0:
354,214,67912,5,2,2:2:0:0:
364,137,68265,1,2,2:2:0:0:
311,83,68618,1,2,2:2:0:0:
344,16,68971,1,2,2:2:0:0:
434,220,69324,6,0,B|365:230|365:230|323:279|323:279|232:297,1,202.500007724762,0|0,3:3|0:0,0:0:0:0:
179,343,69677,2,0,P|169:290|181:237,1,107.999996704102,10|0,3:2|3:3,0:0:0:0:
118,0,70030,2,0,P|127:52|115:105,1,107.999996704102,2|0,3:2|3:3,0:0:0:0:
373,62,70383,1,10,3:2:0:0:
305,111,70559,2,0,P|259:82|181:74,1,107.999996704102,2|0,3:2|3:3,0:0:0:0:
404,272,70912,2,0,P|450:243|528:235,1,107.999996704102,2|8,3:2|3:2,0:0:0:0:
192,365,71265,1,2,3:2:0:0:
419,112,71442,1,2,3:2:0:0:
302,368,71618,1,0,3:3:0:0:
248,116,71795,1,8,3:2:0:0:
93,296,71971,1,0,3:3:0:0:
30,0,72148,6,0,B|64:52|64:52|15:147,1,161.999995056153,0|0,3:3|0:0,0:0:0:0:
26,241,72501,2,0,P|78:210|132:213,1,107.999996704102,10|0,3:2|3:3,0:0:0:0:
382,287,72854,2,0,P|328:285|283:256,1,107.999996704102,2|0,3:2|3:3,0:0:0:0:
194,2,73207,1,10,3:2:0:0:
244,60,73383,2,0,P|249:122|225:164,1,107.999996704102,2|0,3:2|3:3,0:0:0:0:
173,384,73736,2,0,P|166:331|189:283,1,107.999996704102,2|8,3:2|3:2,0:0:0:0:
334,134,74089,1,2,3:2:0:0:
69,18,74265,1,2,3:2:0:0:
189,283,74442,1,0,3:3:0:0:
334,25,74618,1,10,3:2:0:0:
40,168,74795,1,0,3:3:0:0:
334,25,74971,6,0,B|399:15|399:15|484:82,1,161.999995056153,2|0,3:2|0:0,0:0:0:0:
512,181,75324,2,0,P|464:155|395:171,1,107.999996704102,10|0,3:2|3:3,0:0:0:0:
235,348,75677,2,0,P|287:353|334:327,1,107.999996704102,2|0,3:2|3:3,0:0:0:0:
74,110,76030,1,10,3:2:0:0:
141,156,76207,2,0,L|157:278,1,107.999996704102,2|0,3:2|3:3,0:0:0:0:
346,107,76559,2,0,L|362:-15,1,107.999996704102,2|8,3:2|3:2,0:0:0:0:
512,254,76912,1,2,3:2:0:0:
217,93,77089,1,2,3:2:0:0:
353,361,77265,1,0,3:3:0:0:
495,100,77442,1,8,3:2:0:0:
271,308,77618,1,0,3:3:0:0:
139,12,77795,6,0,P|68:34|36:151,1,161.999995056153,0|0,3:3|0:0,0:0:0:0:
64,197,78148,2,0,L|185:178,1,107.999996704102,10|0,3:2|3:3,0:0:0:0:
442,271,78501,2,0,L|321:252,1,107.999996704102,2|0,3:2|3:3,0:0:0:0:
258,13,78854,1,10,3:2:0:0:
329,62,79030,2,0,P|372:67|452:32,1,107.999996704102,2|0,3:2|3:3,0:0:0:0:
137,5,79383,2,0,P|94:0|14:35,1,107.999996704102,2|8,3:2|3:2,0:0:0:0:
85,263,79736,1,0,3:3:0:0:
236,28,79912,1,2,3:2:0:0:
28,186,80089,1,0,3:3:0:0:
345,149,80265,1,10,3:2:0:0:
180,345,80442,1,0,3:3:0:0:
180,345,80530,1,0,1:1:0:0:
180,345,80618,6,0,P|248:325|349:333,1,161.999995056153,2|0,3:2|0:0,0:0:0:0:
431,372,80971,2,0,P|425:310|460:252,1,107.999996704102,10|0,3:2|3:3,0:0:0:0:
256,77,81324,2,0,P|262:139|227:197,1,107.999996704102,2|0,3:2|3:3,0:0:0:0:
512,22,81677,1,10,3:2:0:0:
500,109,81854,2,0,P|457:89|379:82,1,107.999996704102,2|0,3:2|3:3,0:0:0:0:
208,270,82207,2,0,P|261:263|310:241,1,107.999996704102,2|8,3:2|3:2,0:0:0:0:
136,38,82559,1,2,3:2:0:0:
73,332,82736,1,2,3:2:0:0:
206,112,82912,1,0,3:3:0:0:
361,327,83089,1,8,3:2:0:0:
117,174,83265,1,0,3:3:0:0:
388,10,83442,6,0,L|417:189,1,161.999995056153,0|0,3:3|0:0,0:0:0:0:
437,266,83795,2,0,P|399:243|328:246,1,107.999996704102,10|0,3:2|3:3,0:0:0:0:
103,372,84148,2,0,P|156:374|203:348,1,107.999996704102,2|0,3:2|3:3,0:0:0:0:
12,84,84501,1,10,3:2:0:0:
77,128,84677,2,0,L|60:259,1,107.999996704102,2|0,3:2|3:3,0:0:0:0:
303,107,85030,2,0,L|286:-24,1,107.999996704102,2|8,3:2|3:2,0:0:0:0:
500,242,85383,1,2,3:2:0:0:
171,289,85559,1,2,3:2:0:0:
410,80,85736,1,0,3:3:0:0:
377,355,85912,1,10,3:2:0:0:
154,177,86089,1,0,3:3:0:0:
454,0,86265,6,0,P|489:43|475:153,1,161.999995056153,2|0,3:2|0:0,0:0:0:0:
417,215,86618,2,0,P|477:220|522:267,1,107.999996704102,10|0,3:2|3:3,0:0:0:0:
260,34,86971,2,0,P|217:66|164:68,1,107.999996704102,2|0,3:2|3:3,0:0:0:0:
72,329,87324,1,10,3:2:0:0:
124,261,87501,2,0,P|165:237|232:244,1,107.999996704102,2|0,3:2|3:3,0:0:0:0:
438,378,87854,2,0,P|384:382|338:357,1,107.999996704102,2|8,3:2|3:2,0:0:0:0:
331,125,88207,1,2,3:2:0:0:
122,354,88383,1,2,3:2:0:0:
425,217,88559,1,0,3:3:0:0:
60,111,88736,1,8,3:2:0:0:
386,0,88912,1,0,3:3:0:0:
60,111,89089,6,0,P|90:143|57:259,1,161.999995056153,0|0,3:3|0:0,0:0:0:0:
0,340,89442,2,0,P|56:332|121:363,1,107.999996704102,10|0,3:2|3:3,0:0:0:0:
453,182,89795,2,0,P|397:190|332:159,1,107.999996704102,2|0,3:2|3:3,0:0:0:0:
63,2,90148,1,10,3:2:0:0:
133,48,90324,2,0,L|111:185,1,107.999996704102,2|0,3:2|3:3,0:0:0:0:
384,383,90677,2,0,L|366:276,1,107.999996704102,2|8,3:2|3:2,0:0:0:0:
36,119,91030,1,2,3:2:0:0:
348,31,91207,1,2,3:2:0:0:
180,279,91383,1,0,3:3:0:0:
490,105,91559,1,10,3:2:0:0:
510,384,91736,1,0,3:3:0:0:
510,384,91824,1,0,1:1:0:0:
510,384,91912,1,2,3:2:0:0:
407,318,92265,6,0,L|248:338,1,135.000005149842,2|0,3:2|3:3,0:0:0:0:
370,226,92971,1,2,3:2:0:0:
370,226,93324,2,0,L|529:246,1,135.000005149842,0|2,3:3|3:2,0:0:0:0:
347,133,93854,1,0,3:3:0:0:
347,133,94030,2,0,L|188:153,1,135.000005149842,0|2,3:3|3:2,0:0:0:0:
21,21,94736,1,0,3:3:0:0:
21,21,95089,6,0,L|36:97,1,67.5000025749208,2|2,3:2|3:2,0:0:0:0:
105,100,95442,2,0,L|90:176,1,67.5000025749208,2|0,3:2|3:3,0:0:0:0:
26,194,95795,2,0,L|41:270,1,67.5000025749208,2|0,3:2|3:3,0:0:0:0:
111,275,96148,2,0,L|96:351,1,67.5000025749208,2|0,3:2|3:3,0:0:0:0:
27,378,96501,1,2,3:2:0:0:
27,378,96677,1,2,3:2:0:0:
180,234,96854,2,0,P|205:259|258:270,2,67.5000025749208,2|2|2,3:2|3:2|3:2,0:0:0:0:
