osu file format v14

[General]
AudioFilename: audio.mp3
AudioLeadIn: 0
PreviewTime: 24148
Countdown: 0
SampleSet: Soft
StackLeniency: 0.7
Mode: 0
LetterboxInBreaks: 0
WidescreenStoryboard: 1

[Editor]
Bookmarks: 12854,27148,38618,46736,58030,69324,91912
DistanceSpacing: 2.4
BeatDivisor: 4
GridSize: 8
TimelineZoom: 1.4

[Metadata]
Title:JENNI
TitleUnicode:JENNI
Artist:Yung Kage
ArtistUnicode:Yung Kage
Creator:Lurumic
Version:Insane
Source:
Tags:Ajitani Hifumi we vibing peroro momothx actiol english pop hyperpop Airiesu Mujina LeCandy yungspoiler softwilly music punk rock
BeatmapID:3856200
BeatmapSetID:1872708

[Difficulty]
HPDrainRate:5.5
CircleSize:3.8
OverallDifficulty:7.8
ApproachRate:9
SliderMultiplier:1.5
SliderTickRate:1

[Events]
//Background and Video events
0,0,"is that jenni in the bg.jpg",0,0
//Break Periods
2,13053,17900
//Storyboard Layer 0 (Background)
//Storyboard Layer 1 (Fail)
//Storyboard Layer 2 (Pass)
//Storyboard Layer 3 (Foreground)
//Storyboard Layer 4 (Overlay)
//Storyboard Sound Samples

[TimingPoints]
148,352.941176470588,4,2,1,70,1,0
236,-100,4,2,1,70,0,0
324,-100,4,2,1,70,0,0
589,-100,4,2,1,70,0,0
677,-100,4,2,1,70,0,0
942,-100,4,2,1,70,0,0
1030,-100,4,2,1,70,0,0
1471,-100,4,2,1,70,0,0
1559,-90.9090909090909,4,2,1,70,0,0
1823,-90.9090909090909,4,2,1,70,0,0
1911,-90.9090909090909,4,2,2,70,0,0
2264,-90.9090909090909,4,2,2,70,0,0
2353,-90.9090909090909,4,2,2,5,0,0
2441,-90.9090909090909,4,2,2,70,0,0
2529,-90.9090909090909,4,2,2,5,0,0
2617,-90.9090909090909,4,2,2,70,0,0
2795,-66.6666666666667,4,2,2,70,0,0
3058,-66.6666666666667,4,2,2,70,0,0
3147,-66.6666666666667,4,2,2,70,0,0
3235,-66.6666666666667,4,2,2,70,0,0
3323,-111.111111111111,4,2,2,70,0,0
3324,-111.111111111111,4,2,2,70,0,0
3676,-111.111111111111,4,2,2,70,0,0
4030,-90.9090909090909,4,2,2,70,0,0
4294,-90.9090909090909,4,2,2,70,0,0
4383,-90.9090909090909,4,2,2,70,0,0
4647,-90.9090909090909,4,2,2,5,0,0
4735,-90.9090909090909,4,2,2,70,0,0
4912,-90.9090909090909,4,2,1,70,0,0
5088,-90.9090909090909,4,2,1,70,0,0
5442,-90.9090909090909,4,2,2,70,0,0
5618,-83.3333333333333,4,2,2,70,0,0
5882,-83.3333333333333,4,2,2,70,0,0
5970,-83.3333333333333,4,2,2,70,0,0
6058,-83.3333333333333,4,2,2,70,0,0
6148,-90.9090909090909,4,2,2,70,0,0
6411,-90.9090909090909,4,2,2,5,0,0
6500,-90.9090909090909,4,2,2,70,0,0
7207,-90.9090909090909,4,2,2,70,0,0
7382,-90.9090909090909,4,2,2,70,0,0
7470,-90.9090909090909,4,2,2,70,0,0
7558,-90.9090909090909,4,2,2,70,0,0
7736,-90.9090909090909,4,2,1,70,0,0
7911,-90.9090909090909,4,2,1,70,0,0
8265,-90.9090909090909,4,2,2,70,0,0
8442,-66.6666666666667,4,2,2,70,0,0
8971,-111.111111111111,4,2,2,70,0,0
9235,-111.111111111111,4,2,2,5,0,0
9323,-111.111111111111,4,2,2,70,0,0
9853,-111.111111111111,4,2,2,70,0,0
10030,-90.909090909091,4,2,2,70,0,0
10294,-90.909090909091,4,2,2,5,0,0
10382,-90.909090909091,4,2,2,70,0,0
10559,-90.909090909091,4,2,1,70,0,0
10735,-90.909090909091,4,2,1,70,0,0
11089,-90.909090909091,4,2,2,70,0,0
11529,-90.909090909091,4,2,2,70,0,0
11617,-90.909090909091,4,2,2,70,0,0
11706,-90.909090909091,4,2,2,70,0,0
11795,-90.909090909091,4,2,2,72,0,0
11971,-90.909090909091,4,2,1,75,0,0
12148,-90.909090909091,4,2,2,80,0,0
12677,-90.909090909091,4,2,2,80,0,0
12854,-90.909090909091,4,2,2,80,0,0
13207,-90.909090909091,4,2,1,80,0,0
18500,-153.846153846153,4,2,1,80,0,0
18854,-153.846153846153,4,2,1,50,0,0
19912,-133.333333333333,4,2,1,50,0,0
20618,-333.333333333333,4,2,1,50,0,0
20971,-166.666666666667,4,2,1,50,0,0
22206,-166.666666666667,4,2,1,65,0,0
23618,-166.666666666667,4,2,1,80,0,0
23706,-166.666666666667,4,2,1,80,0,0
23794,-166.666666666667,4,2,2,80,0,0
24147,-66.6666666666667,4,2,2,80,0,1
24324,-66.6666666666667,4,2,1,80,0,1
24501,-66.6666666666667,4,2,2,80,0,1
24677,-66.6666666666667,4,2,1,80,0,1
24854,-66.6666666666667,4,2,2,80,0,1
24942,-66.6666666666667,4,2,2,80,0,1
25030,-66.6666666666667,4,2,2,80,0,1
25559,-66.6666666666667,4,2,1,80,0,1
25647,-66.6666666666667,4,2,1,5,0,1
25736,-66.6666666666667,4,2,2,80,0,1
25824,-66.6666666666667,4,2,2,80,0,1
25912,-111.111111111111,4,2,2,80,0,1
26089,-111.111111111111,4,2,1,80,0,1
26265,-90.9090909090908,4,2,2,80,0,1
26795,-90.9090909090908,4,2,1,80,0,1
26971,-333.333333333333,4,2,2,80,0,1
27148,-333.333333333333,4,2,1,80,0,1
27235,-333.333333333333,4,2,1,5,0,1
27324,-66.6666666666667,4,2,2,80,0,1
27501,-66.6666666666667,4,2,1,80,0,1
27677,-66.6666666666667,4,2,2,80,0,1
27765,-66.6666666666667,4,2,2,80,0,1
27853,-66.6666666666667,4,2,2,80,0,1
27942,-66.6666666666667,4,2,2,80,0,1
28030,-66.6666666666667,4,2,2,80,0,1
28207,-66.6666666666667,4,2,2,80,0,1
28383,-66.6666666666667,4,2,1,80,0,1
28470,-66.6666666666667,4,2,1,5,0,1
28559,-66.6666666666667,4,2,2,80,0,1
28736,-111.111111111111,4,2,2,80,0,1
28823,-111.111111111111,4,2,2,80,0,1
28912,-111.111111111111,4,2,1,80,0,1
29089,-90.9090909090908,4,2,2,80,0,1
29177,-90.9090909090908,4,2,2,5,0,1
29265,-90.9090909090908,4,2,2,80,0,1
29353,-90.9090909090908,4,2,2,5,0,1
29442,-90.9090909090908,4,2,2,80,0,1
29795,-66.6666666666667,4,2,2,80,0,1
29971,-66.6666666666667,4,2,1,80,0,1
30148,-66.6666666666667,4,2,2,80,0,1
30324,-66.6666666666667,4,2,1,80,0,1
30501,-66.6666666666667,4,2,2,80,0,1
30589,-66.6666666666667,4,2,2,80,0,1
30677,-66.6666666666667,4,2,2,80,0,1
31207,-66.6666666666667,4,2,1,80,0,1
31294,-66.6666666666667,4,2,1,5,0,1
31383,-66.6666666666667,4,2,2,80,0,1
31471,-66.6666666666667,4,2,2,80,0,1
31559,-90.9090909090909,4,2,2,80,0,1
31736,-90.9090909090909,4,2,1,80,0,1
31912,-90.9090909090909,4,2,2,80,0,1
32442,-90.9090909090909,4,2,1,80,0,1
32607,-333.333333333333,4,2,1,80,0,1
32618,-333.333333333333,4,2,2,80,0,1
32795,-333.333333333333,4,2,1,80,0,1
32882,-333.333333333333,4,2,1,5,0,1
32971,-66.6666666666667,4,2,2,80,0,1
33148,-66.6666666666667,4,2,1,80,0,1
33324,-66.6666666666667,4,2,2,80,0,1
34030,-66.6666666666667,4,2,1,80,0,1
34207,-66.6666666666667,4,2,2,80,0,1
34295,-66.6666666666667,4,2,2,80,0,1
34383,-111.111111111111,4,2,2,80,0,1
34559,-111.111111111111,4,2,1,80,0,1
34736,-111.111111111111,4,2,2,80,0,1
35089,-90.9090909090908,4,2,2,80,0,1
35177,-90.9090909090908,4,2,2,5,0,1
35265,-90.9090909090908,4,2,2,80,0,1
35354,-90.9090909090908,4,2,2,80,0,1
35442,-333.333333333333,4,2,2,80,0,1
35618,-333.333333333333,4,2,1,80,0,1
35706,-333.333333333333,4,2,1,5,0,1
35795,-66.6666666666667,4,2,2,80,0,1
35971,-66.6666666666667,4,2,1,80,0,1
36148,-66.6666666666667,4,2,2,80,0,1
36236,-66.6666666666667,4,2,2,80,0,1
36324,-66.6666666666667,4,2,2,80,0,1
36412,-66.6666666666667,4,2,2,80,0,1
36500,-66.6666666666667,4,2,2,80,0,1
36854,-66.6666666666667,4,2,1,80,0,1
36941,-66.6666666666667,4,2,1,5,0,1
37030,-66.6666666666667,4,2,2,80,0,1
37118,-66.6666666666667,4,2,2,80,0,1
37207,-111.111111111111,4,2,2,80,0,1
37383,-111.111111111111,4,2,1,80,0,1
37559,-111.111111111111,4,2,2,80,0,1
38089,-111.111111111111,4,2,1,80,0,1
38265,-333.333333333333,4,2,2,80,0,1
38442,-333.333333333333,4,2,1,80,0,1
38529,-333.333333333333,4,2,1,5,0,1
38618,-66.6666666666667,4,2,2,80,0,1
38795,-66.6666666666667,4,2,1,80,0,1
38971,-66.6666666666667,4,2,2,80,0,1
39059,-66.6666666666667,4,2,2,80,0,1
39147,-66.6666666666667,4,2,2,80,0,1
39236,-66.6666666666667,4,2,2,80,0,1
39324,-66.6666666666667,4,2,2,80,0,1
39501,-66.6666666666667,4,2,2,80,0,1
39677,-66.6666666666667,4,2,1,80,0,1
39764,-66.6666666666667,4,2,1,5,0,1
39854,-66.6666666666667,4,2,2,80,0,1
39942,-66.6666666666667,4,2,2,80,0,1
40030,-111.111111111111,4,2,2,80,0,1
40207,-111.111111111111,4,2,1,80,0,1
40383,-111.111111111111,4,2,2,80,0,1
40736,-90.9090909090908,4,2,2,80,0,1
40824,-90.9090909090908,4,2,2,5,0,1
40912,-90.9090909090908,4,2,2,80,0,1
41089,-333.333333333333,4,2,2,80,0,1
41265,-333.333333333333,4,2,1,80,0,1
41353,-333.333333333333,4,2,1,5,0,1
41442,-66.6666666666667,4,2,2,80,0,1
41618,-66.6666666666667,4,2,1,80,0,1
41795,-66.6666666666667,4,2,2,80,0,1
41883,-66.6666666666667,4,2,2,80,0,1
41971,-66.6666666666667,4,2,2,80,0,1
42059,-66.6666666666667,4,2,2,80,0,1
42147,-66.6666666666667,4,2,2,80,0,1
42501,-66.6666666666667,4,2,1,80,0,1
42588,-66.6666666666667,4,2,1,5,0,1
42677,-66.6666666666667,4,2,2,80,0,1
42765,-66.6666666666667,4,2,2,80,0,1
42854,-90.9090909090909,4,2,2,80,0,1
43030,-90.9090909090909,4,2,1,80,0,1
43207,-90.9090909090909,4,2,2,80,0,1
43736,-90.9090909090909,4,2,1,80,0,1
43912,-333.333333333333,4,2,2,80,0,1
44089,-333.333333333333,4,2,1,80,0,1
44176,-333.333333333333,4,2,1,5,0,1
44265,-66.6666666666667,4,2,2,80,0,1
44353,-66.6666666666667,4,2,2,80,0,1
44442,-66.6666666666667,4,2,1,80,0,1
44530,-66.6666666666667,4,2,1,80,0,1
44618,-66.6666666666667,4,2,2,80,0,1
45059,-66.6666666666667,4,2,2,80,0,1
45148,-57.1428571428571,4,2,2,80,0,1
45324,-57.1428571428571,4,2,1,80,0,1
45411,-57.1428571428571,4,2,1,5,0,1
45501,-57.1428571428571,4,2,2,80,0,1
45676,-90.9090909090909,4,2,2,80,0,1
45677,-90.9090909090909,4,2,2,80,0,1
45854,-90.9090909090909,4,2,1,80,0,1
46029,-66.6666666666667,4,2,2,80,0,1
46118,-66.6666666666667,4,2,2,5,0,1
46206,-66.6666666666667,4,2,2,80,0,1
46295,-66.6666666666667,4,2,2,5,0,1
46383,-66.6666666666667,4,2,2,80,0,1
46471,-66.6666666666667,4,2,2,5,0,1
46558,-50,4,2,2,80,0,1
46736,-133.333333333333,4,2,2,40,0,0
46912,-133.333333333333,4,2,1,40,0,0
47794,-133.333333333333,4,2,1,35,0,0
48147,-133.333333333333,4,2,1,40,0,0
49206,-133.333333333333,4,2,1,35,0,0
49558,-133.333333333333,4,2,1,40,0,0
50617,-133.333333333333,4,2,1,35,0,0
50970,-133.333333333333,4,2,1,40,0,0
52029,-133.333333333333,4,2,1,35,0,0
52736,-133.333333333333,4,2,1,40,0,0
58030,-111.111111111111,4,2,1,45,0,0
67912,-111.111111111111,4,2,1,45,0,0
68265,-111.111111111111,4,2,1,45,0,0
68529,-111.111111111111,4,2,1,45,0,0
68618,-111.111111111111,4,2,1,70,0,0
68882,-111.111111111111,4,2,1,70,0,0
68971,-111.111111111111,4,2,1,75,0,0
69235,-111.111111111111,4,2,1,75,0,0
69324,-66.6666666666667,4,2,2,85,0,1
69501,-66.6666666666667,4,2,1,85,0,1
69677,-66.6666666666667,4,2,2,85,0,1
69854,-66.6666666666667,4,2,1,85,0,1
70030,-66.6666666666667,4,2,2,85,0,1
70118,-66.6666666666667,4,2,2,85,0,1
70206,-66.6666666666667,4,2,2,85,0,1
70736,-66.6666666666667,4,2,1,85,0,1
70823,-66.6666666666667,4,2,1,5,0,1
70912,-66.6666666666667,4,2,2,85,0,1
71000,-66.6666666666667,4,2,2,85,0,1
71089,-111.111111111111,4,2,2,85,0,1
71265,-111.111111111111,4,2,1,85,0,1
71442,-111.111111111111,4,2,2,85,0,1
71971,-111.111111111111,4,2,1,85,0,1
72147,-333.333333333334,4,2,2,85,0,1
72148,-333.333333333334,4,2,2,85,0,1
72324,-333.333333333334,4,2,1,85,0,1
72411,-333.333333333334,4,2,1,5,0,1
72500,-66.6666666666667,4,2,2,85,0,1
72501,-66.6666666666667,4,2,2,85,0,1
72677,-66.6666666666667,4,2,1,85,0,1
72854,-66.6666666666667,4,2,2,85,0,1
72942,-66.6666666666667,4,2,2,85,0,1
73030,-66.6666666666667,4,2,2,85,0,1
73118,-66.6666666666667,4,2,2,85,0,1
73206,-66.6666666666667,4,2,2,85,0,1
73559,-66.6666666666667,4,2,1,85,0,1
73647,-66.6666666666667,4,2,1,5,0,1
73736,-66.6666666666667,4,2,2,85,0,1
73912,-111.111111111111,4,2,2,85,0,1
74089,-111.111111111111,4,2,1,85,0,1
74265,-90.9090909090908,4,2,2,85,0,1
74353,-90.9090909090908,4,2,2,5,0,1
74442,-90.9090909090908,4,2,2,85,0,1
74530,-90.9090909090908,4,2,2,5,0,1
74618,-90.9090909090908,4,2,2,85,0,1
74970,-66.6666666666667,4,2,2,85,0,1
74971,-66.6666666666667,4,2,2,85,0,1
75148,-66.6666666666667,4,2,1,85,0,1
75324,-66.6666666666667,4,2,2,85,0,1
75501,-66.6666666666667,4,2,1,85,0,1
75677,-66.6666666666667,4,2,2,85,0,1
75765,-66.6666666666667,4,2,2,85,0,1
75853,-66.6666666666667,4,2,2,85,0,1
75942,-66.6666666666667,4,2,2,85,0,1
76030,-66.6666666666667,4,2,2,85,0,1
76383,-66.6666666666667,4,2,1,85,0,1
76470,-66.6666666666667,4,2,1,5,0,1
76559,-66.6666666666667,4,2,2,85,0,1
76647,-66.6666666666667,4,2,2,85,0,1
76736,-111.111111111111,4,2,2,85,0,1
76912,-111.111111111111,4,2,1,85,0,1
77089,-111.111111111111,4,2,2,85,0,1
77618,-111.111111111111,4,2,1,85,0,1
77795,-333.333333333331,4,2,2,85,0,1
77971,-333.333333333331,4,2,1,85,0,1
78058,-333.333333333331,4,2,1,5,0,1
78148,-66.6666666666667,4,2,2,85,0,1
78324,-66.6666666666667,4,2,1,85,0,1
78501,-66.6666666666667,4,2,2,85,0,1
78589,-66.6666666666667,4,2,2,85,0,1
78677,-66.6666666666667,4,2,2,85,0,1
78765,-66.6666666666667,4,2,2,85,0,1
78853,-66.6666666666667,4,2,2,85,0,1
79207,-66.6666666666667,4,2,1,85,0,1
79294,-66.6666666666667,4,2,1,5,0,1
79383,-66.6666666666667,4,2,2,85,0,1
79559,-111.111111111111,4,2,2,85,0,1
79648,-111.111111111111,4,2,1,85,0,1
79736,-111.111111111111,4,2,1,85,0,1
79912,-111.111111111111,4,2,2,85,0,1
80353,-111.111111111111,4,2,2,5,0,1
80442,-111.111111111111,4,2,2,85,0,1
80530,-111.111111111111,4,2,2,85,0,1
80617,-333.333333333331,4,2,2,85,0,1
80795,-333.333333333331,4,2,1,85,0,1
80882,-333.333333333331,4,2,1,5,0,1
80971,-66.6666666666667,4,2,2,85,0,1
81148,-66.6666666666667,4,2,1,85,0,1
81324,-66.6666666666667,4,2,2,85,0,1
81412,-66.6666666666667,4,2,2,85,0,1
81500,-66.6666666666667,4,2,2,85,0,1
81589,-66.6666666666667,4,2,2,85,0,1
81677,-66.6666666666667,4,2,2,85,0,1
82030,-66.6666666666667,4,2,1,85,0,1
82117,-66.6666666666667,4,2,1,5,0,1
82207,-66.6666666666667,4,2,2,85,0,1
82295,-66.6666666666667,4,2,2,85,0,1
82383,-111.111111111111,4,2,2,85,0,1
82559,-111.111111111111,4,2,1,85,0,1
82736,-111.111111111111,4,2,2,85,0,1
83265,-111.111111111111,4,2,1,85,0,1
83442,-333.333333333333,4,2,2,85,0,1
83618,-333.333333333333,4,2,1,85,0,1
83706,-333.333333333333,4,2,1,5,0,1
83795,-66.6666666666667,4,2,2,85,0,1
83883,-66.6666666666667,4,2,2,85,0,1
83971,-66.6666666666667,4,2,1,85,0,1
84059,-66.6666666666667,4,2,1,85,0,1
84148,-66.6666666666667,4,2,2,85,0,1
84854,-66.6666666666667,4,2,1,85,0,1
84941,-66.6666666666667,4,2,1,5,0,1
85030,-66.6666666666667,4,2,2,85,0,1
85118,-66.6666666666667,4,2,2,85,0,1
85207,-111.111111111111,4,2,2,85,0,1
85383,-111.111111111111,4,2,1,85,0,1
85559,-111.111111111111,4,2,2,85,0,1
86000,-111.111111111111,4,2,2,5,0,1
86089,-111.111111111111,4,2,2,85,0,1
86177,-111.111111111111,4,2,2,85,0,1
86265,-333.333333333332,4,2,2,85,0,1
86442,-333.333333333332,4,2,1,85,0,1
86529,-333.333333333332,4,2,1,5,0,1
86618,-66.6666666666667,4,2,2,85,0,1
86795,-66.6666666666667,4,2,1,85,0,1
86971,-66.6666666666667,4,2,2,85,0,1
87059,-66.6666666666667,4,2,2,85,0,1
87147,-66.6666666666667,4,2,2,85,0,1
87236,-66.6666666666667,4,2,2,85,0,1
87324,-66.6666666666667,4,2,2,85,0,1
87677,-66.6666666666667,4,2,1,85,0,1
87764,-66.6666666666667,4,2,1,5,0,1
87854,-66.6666666666667,4,2,2,85,0,1
87942,-66.6666666666667,4,2,2,85,0,1
88030,-111.111111111111,4,2,2,85,0,1
88207,-111.111111111111,4,2,1,85,0,1
88383,-111.111111111111,4,2,2,85,0,1
88912,-111.111111111111,4,2,1,85,0,1
89088,-333.333333333333,4,2,2,85,0,1
89089,-333.333333333333,4,2,2,85,0,1
89265,-333.333333333333,4,2,1,85,0,1
89353,-333.333333333333,4,2,1,5,0,1
89442,-66.6666666666667,4,2,2,85,0,1
89530,-66.6666666666667,4,2,2,85,0,1
89618,-66.6666666666667,4,2,1,85,0,1
89706,-66.6666666666667,4,2,1,85,0,1
89795,-66.6666666666667,4,2,2,85,0,1
90501,-66.6666666666667,4,2,1,85,0,1
90589,-66.6666666666667,4,2,1,5,0,1
90677,-66.6666666666667,4,2,2,85,0,1
90765,-66.6666666666667,4,2,2,85,0,1
90854,-111.111111111111,4,2,2,85,0,1
91030,-111.111111111111,4,2,1,85,0,1
91206,-66.6666666666667,4,2,2,85,0,1
91295,-66.6666666666667,4,2,2,5,0,1
91383,-66.6666666666667,4,2,2,85,0,1
91471,-66.6666666666667,4,2,2,5,0,1
91559,-66.6666666666667,4,2,2,85,0,1
91647,-66.6666666666667,4,2,2,5,0,1
91736,-66.6666666666667,4,2,2,85,0,1
91824,-111.111111111111,4,2,2,85,0,1
91912,-111.111111111111,4,2,2,85,0,0
92089,-111.111111111111,4,2,1,85,0,0
92264,-142.857142857143,4,2,1,35,0,0
92970,-125,4,2,1,35,0,0
93676,-142.857142857143,4,2,1,35,0,0
94382,-125,4,2,1,35,0,0
95088,-125,4,2,1,35,0,0
96853,-166.666666666667,4,2,1,35,0,0

[Colours]
Combo1 : 209,164,255
Combo2 : 140,198,255
Combo3 : 255,214,193
Combo4 : 199,141,141

[HitObjects]
393,28,148,6,0,L|490:19,1,75,10|0,2:2|1:1,0:0:0:0:
405,111,501,2,0,L|479:104,1,75,10|0,2:2|1:1,0:0:0:0:
419,197,854,2,0,L|498:188,1,75,10|0,2:2|1:1,0:0:0:0:
318,136,1207,1,10,2:2:0:0:
289,384,1559,6,0,P|270:349|277:284,1,82.5000025177003,0|0,1:1|0:0,0:0:0:0:
436,280,1912,2,0,P|454:314|453:380,1,82.5000025177003,8|0,1:2|0:0,0:0:0:0:
342,238,2264,6,0,L|301:227,1,41.2500012588501,0|0,1:1|0:0,0:0:0:0:
152,370,2442,2,0,L|192:360,1,41.2500012588501,0|0,1:1|0:0,0:0:0:0:
357,338,2618,1,8,1:2:0:0:
201,118,2795,6,0,P|305:76|426:82,1,225.000008583069,0|0,1:1|1:1,0:0:0:0:
241,3,3323,2,0,P|201:2|151:15,1,67.4999979400635,8|0,1:2|0:0,0:0:0:0:
26,87,3677,5,0,1:1:0:0:
60,218,3854,1,0,1:1:0:0:
201,118,4030,2,0,P|162:118|119:142,1,82.5000025177003,10|0,1:2|0:0,0:0:0:0:
0,325,4383,6,0,P|85:355|145:337,1,123.75000377655,2|0,1:2|0:0,0:0:0:0:
195,384,4736,2,0,P|223:355|228:306,1,82.5000025177003,8|2,1:2|2:2,0:0:0:0:
128,242,5089,5,0,1:1:0:0:
256,208,5265,1,0,1:1:0:0:
114,262,5442,1,10,1:2:0:0:
212,100,5618,6,0,P|301:119|413:164,1,179.999994506836,0|0,1:1|1:1,0:0:0:0:
512,242,6148,2,0,P|527:198|502:105,1,123.75000377655,8|0,1:2|0:0,0:0:0:0:
492,95,6501,5,0,1:1:0:0:
376,36,6677,1,0,1:1:0:0:
264,202,6854,2,0,P|221:209|178:224,1,82.5000025177003,10|0,1:2|1:1,0:0:0:0:
48,156,7207,6,0,P|29:121|30:55,1,82.5000025177003,2|0,1:2|0:0,0:0:0:0:
187,28,7558,2,0,P|205:62|204:128,1,82.5000025177003,8|2,1:2|2:2,0:0:0:0:
86,246,7911,5,0,1:1:0:0:
0,291,8089,1,0,1:1:0:0:
130,131,8265,1,10,1:2:0:0:
221,317,8442,6,0,P|111:290|0:290,1,225.000008583069,0|0,1:1|1:1,0:0:0:0:
285,381,8971,2,0,P|322:362|401:370,1,101.249996910095,8|0,1:2|0:0,0:0:0:0:
413,379,9324,5,0,1:1:0:0:
512,273,9501,1,0,1:1:0:0:
386,201,9676,2,0,P|393:241|403:283,1,67.4999979400635,10|0,1:2|0:0,0:0:0:0:
512,107,10030,6,0,P|452:118|398:89,1,123.75000377655,2|0,1:2|0:0,0:0:0:0:
333,31,10383,2,0,P|293:19|250:44,1,82.5000025177003,8|2,1:2|2:2,0:0:0:0:
159,147,10735,1,0,1:1:0:0:
33,93,10912,1,0,1:1:0:0:
159,3,11089,1,10,1:2:0:0:
270,159,11265,6,0,L|281:253,1,82.5000025177003,0|0,1:1|0:0,0:0:0:0:
135,237,11618,1,0,1:1:0:0:
13,305,11795,2,0,P|4:345|15:384,1,82.5000025177003,10|0,3:2|3:3,0:0:0:0:
135,237,12147,5,2,3:2:0:0:
18,184,12324,1,0,3:3:0:0:
213,317,12500,1,10,3:2:0:0:
213,317,12589,1,0,0:0:0:0:
213,317,12677,2,0,L|267:324,1,41.2500012588501,2|0,1:2|1:1,0:0:0:0:
412,345,12853,5,0,1:1:0:0:
512,64,18500,6,0,B|413:40|403:143|403:150|403:156|410:254|316:242,1,292.499986610413,0|10,0:0|2:1,0:0:0:0:
239,365,19912,2,0,B|223:100|213:28,1,337.500012874604,0|10,0:0|2:1,0:0:0:0:
2,185,21324,6,0,P|-4:206|2:235,2,44.999998626709,0|0|10,0:0|0:0|2:1,0:0:0:0:
92,168,21853,2,0,P|80:211|90:255,1,89.9999972534181,2|2,2:2|2:2,0:0:0:0:
162,212,22383,1,10,2:1:0:0:
399,239,23618,5,0,1:1:0:0:
332,384,23794,1,10,1:2:0:0:
399,239,24148,6,0,P|449:204|541:215,1,112.500004291535,0|0,3:3|3:3,0:0:0:0:
332,384,24501,2,0,P|297:334|308:242,1,112.500004291535,10|0,3:2|3:3,0:0:0:0:
360,130,24854,5,2,3:2:0:0:
498,199,25030,1,0,3:3:0:0:
314,33,25207,1,10,3:2:0:0:
188,194,25383,6,0,P|121:218|-10:204,1,168.750006437302,2|0,3:2|0:0,0:0:0:0:
24,215,25736,1,2,3:2:0:0:
106,68,25912,2,0,P|99:101|101:137,1,67.4999979400635,8|2,3:2|3:2,0:0:0:0:
0,304,26265,5,2,3:2:0:0:
171,378,26442,1,0,3:3:0:0:
74,384,26618,2,0,P|89:351|72:294,1,82.5000025177003,8|0,3:2|3:3,0:0:0:0:
22,191,26971,6,0,P|19:174|19:157,1,33.7499989700318,0|0,3:3|0:0,0:0:0:0:
124,225,27324,2,0,P|68:217|12:216,1,112.500004291535,10|0,3:2|3:3,0:0:0:0:
290,287,27676,1,2,3:2:0:0:
236,108,27854,1,0,3:3:0:0:
63,44,28030,1,10,3:2:0:0:
223,201,28206,6,0,P|314:202|414:211,1,168.750006437302,2|0,3:2|0:0,0:0:0:0:
391,208,28559,1,2,3:2:0:0:
501,350,28736,2,0,L|514:270,1,67.4999979400635,8|2,3:2|3:2,0:0:0:0:
507,93,29089,6,0,L|512:52,1,41.2500012588501,2|0,3:2|0:0,0:0:0:0:
418,76,29265,2,0,L|422:34,1,41.2500012588501,0|0,3:3|0:0,0:0:0:0:
507,197,29442,5,10,3:2:0:0:
312,176,29618,1,0,3:3:0:0:
144,320,29795,2,0,P|87:325|26:334,1,112.500004291535,2|0,3:2|3:3,0:0:0:0:
219,384,30148,6,0,P|226:345|241:263,1,112.500004291535,10|0,3:2|3:3,0:0:0:0:
257,85,30501,1,2,3:2:0:0:
134,160,30677,1,0,3:3:0:0:
296,4,30854,1,10,3:2:0:0:
350,164,31029,6,0,P|407:175|517:145,1,168.750006437302,2|0,3:2|0:0,0:0:0:0:
512,124,31383,1,2,3:2:0:0:
413,67,31558,1,8,3:2:0:0:
413,67,31647,1,2,0:0:0:0:
413,67,31735,1,2,3:2:0:0:
512,279,31912,5,2,3:2:0:0:
382,382,32089,1,0,3:3:0:0:
475,355,32265,2,0,P|431:354|393:358,1,82.5000025177003,8|0,3:2|3:3,0:0:0:0:
260,250,32618,6,0,L|252:286,1,33.7499989700318,0|0,3:3|0:0,0:0:0:0:
244,384,32971,2,0,P|241:335|222:265,1,112.500004291535,10|0,3:2|3:3,0:0:0:0:
18,49,33324,5,2,3:2:0:0:
197,104,33501,1,0,3:3:0:0:
376,169,33677,1,10,3:2:0:0:
288,204,33854,6,0,P|371:213|454:232,1,168.750006437302,2|0,3:2|0:0,0:0:0:0:
455,233,34207,1,2,3:2:0:0:
263,95,34383,2,0,P|226:97|180:109,1,67.4999979400635,8|2,3:2|3:2,0:0:0:0:
389,30,34736,5,2,3:2:0:0:
288,204,34911,1,0,3:3:0:0:
456,101,35089,2,0,L|502:117,1,41.2500012588501,10|0,3:2|0:0,0:0:0:0:
417,255,35265,5,0,3:3:0:0:
408,230,35354,1,0,1:1:0:0:
396,204,35442,2,0,L|385:170,1,33.7499989700318,0|0,3:3|0:0,0:0:0:0:
511,240,35795,6,0,L|493:351,1,112.500004291535,10|0,3:2|3:3,0:0:0:0:
493,352,36148,1,2,3:2:0:0:
327,255,36323,1,0,3:3:0:0:
172,115,36501,1,10,3:2:0:0:
38,254,36677,6,0,L|202:218,1,168.750006437302,2|0,3:2|0:0,0:0:0:0:
202,217,37030,1,2,3:2:0:0:
336,349,37207,2,0,L|270:334,1,67.4999979400635,10|0,3:2|3:3,0:0:0:0:
89,157,37559,5,2,3:2:0:0:
77,330,37736,1,0,3:3:0:0:
0,257,37912,2,0,P|31:249|93:237,1,67.4999979400635,10|2,3:2|3:2,0:0:0:0:
128,54,38265,6,0,L|134:20,1,33.7499989700318,0|0,3:3|0:0,0:0:0:0:
2,85,38618,2,0,P|56:71|113:75,1,112.500004291535,10|0,3:2|3:3,0:0:0:0:
362,167,38971,5,2,3:2:0:0:
512,110,39148,1,0,3:3:0:0:
314,62,39324,1,10,3:2:0:0:
314,62,39501,6,0,P|279:120|288:234,1,168.750006437302,2|0,3:2|0:0,0:0:0:0:
281,218,39854,1,2,3:2:0:0:
173,384,40030,2,0,P|178:350|168:315,1,67.4999979400635,10|0,3:2|3:3,0:0:0:0:
26,195,40383,5,2,3:2:0:0:
0,298,40559,1,0,3:3:0:0:
213,236,40736,2,0,L|252:246,1,41.2500012588501,10|0,3:2|0:0,0:0:0:0:
308,347,40912,1,2,3:2:0:0:
333,353,41000,1,0,1:1:0:0:
359,368,41089,2,0,L|393:378,1,33.7499989700318,0|0,3:3|0:0,0:0:0:0:
495,246,41442,6,0,B|440:269|389:285,1,112.500004291535,10|0,3:2|3:3,0:0:0:0:
390,285,41795,1,2,3:2:0:0:
501,132,41971,1,0,3:3:0:0:
512,349,42148,1,10,3:2:0:0:
373,93,42324,6,0,P|295:67|183:109,1,168.750006437302,2|0,3:2|0:0,0:0:0:0:
212,86,42676,1,2,3:2:0:0:
74,24,42854,2,0,P|113:12|153:21,1,82.5000025177003,10|0,3:2|3:3,0:0:0:0:
264,216,43206,5,2,3:2:0:0:
111,297,43383,1,0,3:3:0:0:
206,301,43559,2,0,P|189:259|172:217,1,82.5000025177003,10|2,3:2|3:2,0:0:0:0:
0,168,43912,6,0,P|0:153|0:128,1,33.7499989700318,0|0,3:3|0:0,0:0:0:0:
104,173,44265,2,0,P|48:173|-1:199,1,112.500004291535,10|0,3:2|3:3,0:0:0:0:
102,309,44618,5,2,3:2:0:0:
198,149,44795,1,0,3:3:0:0:
296,248,44971,1,10,3:2:0:0:
512,137,45148,6,0,P|404:129|299:149,1,196.875001877546,2|0,3:2|0:0,0:0:0:0:
317,143,45501,1,2,3:2:0:0:
512,57,45676,2,0,P|467:50|423:51,1,82.5000025177003,10|2,3:2|3:2,0:0:0:0:
154,219,46029,6,0,P|147:205|165:143,1,56.2500021457673,2|0,3:2|0:0,0:0:0:0:
274,306,46206,2,0,P|289:306|334:353,1,56.2500021457673,0|0,3:3|0:0,0:0:0:0:
122,353,46382,2,0,P|113:366|50:381,1,56.2500021457673,10|0,3:2|0:0,0:0:0:0:
192,305,46558,5,0,1:1:0:0:
192,305,46647,1,0,1:1:0:0:
192,305,46736,1,2,1:2:0:0:
382,36,47265,5,2,2:2:0:0:
382,36,47442,2,0,L|449:24,1,56.2500021457673,2|2,2:2|2:2,0:0:0:0:
191,122,48148,5,2,2:2:0:0:
191,122,48677,1,2,2:2:0:0:
191,122,48853,2,0,L|121:148,1,56.2500021457673,2|2,2:2|2:2,0:0:0:0:
394,217,49559,5,2,2:2:0:0:
394,217,50088,1,0,0:0:0:0:
394,217,50264,2,0,L|460:231,1,56.2500021457673,2|2,2:2|2:2,0:0:0:0:
245,310,50971,5,2,2:2:0:0:
245,310,51500,1,2,2:2:0:0:
245,310,51677,2,0,L|176:329,1,56.2500021457673,2|2,2:2|2:2,0:0:0:0:
272,151,52383,5,2,2:2:0:0:
288,55,52558,2,0,L|299:-17,1,56.2500021457673,2|10,2:2|2:1,0:0:0:0:
372,94,52911,1,2,2:2:0:0:
390,182,53089,2,0,L|401:254,1,56.2500021457673,2|2,2:2|2:2,0:0:0:0:
512,130,53442,6,0,P|480:122|437:128,1,56.2500021457673,10|2,2:1|2:2,0:0:0:0:
255,310,53795,2,0,P|278:296|363:318,1,112.500004291535,2|10,2:2|2:1,0:0:0:0:
425,376,54324,1,2,2:2:0:0:
498,312,54501,2,0,P|505:289|515:244,2,56.2500021457673,2|2|10,2:2|2:2|2:1,0:0:0:0:
270,166,55207,5,2,2:2:0:0:
172,150,55383,2,0,L|100:139,1,56.2500021457673,2|10,2:2|2:1,0:0:0:0:
239,74,55736,1,2,2:2:0:0:
338,56,55912,2,0,L|410:45,1,56.2500021457673,2|2,2:2|2:2,0:0:0:0:
150,5,56265,6,0,P|147:28|148:62,1,56.2500021457673,10|2,2:1|2:2,0:0:0:0:
0,202,56618,2,0,P|55:203|101:234,1,112.500004291535,2|10,2:2|2:1,0:0:0:0:
152,318,57148,1,2,2:2:0:0:
69,375,57324,2,0,P|62:353|65:313,2,56.2500021457673,2|2|10,2:2|2:2|2:1,0:0:0:0:
305,384,58030,6,0,P|305:350|315:318,2,67.4999979400635,2|2|10,3:2|3:2|3:1,0:0:0:0:
413,323,58559,2,0,P|395:286|370:192,1,134.999995880127,2|2,3:2|3:2,0:0:0:0:
416,114,59089,1,10,3:1:0:0:
512,149,59265,2,0,P|438:155|370:169,1,134.999995880127,2|2,3:2|3:2,0:0:0:0:
284,218,59795,1,10,3:1:0:0:
261,60,59971,2,0,P|258:127|265:194,1,134.999995880127,2|2,3:2|3:2,0:0:0:0:
235,290,60501,1,8,3:1:0:0:
68,157,60854,6,0,P|39:155|0:164,2,67.4999979400635,2|2|10,3:2|3:2|3:1,0:0:0:0:
0,277,61382,2,0,P|37:259|131:234,1,134.999995880127,2|2,3:2|3:2,0:0:0:0:
183,133,61912,1,10,3:1:0:0:
324,86,62088,2,0,P|250:92|182:106,1,134.999995880127,2|2,3:2|3:2,0:0:0:0:
97,68,62618,1,10,3:1:0:0:
197,186,62795,2,0,P|217:219|251:326,1,134.999995880127,2|2,3:2|3:2,0:0:0:0:
191,384,63324,1,8,3:1:0:0:
344,252,63677,6,0,P|377:247|411:244,2,67.4999979400635,2|2|10,3:2|3:2|3:1,0:0:0:0:
495,328,64206,2,0,P|502:263|512:194,1,134.999995880127,2|2,3:2|3:2,0:0:0:0:
467,100,64736,1,10,3:1:0:0:
320,92,64911,2,0,P|386:79|453:74,1,134.999995880127,2|2,3:2|3:2,0:0:0:0:
232,71,65441,6,0,P|225:37|219:4,1,67.4999979400635,10|2,3:1|3:2,0:0:0:0:
265,232,65794,2,0,P|259:197|252:158,1,67.4999979400635,2|2,3:2|3:2,0:0:0:0:
284,329,66148,1,10,3:1:0:0:
29,242,66500,6,0,P|61:233|94:228,1,67.4999979400635,0|2,3:3|3:2,0:0:0:0:
43,142,66854,1,10,3:1:0:0:
131,248,67029,2,0,P|68:256|-4:277,1,134.999995880127,2|2,3:2|3:2,0:0:0:0:
38,118,67558,1,10,3:1:0:0:
284,329,68264,5,2,2:2:0:0:
193,368,68617,1,2,2:2:0:0:
208,276,68970,1,2,2:2:0:0:
344,254,69324,6,0,P|393:278|425:324,1,112.500004291535,0|0,3:3|3:3,0:0:0:0:
470,80,69677,2,0,P|414:83|368:115,1,112.500004291535,10|0,3:2|3:3,0:0:0:0:
232,246,70030,5,2,3:2:0:0:
244,82,70207,1,0,3:3:0:0:
431,188,70383,1,10,3:2:0:0:
260,340,70559,6,0,P|175:337|93:354,1,168.750006437302,2|0,3:2|0:0,0:0:0:0:
93,353,70912,1,2,3:2:0:0:
0,269,71089,2,0,P|34:266|77:286,1,67.4999979400635,8|2,3:2|3:2,0:0:0:0:
142,48,71442,5,2,3:2:0:0:
355,86,71617,1,0,3:3:0:0:
247,65,71794,1,8,3:2:0:0:
452,105,71971,1,0,3:3:0:0:
507,0,72147,6,0,L|513:34,1,33.7499989700318,0|0,3:3|0:0,0:0:0:0:
355,86,72500,2,0,L|333:196,1,112.500004291535,10|0,3:2|3:3,0:0:0:0:
402,384,72854,1,2,3:2:0:0:
437,195,73030,1,0,3:3:0:0:
231,259,73207,1,10,3:2:0:0:
512,310,73383,6,0,P|420:291|325:279,1,168.750006437302,2|0,3:2|0:0,0:0:0:0:
345,280,73736,1,2,3:2:0:0:
207,161,73912,2,0,P|170:167|110:177,1,67.4999979400635,8|2,3:2|3:2,0:0:0:0:
4,308,74265,6,0,L|0:349,1,41.2500012588501,2|0,3:2|0:0,0:0:0:0:
94,325,74442,2,0,L|89:370,1,41.2500012588501,0|0,3:3|0:0,0:0:0:0:
8,201,74618,1,10,3:2:0:0:
219,261,74795,1,0,3:3:0:0:
378,372,74970,2,0,P|434:361|489:358,1,112.500004291535,2|0,3:2|3:3,0:0:0:0:
298,175,75323,6,0,P|309:231|311:286,1,112.500004291535,10|0,3:2|3:3,0:0:0:0:
246,384,75677,5,2,3:2:0:0:
407,270,75854,1,0,3:3:0:0:
176,165,76030,1,10,3:2:0:0:
310,22,76207,6,0,P|392:11|480:31,1,168.750006437302,2|0,3:2|0:0,0:0:0:0:
475,29,76559,1,2,3:2:0:0:
354,96,76736,2,0,P|398:92|433:100,1,67.4999979400635,8|2,3:2|3:2,0:0:0:0:
512,236,77089,5,2,3:2:0:0:
328,327,77265,1,0,3:3:0:0:
425,282,77442,1,8,3:2:0:0:
238,372,77618,1,0,3:3:0:0:
151,284,77795,6,0,L|159:317,1,33.7499989700318,0|0,3:3|0:0,0:0:0:0:
238,372,78148,2,0,P|247:320|256:257,1,112.500004291535,10|0,3:2|3:3,0:0:0:0:
127,138,78501,5,2,3:2:0:0:
26,264,78677,1,0,3:3:0:0:
62,30,78854,1,10,3:2:0:0:
267,158,79030,6,0,P|345:177|457:203,1,168.750006437302,2|0,3:2|0:0,0:0:0:0:
431,197,79383,1,2,3:2:0:0:
512,84,79559,2,0,P|480:92|432:102,1,67.4999979400635,8|0,3:2|3:3,0:0:0:0:
310,7,79912,5,2,3:2:0:0:
458,15,80089,1,0,3:3:0:0:
299,149,80265,2,0,L|259:159,1,33.7499989700318,10|0,3:2|0:0,0:0:0:0:
200,76,80442,1,0,3:3:0:0:
200,76,80530,1,0,1:1:0:0:
200,76,80617,2,0,L|234:66,1,33.7499989700318,2|0,3:2|0:0,0:0:0:0:
97,22,80971,6,0,P|105:77|113:134,1,112.500004291535,10|0,3:2|3:3,0:0:0:0:
213,354,81324,1,2,3:2:0:0:
55,258,81501,1,0,3:3:0:0:
266,157,81677,1,10,3:2:0:0:
137,281,81854,6,0,P|222:259|350:275,1,168.750006437302,2|0,3:2|0:0,0:0:0:0:
302,262,82207,1,2,3:2:0:0:
446,202,82383,2,0,P|480:196|516:203,1,67.4999979400635,8|2,3:2|3:2,0:0:0:0:
389,116,82736,5,2,3:2:0:0:
496,290,82912,1,0,3:3:0:0:
512,74,83089,1,8,3:2:0:0:
330,213,83265,1,0,3:3:0:0:
223,41,83442,6,0,L|219:8,1,33.7499989700318,0|0,3:3|0:0,0:0:0:0:
423,30,83795,2,0,P|368:39|313:50,1,112.500004291535,10|0,3:2|3:3,0:0:0:0:
211,239,84148,1,2,3:2:0:0:
410,271,84324,1,0,3:3:0:0:
185,131,84501,1,10,3:2:0:0:
102,384,84676,6,0,P|111:300|107:214,1,168.750006437302,2|0,3:2|0:0,0:0:0:0:
107,215,85030,1,2,3:2:0:0:
16,99,85207,2,0,P|3:142|-2:180,1,67.4999979400635,8|2,3:2|3:2,0:0:0:0:
186,40,85559,5,2,3:2:0:0:
288,61,85736,1,0,3:3:0:0:
99,3,85912,2,0,L|42:15,1,33.7499989700318,10|0,3:2|0:0,0:0:0:0:
246,150,86089,1,0,3:3:0:0:
272,157,86176,1,0,1:1:0:0:
299,166,86265,2,0,L|334:174,1,33.7499989700318,2|0,3:2|0:0,0:0:0:0:
512,274,86618,6,0,L|400:290,1,112.500004291535,10|0,3:2|3:3,0:0:0:0:
295,309,86971,1,2,3:2:0:0:
431,196,87148,1,0,3:3:0:0:
486,368,87324,1,10,3:2:0:0:
431,196,87501,6,0,P|369:185|254:169,1,168.750006437302,2|0,3:2|0:0,0:0:0:0:
153,56,87854,1,2,3:2:0:0:
0,169,88030,2,0,P|32:176|74:197,1,67.4999979400635,8|2,3:2|3:2,0:0:0:0:
148,299,88383,5,2,3:2:0:0:
0,346,88558,1,0,3:3:0:0:
167,149,88736,1,8,3:2:0:0:
233,384,88912,1,0,3:3:0:0:
46,272,89088,6,0,L|5:261,1,33.7499989700318,0|0,3:3|0:0,0:0:0:0:
140,312,89442,2,0,P|189:305|276:296,1,112.500004291535,10|0,3:2|3:3,0:0:0:0:
472,319,89795,5,2,3:2:0:0:
395,161,89971,1,0,3:3:0:0:
346,379,90148,1,10,3:2:0:0:
503,100,90324,6,0,P|438:53|346:60,1,168.750006437302,2|0,3:2|0:0,0:0:0:0:
352,56,90677,1,2,3:2:0:0:
512,247,90854,2,0,P|516:204|499:161,1,67.4999979400635,8|2,3:2|3:2,0:0:0:0:
234,0,91206,6,0,P|224:43|250:95,1,56.2500021457673,2|0,3:2|0:0,0:0:0:0:
68,133,91382,2,0,P|25:123|-27:149,1,56.2500021457673,0|0,3:3|0:0,0:0:0:0:
268,253,91558,2,0,B|294:243|326:250,1,56.2500021457673,10|0,3:2|0:0,0:0:0:0:
145,384,91736,1,0,3:3:0:0:
145,384,91823,1,0,1:1:0:0:
145,384,91912,1,2,3:2:0:0:
145,384,92264,6,0,P|161:312|155:212,1,157.499995193482,2|0,3:2|3:3,0:0:0:0:
80,288,92971,2,0,P|52:288|16:304,1,60,2|0,3:2|3:3,0:0:0:0:
207,153,93324,1,0,3:3:0:0:
207,153,93677,6,0,P|271:127|370:131,1,157.499995193482,2|0,3:2|3:3,0:0:0:0:
475,193,94382,2,0,P|445:186|416:189,1,60,2|0,3:2|3:3,0:0:0:0:
332,297,94736,1,0,3:3:0:0:
332,297,95089,6,0,P|320:336|332:371,1,60,2|2,3:2|3:2,0:0:0:0:
418,363,95442,2,0,P|430:324|418:289,1,60,2|0,3:2|3:3,0:0:0:0:
308,294,95795,2,0,P|296:333|308:368,1,60,2|0,3:2|3:3,0:0:0:0:
442,370,96148,2,0,P|454:331|442:296,1,60,2|0,3:2|3:3,0:0:0:0:
372,215,96501,5,2,3:2:0:0:
430,117,96677,1,2,3:2:0:0:
340,44,96853,2,0,P|334:12|331:-10,2,44.999998626709,2|2|2,3:2|3:2|3:2,0:0:0:0:
