osu file format v14

[General]
AudioFilename: LogHorizon.mp3
AudioLeadIn: 0
PreviewTime: 65920
Countdown: 0
SampleSet: Soft
StackLeniency: 0.7
Mode: 3
LetterboxInBreaks: 0
SpecialStyle: 0
WidescreenStoryboard: 1

[Editor]
DistanceSpacing: 1.5
BeatDivisor: 4
GridSize: 4
TimelineZoom: 0.7999998

[Metadata]
Title:Your song*
TitleUnicode:Your song*
Artist:Yun*chi
ArtistUnicode:Yun*chi
Creator:ZheVulture
Version:7K NM
Source:ログ・ホライズン
Tags:tv size log horizon ending loghora ログホラ 7k
BeatmapID:1516858
BeatmapSetID:718112

[Difficulty]
HPDrainRate:7.5
CircleSize:7
OverallDifficulty:7.5
ApproachRate:5
SliderMultiplier:1.4
SliderTickRate:1

[Events]
//Background and Video events
0,0,"LogHorizon.jpg",0,0
Video,13298,"LHED.avi"
//Break Periods
//Storyboard Layer 0 (Background)
//Storyboard Layer 1 (Fail)
//Storyboard Layer 2 (Pass)
//Storyboard Layer 3 (Foreground)
//Storyboard Sound Samples
Sample,836,0,"LR_Clap Normal.wav",40
Sample,1759,0,"LR_Clap Normal.wav",40
Sample,2682,0,"LR_Clap Normal.wav",40
Sample,3605,0,"LR_Clap Normal.wav",40
Sample,4528,0,"LR_Clap Normal.wav",40
Sample,5451,0,"LR_Clap Normal.wav",40
Sample,6375,0,"LR_Clap Normal.wav",40
Sample,7298,0,"LR_Clap Normal.wav",40
Sample,8221,0,"LR_Clap Normal.wav",40
Sample,9144,0,"LR_Clap Normal.wav",40
Sample,10067,0,"LR_Clap Normal.wav",40
Sample,10990,0,"LR_Clap Normal.wav",40
Sample,11913,0,"LR_Clap Normal.wav",40
Sample,12836,0,"LR_Clap Normal.wav",40

[TimingPoints]
375,461.538461538462,4,2,1,36,1,0
375,-111.111111111111,4,2,1,36,0,0
15144,-100,4,2,1,36,0,1
22528,-99.9999999999999,4,2,1,36,0,0
66836,-100,4,2,1,36,0,1
95451,-100,4,2,1,36,0,0
96375,-100,4,2,1,36,0,1
101913,-100,4,2,1,36,0,0

[HitObjects]
402,192,375,5,0,0:0:0:70:bell2.wav
182,192,836,1,0,0:0:0:70:bell2.wav
329,192,1298,1,0,0:0:0:70:bell2.wav
109,192,1759,1,0,0:0:0:70:bell2.wav
256,192,2221,1,0,0:0:0:70:bell2.wav
36,192,2682,1,0,0:0:0:70:bell2.wav
475,192,3144,1,0,0:0:0:70:bell2.wav
329,192,3375,1,0,0:0:0:70:bell2.wav
36,192,3605,1,0,0:0:0:70:bell2.wav
182,192,3836,1,0,0:0:0:70:bell2.wav
402,192,4067,1,0,0:0:0:70:bell2.wav
256,192,4528,1,0,0:0:0:70:bell2.wav
329,192,4990,1,0,0:0:0:70:bell2.wav
182,192,5451,1,0,0:0:0:70:bell2.wav
402,192,5913,1,0,0:0:0:70:bell2.wav
109,192,6375,1,0,0:0:0:70:bell2.wav
475,192,6836,1,0,0:0:0:70:bell2.wav
329,192,7067,1,0,0:0:0:70:bell2.wav
182,192,7298,1,0,0:0:0:70:bell2.wav
256,192,7413,1,0,0:0:0:0:
329,192,7528,1,0,0:0:0:70:bell2.wav
402,192,7644,1,0,0:0:0:0:
182,192,7759,1,0,0:0:0:70:bell2.wav
475,192,7759,1,0,0:0:0:0:
109,192,8221,1,0,0:0:0:70:bell2.wav
329,192,8682,1,0,0:0:0:70:bell2.wav
109,192,9144,1,0,0:0:0:70:bell2.wav
475,192,9605,1,0,0:0:0:70:bell2.wav
182,192,10067,1,0,0:0:0:70:bell2.wav
36,192,10528,1,0,0:0:0:70:bell2.wav
329,192,10990,1,0,0:0:0:70:bell2.wav
182,192,11451,1,0,0:0:0:70:bell2.wav
402,192,11451,1,0,0:0:0:0:
109,192,11913,1,0,0:0:0:70:bell2.wav
329,192,12375,1,0,0:0:0:70:bell2.wav
182,192,12836,1,0,0:0:0:70:bell2.wav
402,192,13298,128,0,15144:0:0:0:70:LR_Drum Soft Med Finish.wav
109,192,14221,128,0,14682:0:0:0:0:
182,192,14682,128,0,15144:0:0:0:0:
36,192,15144,1,0,0:0:0:70:LR_Drum Kick Low.wav
329,192,15144,1,0,0:0:0:0:
109,192,15605,1,0,0:0:0:70:LR_Drum Kick Low.wav
256,192,15605,1,0,0:0:0:0:
475,192,15605,1,0,0:0:0:0:
182,192,16067,1,0,0:0:0:70:LR_Drum Kick Low.wav
402,192,16067,1,0,0:0:0:0:
36,192,16528,1,0,0:0:0:70:LR_Drum Kick Low.wav
329,192,16528,1,0,0:0:0:0:
475,192,16528,1,0,0:0:0:0:
109,192,16990,1,0,0:0:0:70:LR_Drum Kick Low.wav
256,192,16990,1,0,0:0:0:0:
36,192,17451,1,0,0:0:0:70:LR_Drum Kick Low.wav
182,192,17451,1,0,0:0:0:0:
329,192,17451,1,0,0:0:0:0:
109,192,17913,128,0,18375:0:0:0:70:LR_Drum Kick Low.wav
182,192,17913,1,0,0:0:0:0:
256,192,18375,128,0,18836:0:0:0:70:LR_Drum Kick Low.wav
329,192,18375,1,0,0:0:0:0:
36,192,18836,1,0,0:0:0:70:LR_Drum Kick Low.wav
402,192,18836,1,0,0:0:0:0:
182,192,19298,1,0,0:0:0:70:LR_Drum Kick Low.wav
329,192,19298,1,0,0:0:0:0:
475,192,19298,1,0,0:0:0:0:
109,192,19759,1,0,0:0:0:70:LR_Drum Kick Low.wav
256,192,19759,1,0,0:0:0:0:
36,192,20221,1,0,0:0:0:70:LR_Drum Kick Low.wav
182,192,20221,1,0,0:0:0:0:
402,192,20221,1,0,0:0:0:0:
109,192,20682,1,0,0:0:0:70:LR_Drum Kick Low.wav
475,192,20682,1,0,0:0:0:0:
182,192,21144,1,0,0:0:0:70:LR_Snare Normal.wav
329,192,21144,1,0,0:0:0:0:
402,192,21605,128,0,21836:0:0:0:0:
329,192,21836,128,0,22067:0:0:0:70:LR_Drum Hit Open.wav
36,192,22067,1,0,0:0:0:70:LR_Snare Normal.wav
256,192,22067,128,0,22528:0:0:0:0:
109,192,22528,1,0,0:0:0:70:LR_Drum Kick Low.wav
402,192,22528,1,0,0:0:0:0:
182,192,24375,1,0,0:0:0:0:
402,192,24375,1,0,0:0:0:0:
182,192,25298,1,0,0:0:0:0:
182,192,25759,1,0,0:0:0:0:
182,192,25990,1,0,0:0:0:0:
109,192,26221,1,0,0:0:0:0:
475,192,26221,1,0,0:0:0:0:
182,192,28067,1,0,0:0:0:0:
402,192,28067,1,0,0:0:0:0:
256,192,28298,1,0,0:0:0:0:
329,192,28528,1,0,0:0:0:0:
329,192,29221,128,0,29913:0:0:0:0:
109,192,29913,1,0,0:0:0:70:LR_Drum Kick Low.wav
256,192,29913,1,0,0:0:0:70:LR_Drum Hit Open.wav
402,192,29913,1,0,0:0:0:0:
109,192,31759,1,0,0:0:0:0:
329,192,31759,1,0,0:0:0:0:
109,192,33605,1,0,0:0:0:0:
402,192,33605,1,0,0:0:0:0:
182,192,35451,1,0,0:0:0:0:
475,192,35451,1,0,0:0:0:0:
475,192,36375,1,0,0:0:0:0:
402,192,36605,1,0,0:0:0:0:
329,192,36836,1,0,0:0:0:0:
256,192,36951,1,0,0:0:0:0:
182,192,37067,1,0,0:0:0:0:
109,192,37182,1,0,0:0:0:0:
36,192,37298,128,0,37528:0:0:0:70:LR_Drum Kick Low.wav
329,192,37298,128,0,37528:0:0:0:70:LR_Drum Hit Open.wav
36,192,37759,1,0,0:0:0:70:LR_Drum Kick Low.wav
36,192,38221,1,0,0:0:0:70:LR_Drum Kick Low.wav
36,192,38682,1,0,0:0:0:70:LR_Drum Kick Low.wav
36,192,39144,128,0,39375:0:0:0:70:LR_Drum Kick Low.wav
329,192,39144,128,0,39375:0:0:0:0:
329,192,39605,1,0,0:0:0:70:LR_Drum Kick Low.wav
329,192,40067,1,0,0:0:0:70:LR_Drum Kick Low.wav
329,192,40528,1,0,0:0:0:70:LR_Drum Kick Low.wav
182,192,40990,128,0,41221:0:0:0:70:LR_Drum Kick Low.wav
475,192,40990,128,0,41221:0:0:0:0:
475,192,41451,1,0,0:0:0:70:LR_Drum Kick Low.wav
475,192,41913,1,0,0:0:0:70:LR_Drum Kick Low.wav
475,192,42375,1,0,0:0:0:70:LR_Drum Kick Low.wav
182,192,42836,128,0,43067:0:0:0:70:LR_Drum Kick Low.wav
475,192,42836,128,0,43067:0:0:0:0:
182,192,43298,1,0,0:0:0:70:LR_Drum Kick Low.wav
182,192,43759,1,0,0:0:0:70:LR_Drum Kick Low.wav
182,192,44221,1,0,0:0:0:70:LR_Drum Kick Low.wav
182,192,44682,128,0,44913:0:0:0:70:LR_Drum Kick Low.wav
329,192,44682,128,0,44913:0:0:0:0:
329,192,45144,1,0,0:0:0:70:LR_Drum Kick Low.wav
329,192,45605,1,0,0:0:0:70:LR_Drum Kick Low.wav
329,192,46067,1,0,0:0:0:70:LR_Drum Kick Low.wav
36,192,46528,128,0,46759:0:0:0:70:LR_Drum Kick Low.wav
329,192,46528,128,0,46759:0:0:0:0:
36,192,46990,1,0,0:0:0:70:LR_Drum Kick Low.wav
36,192,47451,1,0,0:0:0:70:LR_Drum Kick Low.wav
36,192,47913,1,0,0:0:0:70:LR_Drum Kick Low.wav
182,192,48375,128,0,48605:0:0:0:70:LR_Drum Kick Low.wav
475,192,48375,128,0,48605:0:0:0:0:
475,192,48836,1,0,0:0:0:70:LR_Drum Kick Low.wav
475,192,49298,1,0,0:0:0:70:LR_Drum Kick Low.wav
475,192,49759,1,0,0:0:0:70:LR_Drum Kick Low.wav
182,192,50221,128,0,50451:0:0:0:70:LR_Drum Kick Low.wav
475,192,50221,128,0,50451:0:0:0:0:
182,192,50682,1,0,0:0:0:70:LR_Drum Kick Low.wav
329,192,51144,1,0,0:0:0:70:LR_Snare Normal.wav
475,192,51144,1,0,0:0:0:0:
36,192,51375,1,0,0:0:0:70:LR_Tom Hit.wav
182,192,51375,1,0,0:0:0:0:
329,192,51605,1,0,0:0:0:70:LR_Snare Normal.wav
256,192,51721,1,0,0:0:0:70:LR_Snare Normal.wav
182,192,51836,1,0,0:0:0:70:LR_Snare Normal.wav
109,192,51951,1,0,0:0:0:70:LR_Snare Normal.wav
36,192,52067,1,0,0:0:0:70:LR_Drum Kick Low.wav
402,192,52298,1,0,0:0:0:70:HHClose.wav
36,192,52759,1,0,0:0:0:70:LR_Drum Kick Low.wav
182,192,53105,1,0,0:0:0:0:
36,192,53221,1,0,0:0:0:70:LR_Drum Kick Low.wav
402,192,53451,1,0,0:0:0:70:LR_Sleigh Bell.wav
475,192,53451,1,0,0:0:0:70:LR_Snare Normal.wav
109,192,53913,1,0,0:0:0:70:LR_Drum Kick Low.wav
475,192,54144,1,0,0:0:0:70:HHClose.wav
109,192,54605,1,0,0:0:0:70:LR_Drum Kick Low.wav
109,192,55067,1,0,0:0:0:70:LR_Drum Kick Low.wav
402,192,55298,1,0,0:0:0:70:LR_Sleigh Bell.wav
475,192,55298,1,0,0:0:0:70:LR_Snare Normal.wav
256,192,55528,1,0,0:0:0:0:
36,192,55759,1,0,0:0:0:70:LR_Drum Kick Low.wav
402,192,55990,1,0,0:0:0:70:HHClose.wav
36,192,56451,1,0,0:0:0:70:LR_Drum Kick Low.wav
182,192,56798,1,0,0:0:0:0:
36,192,56913,1,0,0:0:0:70:LR_Drum Kick Low.wav
402,192,57144,1,0,0:0:0:70:LR_Sleigh Bell.wav
475,192,57144,1,0,0:0:0:70:LR_Snare Normal.wav
182,192,57605,1,0,0:0:0:70:LR_Drum Kick Low.wav
475,192,57836,1,0,0:0:0:70:HHClose.wav
182,192,58298,1,0,0:0:0:70:LR_Drum Kick Low.wav
182,192,58759,1,0,0:0:0:70:LR_Drum Kick Low.wav
402,192,58990,1,0,0:0:0:70:LR_Sleigh Bell.wav
475,192,58990,1,0,0:0:0:70:LR_Snare Normal.wav
256,192,59221,1,0,0:0:0:0:
109,192,59451,1,0,0:0:0:70:LR_Drum Kick Low.wav
402,192,59682,1,0,0:0:0:70:HHClose.wav
109,192,60144,1,0,0:0:0:70:LR_Drum Kick Low.wav
256,192,60490,1,0,0:0:0:0:
109,192,60605,1,0,0:0:0:70:LR_Drum Kick Low.wav
402,192,60836,1,0,0:0:0:70:LR_Sleigh Bell.wav
475,192,60836,1,0,0:0:0:70:LR_Snare Normal.wav
182,192,61298,1,0,0:0:0:70:LR_Drum Kick Low.wav
475,192,61528,1,0,0:0:0:70:HHClose.wav
182,192,61990,1,0,0:0:0:70:LR_Drum Kick Low.wav
182,192,62451,1,0,0:0:0:70:LR_Drum Kick Low.wav
402,192,62682,1,0,0:0:0:70:LR_Sleigh Bell.wav
475,192,62682,1,0,0:0:0:70:LR_Snare Normal.wav
109,192,63144,1,0,0:0:0:70:LR_Drum Kick Low.wav
256,192,63144,128,0,65913:0:0:0:0:
402,192,63605,1,0,0:0:0:70:LR_Drum Kick Low.wav
109,192,64067,1,0,0:0:0:70:LR_Drum Kick Low.wav
402,192,64528,1,0,0:0:0:70:LR_Sleigh Bell.wav
475,192,64528,1,0,0:0:0:70:LR_Drum Kick Low.wav
36,192,64759,1,0,0:0:0:70:LR_Drum Kick Low.wav
109,192,64875,1,0,0:0:0:70:LR_Drum Kick Low.wav
182,192,64990,1,0,0:0:0:70:LR_Drum Kick Low.wav
329,192,65221,1,0,0:0:0:0:
475,192,65451,1,0,0:0:0:70:LR_Drum Rpd x2.wav
402,192,65567,1,0,0:0:0:70:LR_Drum Rpd x2.wav
329,192,65682,1,0,0:0:0:70:LR_Drum Rpd x2.wav
475,192,65913,1,0,0:0:0:70:LR_Snare Normal.wav
36,192,66144,1,0,0:0:0:70:LR_Tom Hit.wav
182,192,66375,1,0,0:0:0:70:LR_Snare Normal.wav
256,192,66490,1,0,0:0:0:70:LR_Snare Normal.wav
329,192,66605,1,0,0:0:0:70:LR_Snare Normal.wav
402,192,66721,1,0,0:0:0:70:LR_Snare Normal.wav
109,192,66836,1,0,0:0:0:70:LR_Drum Kick Low.wav
475,192,66836,1,0,0:0:0:0:
256,192,67067,1,0,0:0:0:70:HHClose.wav
182,192,67298,1,0,0:0:0:70:LR_Drum Kick Low.wav
329,192,67298,1,0,0:0:0:0:
109,192,67528,1,0,0:0:0:70:HHClose.wav
402,192,67759,1,0,0:0:0:70:LR_Drum Kick Low.wav
182,192,67990,1,0,0:0:0:70:HHClose.wav
109,192,68221,1,0,0:0:0:70:LR_Drum Kick Low.wav
329,192,68221,1,0,0:0:0:0:
475,192,68451,1,0,0:0:0:70:HHClose.wav
182,192,68682,1,0,0:0:0:70:LR_Drum Kick Low.wav
109,192,68913,1,0,0:0:0:70:HHClose.wav
36,192,69144,1,0,0:0:0:70:LR_Drum Kick Low.wav
475,192,69144,1,0,0:0:0:0:
182,192,69375,1,0,0:0:0:70:HHClose.wav
329,192,69605,1,0,0:0:0:70:LR_Drum Kick Low.wav
256,192,69836,1,0,0:0:0:70:HHClose.wav
109,192,70067,1,0,0:0:0:70:LR_Drum Kick Low.wav
329,192,70067,1,0,0:0:0:0:
475,192,70067,1,0,0:0:0:0:
402,192,70528,1,0,0:0:0:70:LR_Drum Kick Low.wav
182,192,70759,1,0,0:0:0:70:HHClose.wav
109,192,70990,1,0,0:0:0:70:LR_Drum Kick Low.wav
329,192,70990,1,0,0:0:0:0:
256,192,71221,1,0,0:0:0:70:HHClose.wav
402,192,71451,1,0,0:0:0:70:LR_Drum Kick Low.wav
182,192,71682,1,0,0:0:0:70:HHClose.wav
36,192,71913,1,0,0:0:0:70:LR_Drum Kick Low.wav
329,192,71913,1,0,0:0:0:0:
109,192,72144,1,0,0:0:0:70:HHClose.wav
402,192,72375,1,0,0:0:0:70:LR_Drum Kick Low.wav
182,192,72605,1,0,0:0:0:70:HHClose.wav
329,192,72836,1,0,0:0:0:70:LR_Drum Kick Low.wav
475,192,72836,1,0,0:0:0:0:
36,192,73067,1,0,0:0:0:70:HHClose.wav
182,192,73298,1,0,0:0:0:70:LR_Drum Kick Low.wav
329,192,73528,1,0,0:0:0:70:HHClose.wav
36,192,73759,1,0,0:0:0:70:LR_Drum Kick Low.wav
256,192,73759,128,0,74221:0:0:0:0:
402,192,73759,1,0,0:0:0:0:
182,192,74221,1,0,0:0:0:70:LR_Drum Kick Low.wav
475,192,74221,1,0,0:0:0:0:
109,192,74451,1,0,0:0:0:70:HHClose.wav
36,192,74682,1,0,0:0:0:70:LR_Drum Kick Low.wav
329,192,74682,1,0,0:0:0:0:
182,192,74913,1,0,0:0:0:70:HHClose.wav
402,192,75144,1,0,0:0:0:70:LR_Drum Kick Low.wav
109,192,75375,1,0,0:0:0:70:HHClose.wav
182,192,75605,1,0,0:0:0:70:LR_Drum Kick Low.wav
475,192,75605,1,0,0:0:0:0:
256,192,75836,1,0,0:0:0:70:HHClose.wav
329,192,76067,1,0,0:0:0:70:LR_Drum Kick Low.wav
109,192,76298,1,0,0:0:0:70:HHClose.wav
182,192,76528,1,0,0:0:0:70:LR_Drum Kick Low.wav
402,192,76528,1,0,0:0:0:0:
256,192,76759,1,0,0:0:0:70:HHClose.wav
475,192,76990,1,0,0:0:0:70:LR_Drum Kick Low.wav
36,192,77221,1,0,0:0:0:70:HHClose.wav
109,192,77451,1,0,0:0:0:70:LR_Drum Kick Low.wav
256,192,77451,1,0,0:0:0:0:
402,192,77451,1,0,0:0:0:0:
329,192,77682,128,0,78144:0:0:0:70:HHClose.wav
182,192,77913,1,0,0:0:0:70:LR_Drum Kick Low.wav
256,192,78144,128,0,78605:0:0:0:70:HHClose.wav
109,192,78375,1,0,0:0:0:70:LR_Drum Kick Low.wav
182,192,78605,128,0,79067:0:0:0:70:HHClose.wav
36,192,78836,1,0,0:0:0:70:LR_Drum Kick Low.wav
329,192,79067,1,0,0:0:0:70:HHClose.wav
36,192,79298,1,0,0:0:0:70:LR_Drum Kick Low.wav
402,192,79528,1,0,0:0:0:70:HHClose.wav
329,192,79759,128,0,81144:0:0:0:70:LR_Drum Kick Low.wav
36,192,80221,1,0,0:0:0:70:LR_Drum Kick Low.wav
109,192,80221,1,0,0:0:0:0:
256,192,80682,1,0,0:0:0:70:LR_Drum Kick Low.wav
182,192,80913,1,0,0:0:0:70:HHClose.wav
36,192,81144,1,0,0:0:0:70:LR_Drum Kick Low.wav
109,192,81259,1,0,0:0:0:70:LR_Drum Rpd x2.wav
182,192,81375,1,0,0:0:0:70:LR_Drum Rpd x2.wav
256,192,81490,1,0,0:0:0:70:LR_Drum Rpd x2.wav
329,192,81605,1,0,0:0:0:70:LR_Drum Kick Low.wav
475,192,81605,1,0,0:0:0:0:
182,192,81836,1,0,0:0:0:70:HHClose.wav
109,192,82067,1,0,0:0:0:70:LR_Drum Kick Low.wav
402,192,82067,1,0,0:0:0:0:
256,192,82298,1,0,0:0:0:70:HHClose.wav
329,192,82528,1,0,0:0:0:70:LR_Drum Kick Low.wav
182,192,82759,1,0,0:0:0:70:HHClose.wav
109,192,82990,1,0,0:0:0:70:LR_Drum Kick Low.wav
402,192,82990,1,0,0:0:0:0:
329,192,83221,1,0,0:0:0:70:HHClose.wav
36,192,83451,1,0,0:0:0:70:LR_Drum Kick Low.wav
182,192,83682,1,0,0:0:0:70:HHClose.wav
109,192,83913,1,0,0:0:0:70:LR_Drum Kick Low.wav
329,192,83913,1,0,0:0:0:0:
402,192,84144,1,0,0:0:0:70:HHClose.wav
36,192,84375,1,0,0:0:0:70:LR_Drum Kick Low.wav
182,192,84605,1,0,0:0:0:70:HHClose.wav
109,192,84836,1,0,0:0:0:70:LR_Drum Kick Low.wav
256,192,84836,1,0,0:0:0:0:
402,192,84836,1,0,0:0:0:0:
182,192,85298,1,0,0:0:0:70:LR_Drum Kick Low.wav
329,192,85528,1,0,0:0:0:70:HHClose.wav
109,192,85759,1,0,0:0:0:70:LR_Drum Kick Low.wav
256,192,85759,1,0,0:0:0:0:
36,192,85990,1,0,0:0:0:70:HHClose.wav
402,192,86221,1,0,0:0:0:70:LR_Drum Kick Low.wav
182,192,86451,1,0,0:0:0:70:HHClose.wav
109,192,86682,1,0,0:0:0:70:LR_Drum Kick Low.wav
329,192,86682,1,0,0:0:0:0:
256,192,86913,1,0,0:0:0:70:HHClose.wav
475,192,87144,1,0,0:0:0:70:LR_Drum Kick Low.wav
182,192,87375,1,0,0:0:0:70:HHClose.wav
36,192,87605,1,0,0:0:0:70:LR_Drum Kick Low.wav
402,192,87605,1,0,0:0:0:0:
256,192,87836,1,0,0:0:0:70:HHClose.wav
109,192,88067,1,0,0:0:0:70:LR_Drum Kick Low.wav
475,192,88298,1,0,0:0:0:70:HHClose.wav
36,192,88528,1,0,0:0:0:70:LR_Drum Kick Low.wav
109,192,88644,1,0,0:0:0:0:
182,192,88759,1,0,0:0:0:70:HHClose.wav
256,192,88875,1,0,0:0:0:0:
329,192,88990,1,0,0:0:0:70:LR_Drum Kick Low.wav
36,192,89221,1,0,0:0:0:70:HHClose.wav
182,192,89451,1,0,0:0:0:70:LR_Drum Kick Low.wav
475,192,89451,1,0,0:0:0:0:
329,192,89682,1,0,0:0:0:70:HHClose.wav
402,192,89913,1,0,0:0:0:70:LR_Drum Kick Low.wav
256,192,90144,1,0,0:0:0:70:HHClose.wav
36,192,90375,1,0,0:0:0:70:LR_Drum Kick Low.wav
475,192,90375,1,0,0:0:0:0:
182,192,90605,1,0,0:0:0:70:HHClose.wav
329,192,90836,1,0,0:0:0:70:LR_Drum Kick Low.wav
109,192,91067,1,0,0:0:0:70:HHClose.wav
36,192,91298,1,0,0:0:0:70:LR_Drum Kick Low.wav
402,192,91298,1,0,0:0:0:0:
256,192,91528,1,0,0:0:0:70:HHClose.wav
182,192,91759,1,0,0:0:0:70:LR_Drum Kick Low.wav
402,192,91990,1,0,0:0:0:70:HHClose.wav
109,192,92221,1,0,0:0:0:70:LR_Drum Kick Low.wav
329,192,92221,1,0,0:0:0:0:
475,192,92221,1,0,0:0:0:0:
183,192,92451,128,0,92913:0:0:0:70:HHClose.wav
330,192,92682,1,0,0:0:0:70:LR_Drum Kick Low.wav
256,192,92913,128,0,93375:0:0:0:70:HHClose.wav
403,192,93144,1,0,0:0:0:70:LR_Drum Kick Low.wav
330,192,93375,128,0,93836:0:0:0:70:HHClose.wav
476,192,93605,1,0,0:0:0:70:LR_Drum Kick Low.wav
109,192,93836,1,0,0:0:0:70:HHClose.wav
475,192,94067,1,0,0:0:0:70:LR_Drum Kick Low.wav
256,192,94298,1,0,0:0:0:70:HHClose.wav
36,192,94528,1,0,0:0:0:70:LR_Drum Kick Low.wav
109,192,94528,1,0,0:0:0:0:
402,192,94759,1,0,0:0:0:70:LR_Drum Kick Low.wav
475,192,94759,1,0,0:0:0:70:HHClose.wav
36,192,94990,1,0,0:0:0:70:LR_Drum Kick Low.wav
109,192,94990,1,0,0:0:0:0:
402,192,95221,1,0,0:0:0:70:LR_Drum Kick Low.wav
475,192,95221,1,0,0:0:0:70:HHClose.wav
182,192,95451,1,0,0:0:0:70:LR_Drum Kick Low.wav
256,192,95451,1,0,0:0:0:0:
329,192,95451,1,0,0:0:0:0:
109,192,95913,1,0,0:0:0:70:LR_Drum Kick Low.wav
256,192,95913,1,0,0:0:0:0:
402,192,95913,1,0,0:0:0:0:
109,192,96375,128,0,98682:0:0:0:70:LR_Drum Kick Low.wav
182,192,96375,1,0,0:0:0:0:
256,192,96605,1,0,0:0:0:70:HHClose.wav
329,192,96836,1,0,0:0:0:70:LR_Drum Kick Low.wav
475,192,96836,1,0,0:0:0:0:
256,192,97067,1,0,0:0:0:70:HHClose.wav
182,192,97298,1,0,0:0:0:70:LR_Drum Kick Low.wav
256,192,97528,1,0,0:0:0:70:HHClose.wav
329,192,97759,1,0,0:0:0:70:LR_Drum Kick Low.wav
475,192,97759,1,0,0:0:0:0:
256,192,97990,1,0,0:0:0:70:HHClose.wav
182,192,98221,1,0,0:0:0:70:LR_Drum Kick Low.wav
256,192,98451,1,0,0:0:0:70:HHClose.wav
329,192,98682,1,0,0:0:0:70:LR_Drum Kick Low.wav
475,192,98682,1,0,0:0:0:0:
256,192,98913,1,0,0:0:0:70:HHClose.wav
329,192,99144,1,0,0:0:0:70:LR_Drum Kick Low.wav
256,192,99375,1,0,0:0:0:70:HHClose.wav
36,192,99605,1,0,0:0:0:70:LR_Drum Kick Low.wav
109,192,99836,1,0,0:0:0:70:HHClose.wav
329,192,100067,1,0,0:0:0:70:LR_Drum Kick Low.wav
402,192,100067,128,0,101913:0:0:0:0:
256,192,100298,1,0,0:0:0:70:HHClose.wav
36,192,100528,1,0,0:0:0:70:LR_Drum Kick Low.wav
182,192,100528,1,0,0:0:0:0:
256,192,100759,1,0,0:0:0:70:HHClose.wav
329,192,100990,1,0,0:0:0:70:LR_Drum Kick Low.wav
256,192,101221,1,0,0:0:0:70:HHClose.wav
36,192,101451,1,0,0:0:0:70:LR_Drum Kick Low.wav
182,192,101451,1,0,0:0:0:0:
256,192,101682,1,0,0:0:0:0:
109,192,101913,1,0,0:0:0:70:LR_Drum Soft Med Finish.wav
329,192,101913,128,0,103528:0:0:0:0:
