osu file format v14

[General]
AudioFilename: Log Horizon ED.mp3
AudioLeadIn: 0
PreviewTime: 52794
Countdown: 0
SampleSet: Soft
StackLeniency: 0.7
Mode: 3
LetterboxInBreaks: 0
SpecialStyle: 0
WidescreenStoryboard: 0

[Editor]
DistanceSpacing: 2
BeatDivisor: 4
GridSize: 16
TimelineZoom: 1.9

[Metadata]
Title:Your song* (TV Size)
TitleUnicode:Your song* (TV Size)
Artist:Yun*chi
ArtistUnicode:Yun*chi
Creator:DarkSider2442
Version:Hard
Source:ログ・ホライズン
Tags:log horizon ending ed nyanta akatsuki shiroe minori touya
BeatmapID:661214
BeatmapSetID:293289

[Difficulty]
HPDrainRate:7
CircleSize:7
OverallDifficulty:8
ApproachRate:5
SliderMultiplier:1.4
SliderTickRate:1

[Events]
//Background and Video events
0,0,"LGBG.jpg",0,0
//Break Periods
//Storyboard Layer 0 (Background)
//Storyboard Layer 1 (Fail)
//Storyboard Layer 2 (Pass)
//Storyboard Layer 3 (Foreground)
//Storyboard Sound Samples

[TimingPoints]
1217,461.538461538462,4,2,0,25,1,0
52909,-100,4,2,0,25,0,1
82447,-100,4,2,0,25,0,0

[HitObjects]
256,192,178,128,0,1216:0:0:0:0:
109,192,1216,1,0,0:0:0:0:
402,192,1216,1,0,0:0:0:0:
182,192,1447,1,0,0:0:0:0:
256,192,1678,1,0,0:0:0:0:
475,192,1678,1,8,0:0:0:0:
36,192,1909,1,0,0:0:0:0:
109,192,2140,1,0,0:0:0:0:
402,192,2140,1,0,0:0:0:0:
182,192,2370,1,0,0:0:0:0:
402,192,2601,1,8,0:0:0:0:
109,192,2601,1,0,0:0:0:0:
329,192,2832,1,0,0:0:0:0:
256,192,3063,1,0,0:0:0:0:
36,192,3063,1,0,0:0:0:0:
475,192,3293,1,0,0:0:0:0:
402,192,3524,1,8,0:0:0:0:
109,192,3524,1,0,0:0:0:0:
329,192,3755,1,0,0:0:0:0:
182,192,3986,1,0,0:0:0:0:
402,192,3986,1,0,0:0:0:0:
475,192,4217,1,0,0:0:0:0:
256,192,4447,1,8,0:0:0:0:
36,192,4447,1,0,0:0:0:0:
182,192,4678,1,0,0:0:0:0:
329,192,4909,1,0,0:0:0:0:
109,192,4909,1,0,0:0:0:0:
36,192,5140,1,0,0:0:0:0:
402,192,5370,1,8,0:0:0:0:
182,192,5370,1,0,0:0:0:0:
329,192,5601,1,0,0:0:0:0:
475,192,5832,1,0,0:0:0:0:
256,192,5832,1,0,0:0:0:0:
36,192,6063,1,0,0:0:0:0:
402,192,6293,1,8,0:0:0:0:
182,192,6293,1,0,0:0:0:0:
36,192,6524,1,0,0:0:0:0:
109,192,6755,1,0,0:0:0:0:
329,192,6755,128,0,7217:0:0:0:0:
256,192,6986,1,0,0:0:0:0:
182,192,7217,128,0,7678:0:0:0:0:
475,192,7217,1,8,0:0:0:0:
109,192,7447,1,0,0:0:0:0:
475,192,7678,128,0,7909:0:0:0:0:
36,192,7678,1,0,0:0:0:0:
256,192,7909,128,0,8140:0:0:0:0:
109,192,7909,1,0,0:0:0:0:
36,192,8140,128,0,8370:0:0:0:0:
329,192,8140,1,0,0:0:0:0:
475,192,8140,1,8,0:0:0:0:
182,192,8255,1,0,0:0:0:0:
256,192,8370,1,0,0:0:0:0:
329,192,8486,1,0,0:0:0:0:
182,192,8601,1,0,0:0:0:0:
36,192,8601,1,0,0:0:0:0:
475,192,8601,128,0,11370:0:0:0:0:
256,192,8832,1,0,0:0:0:0:
109,192,9063,1,0,0:0:0:0:
182,192,9293,1,2,0:0:0:0:
36,192,9524,1,0,0:0:0:0:
109,192,9755,1,2,0:0:0:0:
256,192,9986,1,0,0:0:0:0:
329,192,10217,1,0,0:0:0:0:
182,192,10447,1,0,0:0:0:0:
402,192,10447,1,0,0:0:0:0:
36,192,10678,1,0,0:0:0:0:
256,192,10678,1,2,0:0:0:0:
402,192,10909,1,2,0:0:0:0:
329,192,11140,1,2,0:0:0:0:
109,192,11140,1,0,0:0:0:0:
182,192,11370,1,2,0:0:0:0:
329,192,11601,1,2,0:0:0:0:
36,192,11601,1,0,0:0:0:0:
182,192,11832,1,2,0:0:0:0:
329,192,12063,1,2,0:0:0:0:
475,192,12293,1,2,0:0:0:0:
256,192,12293,128,0,12755:0:0:0:0:
182,192,12524,1,0,0:0:0:0:
402,192,12524,1,2,0:0:0:0:
109,192,12755,1,2,0:0:0:0:
36,192,12986,1,2,0:0:0:0:
329,192,12986,1,0,0:0:0:0:
256,192,13217,1,2,0:0:0:0:
182,192,13447,1,2,0:0:0:0:
36,192,13678,1,2,0:0:0:0:
256,192,13909,1,2,0:0:0:0:
109,192,14140,1,2,0:0:0:0:
329,192,14140,128,0,14601:0:0:0:0:
402,192,14370,1,2,0:0:0:0:
182,192,14370,1,0,0:0:0:0:
475,192,14601,1,2,0:0:0:0:
109,192,14832,1,0,0:0:0:0:
402,192,14832,1,2,0:0:0:0:
256,192,15063,1,2,0:0:0:0:
36,192,15293,1,0,0:0:0:0:
109,192,15351,1,0,0:0:0:0:
182,192,15409,1,0,0:0:0:0:
256,192,15467,1,0,0:0:0:0:
329,192,15524,1,0,0:0:0:0:
182,192,15640,1,0,0:0:0:0:
109,192,15755,1,2,0:0:0:0:
402,192,15755,1,0,0:0:0:0:
329,192,15870,1,0,0:0:0:0:
256,192,15986,1,0,0:0:0:0:
36,192,15986,1,2,0:0:0:0:
475,192,15986,1,8,0:0:0:0:
329,192,16217,1,2,0:0:0:0:
402,192,16447,1,2,0:0:0:0:
475,192,16678,1,2,0:0:0:0:
182,192,16678,1,0,0:0:0:0:
109,192,16909,1,2,0:0:0:0:
36,192,17140,1,2,0:0:0:0:
182,192,17370,1,2,0:0:0:0:
329,192,17601,1,2,0:0:0:0:
256,192,17832,1,2,0:0:0:0:
475,192,17832,128,0,18293:0:0:0:0:
182,192,18063,1,0,0:0:0:0:
402,192,18063,1,2,0:0:0:0:
109,192,18293,1,2,0:0:0:0:
36,192,18524,1,0,0:0:0:0:
182,192,18640,1,0,0:0:0:0:
329,192,18755,1,0,0:0:0:0:
475,192,18986,1,2,0:0:0:0:
402,192,19217,1,0,0:0:0:0:
36,192,19217,128,0,19678:0:0:0:0:
329,192,19447,1,2,0:0:0:0:
182,192,19447,1,0,0:0:0:0:
475,192,19678,128,0,20140:0:0:0:0:
256,192,19678,1,2,0:0:0:0:
182,192,19909,1,2,0:0:0:0:
109,192,20140,1,2,0:0:0:0:
36,192,20370,1,2,0:0:0:0:
329,192,20370,1,0,0:0:0:0:
182,192,20601,1,2,0:0:0:0:
36,192,20832,1,2,0:0:0:0:
182,192,21063,1,2,0:0:0:0:
329,192,21293,1,2,0:0:0:0:
475,192,21524,1,2,0:0:0:0:
256,192,21524,128,0,21986:0:0:0:0:
36,192,21524,1,0,0:0:0:0:
402,192,21755,1,2,0:0:0:0:
109,192,21986,1,2,0:0:0:0:
36,192,22217,128,0,22447:0:0:0:0:
256,192,22217,1,0,0:0:0:0:
182,192,22447,128,0,22678:0:0:0:0:
402,192,22447,1,0,0:0:0:0:
329,192,22563,1,0,0:0:0:0:
109,192,22678,128,0,22909:0:0:0:0:
475,192,22793,1,0,0:0:0:0:
402,192,22909,1,0,0:0:0:0:
36,192,22909,128,0,23370:0:0:0:0:
329,192,23024,1,0,0:0:0:0:
256,192,23140,1,0,0:0:0:0:
182,192,23255,1,0,0:0:0:0:
109,192,23370,1,0,0:0:0:0:
475,192,23370,128,0,25678:0:0:0:0:
402,192,23370,1,8,0:0:0:0:
256,192,23601,1,0,0:0:0:0:
402,192,23832,1,0,0:0:0:0:
36,192,23832,1,8,0:0:0:0:
182,192,24063,1,0,0:0:0:0:
329,192,24293,1,8,0:0:0:0:
109,192,24293,1,0,0:0:0:0:
256,192,24524,1,0,0:0:0:0:
182,192,24755,1,0,0:0:0:0:
36,192,24755,1,8,0:0:0:0:
256,192,24986,1,0,0:0:0:0:
329,192,25217,1,0,0:0:0:0:
109,192,25217,1,8,0:0:0:0:
182,192,25447,1,0,0:0:0:0:
402,192,25447,1,0,0:0:0:0:
36,192,25678,1,0,0:0:0:0:
256,192,25678,1,8,0:0:0:0:
109,192,25909,1,0,0:0:0:0:
329,192,25909,1,0,0:0:0:0:
256,192,26140,1,0,0:0:0:0:
36,192,26140,1,2,0:0:0:0:
475,192,26140,1,8,0:0:0:0:
329,192,26370,1,2,0:0:0:0:
182,192,26370,1,0,0:0:0:0:
475,192,26601,1,8,0:0:0:0:
36,192,26601,1,2,0:0:0:0:
402,192,26832,1,2,0:0:0:0:
109,192,26832,1,0,0:0:0:0:
256,192,27063,1,0,0:0:0:0:
36,192,27063,1,8,0:0:0:0:
475,192,27063,1,2,0:0:0:0:
182,192,27293,1,0,0:0:0:0:
109,192,27524,1,8,0:0:0:0:
329,192,27524,1,0,0:0:0:0:
475,192,27755,1,0,0:0:0:0:
182,192,27755,1,0,0:0:0:0:
329,192,27986,1,0,0:0:0:0:
109,192,27986,1,8,0:0:0:0:
475,192,28217,1,0,0:0:0:0:
256,192,28217,1,0,0:0:0:0:
182,192,28447,1,8,0:0:0:0:
402,192,28447,1,0,0:0:0:0:
329,192,28678,1,0,0:0:0:0:
36,192,28678,1,0,0:0:0:0:
109,192,28909,1,8,0:0:0:0:
256,192,28909,1,2,0:0:0:0:
182,192,29140,1,0,0:0:0:0:
475,192,29140,1,0,0:0:0:0:
256,192,29370,1,2,0:0:0:0:
402,192,29370,1,8,0:0:0:0:
329,192,29601,1,0,0:0:0:0:
182,192,29601,1,0,0:0:0:0:
402,192,29832,1,2,0:0:0:0:
109,192,29832,1,8,0:0:0:0:
475,192,30063,1,0,0:0:0:0:
36,192,30063,1,0,0:0:0:0:
402,192,30120,1,0,0:0:0:0:
329,192,30178,1,0,0:0:0:0:
256,192,30236,1,0,0:0:0:0:
182,192,30293,1,0,0:0:0:0:
475,192,30293,1,10,0:0:0:0:
36,192,30409,1,0,0:0:0:0:
402,192,30524,1,2,0:0:0:0:
109,192,30524,1,0,0:0:0:0:
256,192,30640,1,0,0:0:0:0:
182,192,30755,1,0,0:0:0:0:
329,192,30755,1,8,0:0:0:0:
256,192,30986,1,0,0:0:0:0:
475,192,30986,1,0,0:0:0:0:
402,192,31217,1,8,0:0:0:0:
109,192,31217,1,0,0:0:0:0:
182,192,31447,1,0,0:0:0:0:
329,192,31447,1,0,0:0:0:0:
109,192,31678,1,0,0:0:0:0:
402,192,31678,1,8,0:0:0:0:
36,192,31909,1,0,0:0:0:0:
329,192,31909,1,0,0:0:0:0:
256,192,32140,1,0,0:0:0:0:
475,192,32140,1,8,0:0:0:0:
182,192,32370,1,0,0:0:0:0:
402,192,32370,1,0,0:0:0:0:
329,192,32601,1,2,0:0:0:0:
109,192,32601,1,0,0:0:0:0:
475,192,32601,1,8,0:0:0:0:
256,192,32832,1,0,0:0:0:0:
36,192,32832,1,0,0:0:0:0:
182,192,33063,1,0,0:0:0:0:
402,192,33063,1,8,0:0:0:0:
109,192,33293,1,0,0:0:0:0:
329,192,33293,1,0,0:0:0:0:
36,192,33524,1,2,0:0:0:0:
256,192,33524,1,0,0:0:0:0:
475,192,33524,1,8,0:0:0:0:
109,192,33755,1,0,0:0:0:0:
329,192,33755,1,0,0:0:0:0:
475,192,33986,1,8,0:0:0:0:
256,192,33986,1,0,0:0:0:0:
36,192,34217,1,0,0:0:0:0:
182,192,34217,1,0,0:0:0:0:
256,192,34447,1,0,0:0:0:0:
402,192,34447,1,2,0:0:0:0:
109,192,34447,1,8,0:0:0:0:
329,192,34678,1,0,0:0:0:0:
475,192,34678,1,0,0:0:0:0:
109,192,34909,1,8,0:0:0:0:
402,192,34909,1,0,0:0:0:0:
182,192,35140,1,0,0:0:0:0:
329,192,35140,1,0,0:0:0:0:
36,192,35370,1,8,0:0:0:0:
402,192,35370,1,0,0:0:0:0:
109,192,35601,1,0,0:0:0:0:
329,192,35601,1,0,0:0:0:0:
182,192,35832,1,8,0:0:0:0:
475,192,35832,1,0,0:0:0:0:
256,192,36063,1,0,0:0:0:0:
402,192,36063,1,0,0:0:0:0:
182,192,36293,1,8,0:0:0:0:
36,192,36293,1,2,0:0:0:0:
475,192,36293,1,0,0:0:0:0:
329,192,36524,1,0,0:0:0:0:
109,192,36524,1,0,0:0:0:0:
182,192,36755,1,0,0:0:0:0:
402,192,36755,1,8,0:0:0:0:
256,192,36986,1,0,0:0:0:0:
475,192,36986,1,2,0:0:0:0:
329,192,37217,1,0,0:0:0:15:LR_Drum Kick Low.wav
402,192,37217,1,0,0:0:0:0:
36,192,37217,1,2,0:0:0:0:
109,192,37447,1,0,0:0:0:15:LR_Drum Hit Hard Long Drop.wav
182,192,37447,1,2,0:0:0:0:
36,192,37678,1,0,0:0:0:15:LR_Drum Hit Hard Long Drop.wav
256,192,37678,1,0,0:0:0:0:
475,192,37678,1,0,0:0:0:0:
329,192,37793,1,0,0:0:0:0:
402,192,37909,1,0,0:0:0:0:
109,192,38024,1,0,0:0:0:0:
182,192,38140,1,0,0:0:0:0:
475,192,38140,1,0,0:0:0:0:
256,192,38255,1,0,0:0:0:0:
402,192,38370,1,0,0:0:0:0:
329,192,38486,1,0,0:0:0:0:
182,192,38601,1,0,0:0:0:0:
256,192,38717,1,0,0:0:0:0:
402,192,38832,1,0,0:0:0:25:LR_Drum Kick Low.wav
109,192,38832,1,0,0:0:0:0:
329,192,38947,1,0,0:0:0:0:
182,192,39063,1,0,0:0:0:0:
256,192,39293,1,0,0:0:0:25:LR_Drum Kick Low.wav
475,192,39293,1,0,0:0:0:0:
182,192,39524,1,0,0:0:0:0:
109,192,39755,1,0,0:0:0:0:
256,192,39986,1,0,0:0:0:25:LR_Drum Kick Low.wav
36,192,39986,1,0,0:0:0:0:
475,192,40217,1,0,0:0:0:0:
329,192,40332,1,0,0:0:0:0:
182,192,40447,1,0,0:0:0:0:
109,192,40678,1,0,0:0:0:25:LR_Drum Kick Low.wav
402,192,40678,1,2,0:0:0:0:
329,192,40909,1,2,0:0:0:0:
36,192,40909,1,0,0:0:0:0:
475,192,41140,1,0,0:0:0:25:LR_Drum Kick Low.wav
256,192,41140,1,2,0:0:0:0:
402,192,41370,1,0,0:0:0:0:
182,192,41370,1,2,0:0:0:0:
329,192,41601,1,0,0:0:0:0:
109,192,41601,1,2,0:0:0:0:
256,192,41832,1,0,0:0:0:0:
36,192,41832,1,0,0:0:0:0:
475,192,41832,1,0,0:0:0:25:LR_Drum Kick Low.wav
329,192,42063,1,0,0:0:0:0:
402,192,42293,1,0,0:0:0:0:
256,192,42524,1,0,0:0:0:0:
109,192,42524,1,0,0:0:0:25:LR_Drum Kick Low.wav
182,192,42755,1,0,0:0:0:0:
256,192,42870,1,0,0:0:0:0:
329,192,42986,1,0,0:0:0:0:
475,192,42986,1,0,0:0:0:25:LR_Drum Kick Low.wav
182,192,43101,1,0,0:0:0:0:
109,192,43217,1,0,0:0:0:0:
402,192,43217,1,0,0:0:0:0:
329,192,43332,1,0,0:0:0:0:
256,192,43447,1,0,0:0:0:0:
36,192,43678,1,0,0:0:0:0:
402,192,43678,1,0,0:0:0:25:LR_Drum Kick Low.wav
182,192,43909,1,0,0:0:0:0:
329,192,44140,1,2,0:0:0:0:
475,192,44140,1,0,0:0:0:0:
402,192,44370,1,0,0:0:0:25:LR_Drum Kick Low.wav
256,192,44370,1,2,0:0:0:0:
329,192,44601,1,0,0:0:0:0:
182,192,44601,1,2,0:0:0:0:
256,192,44832,1,0,0:0:0:25:LR_Drum Kick Low.wav
109,192,44832,1,2,0:0:0:0:
182,192,45063,1,0,0:0:0:0:
36,192,45063,1,2,0:0:0:0:
109,192,45293,1,2,0:0:0:0:
402,192,45293,1,0,0:0:0:0:
256,192,45524,1,0,0:0:0:25:LR_Drum Kick Low.wav
36,192,45524,1,0,0:0:0:0:
475,192,45524,1,0,0:0:0:0:
329,192,45755,1,0,0:0:0:0:
182,192,45986,1,0,0:0:0:0:
256,192,46217,1,0,0:0:0:25:LR_Drum Kick Low.wav
36,192,46217,1,0,0:0:0:0:
329,192,46447,1,0,0:0:0:0:
402,192,46563,1,0,0:0:0:0:
256,192,46678,1,0,0:0:0:25:LR_Drum Kick Low.wav
475,192,46678,1,0,0:0:0:0:
182,192,46793,1,0,0:0:0:0:
109,192,46909,1,0,0:0:0:0:
402,192,46909,1,0,0:0:0:0:
475,192,47140,1,0,0:0:0:0:
36,192,47370,1,0,0:0:0:25:LR_Drum Kick Low.wav
329,192,47370,1,0,0:0:0:0:
182,192,47601,1,0,0:0:0:0:
329,192,47717,1,0,0:0:0:0:
36,192,47832,1,0,0:0:0:0:
109,192,47947,1,0,0:0:0:0:
182,192,48063,1,2,0:0:0:0:
475,192,48063,1,0,0:0:0:25:LR_Drum Kick Low.wav
329,192,48293,1,0,0:0:0:0:
402,192,48524,1,0,0:0:0:25:LR_Drum Kick Low.wav
109,192,48524,1,2,0:0:0:0:
36,192,48755,1,0,0:0:0:0:
256,192,48986,1,0,0:0:0:0:
475,192,49217,1,0,0:0:0:25:LR_Drum Kick Low.wav
36,192,49217,1,0,0:0:0:0:
182,192,49447,1,0,0:0:0:0:
36,192,49678,1,0,0:0:0:0:
475,192,49678,1,0,0:0:0:25:LR_Drum Kick Low.wav
329,192,49909,1,0,0:0:0:0:
36,192,50140,1,0,0:0:0:25:LR_Drum Kick Low.wav
182,192,50140,1,0,0:0:0:0:
256,192,50255,1,0,0:0:0:0:
329,192,50370,1,0,0:0:0:0:
256,192,50486,1,0,0:0:0:0:
182,192,50601,1,0,0:0:0:0:
402,192,50601,1,0,0:0:0:25:LR_Drum Kick Low.wav
256,192,50717,1,0,0:0:0:0:
329,192,50832,1,0,0:0:0:25:LR_Drum Kick Low.wav
109,192,50832,1,0,0:0:0:0:
256,192,50947,1,0,0:0:0:25:LR_Drum Kick Low.wav
182,192,51063,1,0,0:0:0:25:LR_Drum Kick Low.wav
475,192,51063,128,0,51986:0:0:0:0:
36,192,51063,128,0,52909:0:0:0:0:
182,192,51524,1,0,0:0:0:0:
329,192,51640,1,0,0:0:0:0:
182,192,51755,1,0,0:0:0:0:
256,192,51986,1,0,0:0:0:10:LR_Drum Kick Low.wav
329,192,52217,1,0,0:0:0:10:LR_Drum Hit Hard Long Drop.wav
402,192,52447,1,0,0:0:0:10:LR_Drum Hit Hard Long Drop.wav
182,192,52447,1,2,0:0:0:0:
109,192,52563,1,2,0:0:0:0:
256,192,52678,1,2,0:0:0:0:
402,192,52793,1,2,0:0:0:0:
329,192,52909,1,2,0:0:0:0:
182,192,52909,1,0,0:0:0:0:
256,192,53140,1,0,0:0:0:0:
109,192,53370,1,8,0:0:0:0:
402,192,53370,1,0,0:0:0:0:
182,192,53601,1,0,0:0:0:0:
475,192,53832,1,0,0:0:0:0:
36,192,53832,1,0,0:0:0:0:
402,192,54063,1,0,0:0:0:0:
36,192,54293,1,0,0:0:0:0:
329,192,54293,1,8,0:0:0:0:
109,192,54409,1,0,0:0:0:0:
182,192,54524,1,0,0:0:0:0:
36,192,54640,1,0,0:0:0:0:
109,192,54755,1,0,0:0:0:0:
402,192,54755,1,0,0:0:0:0:
475,192,54986,1,0,0:0:0:0:
182,192,55217,1,0,0:0:0:0:
329,192,55217,1,8,0:0:0:0:
109,192,55447,1,0,0:0:0:0:
36,192,55678,1,0,0:0:0:0:
256,192,55678,1,0,0:0:0:0:
475,192,55678,1,0,0:0:0:0:
329,192,55909,1,0,0:0:0:0:
402,192,56140,1,0,0:0:0:0:
182,192,56140,1,2,0:0:0:0:
36,192,56140,1,8,0:0:0:0:
109,192,56370,1,2,0:0:0:0:
256,192,56370,1,0,0:0:0:0:
475,192,56370,1,0,0:0:0:0:
182,192,56601,1,0,0:0:0:0:
402,192,56601,1,0,0:0:0:0:
109,192,56832,1,0,0:0:0:0:
36,192,57063,1,0,0:0:0:0:
256,192,57063,1,8,0:0:0:0:
182,192,57293,1,0,0:0:0:0:
329,192,57524,1,0,0:0:0:0:
109,192,57524,1,0,0:0:0:0:
402,192,57640,1,0,0:0:0:0:
475,192,57755,1,0,0:0:0:0:
329,192,57870,1,0,0:0:0:0:
402,192,57986,1,0,0:0:0:0:
182,192,57986,1,8,0:0:0:0:
109,192,58217,1,0,0:0:0:0:
256,192,58447,1,0,0:0:0:0:
475,192,58447,1,0,0:0:0:0:
182,192,58678,1,0,0:0:0:0:
109,192,58909,1,8,0:0:0:0:
402,192,58909,1,0,0:0:0:0:
329,192,59024,1,0,0:0:0:0:
182,192,59140,1,0,0:0:0:0:
36,192,59370,1,0,0:0:0:0:
475,192,59370,1,0,0:0:0:0:
256,192,59601,1,0,0:0:0:0:
36,192,59832,1,2,0:0:0:0:
402,192,59832,1,8,0:0:0:0:
182,192,59947,1,2,0:0:0:0:
109,192,60063,1,2,0:0:0:0:
256,192,60178,1,2,0:0:0:0:
182,192,60293,1,2,0:0:0:0:
475,192,60293,1,0,0:0:0:0:
329,192,60409,1,2,0:0:0:0:
402,192,60524,1,0,0:0:0:0:
256,192,60640,1,0,0:0:0:0:
182,192,60755,1,0,0:0:0:0:
36,192,60755,1,8,0:0:0:0:
329,192,60870,1,0,0:0:0:0:
402,192,60986,1,0,0:0:0:0:
109,192,61217,1,0,0:0:0:0:
256,192,61217,1,0,0:0:0:0:
329,192,61332,1,0,0:0:0:0:
402,192,61447,1,0,0:0:0:0:
109,192,61563,1,0,0:0:0:0:
182,192,61678,1,0,0:0:0:0:
329,192,61678,1,8,0:0:0:0:
36,192,61909,1,0,0:0:0:0:
256,192,62140,1,0,0:0:0:0:
402,192,62140,1,0,0:0:0:0:
109,192,62370,1,0,0:0:0:0:
329,192,62601,1,0,0:0:0:0:
475,192,62601,1,8,0:0:0:0:
182,192,62832,1,0,0:0:0:0:
36,192,63063,1,0,0:0:0:0:
402,192,63063,1,0,0:0:0:0:
256,192,63293,1,0,0:0:0:0:
109,192,63524,1,0,0:0:0:0:
475,192,63524,1,8,0:0:0:0:
329,192,63755,1,0,0:0:0:0:
182,192,63986,1,0,0:0:0:0:
36,192,63986,1,0,0:0:0:0:
256,192,64217,1,0,0:0:0:0:
329,192,64447,1,0,0:0:0:0:
475,192,64447,1,8,0:0:0:0:
182,192,64678,1,0,0:0:0:0:
402,192,64909,1,0,0:0:0:0:
36,192,64909,1,0,0:0:0:0:
182,192,65024,1,0,0:0:0:0:
329,192,65140,1,0,0:0:0:0:
109,192,65370,1,0,0:0:0:0:
475,192,65370,1,8,0:0:0:0:
475,192,65601,1,0,0:0:0:0:
329,192,65717,1,0,0:0:0:0:
182,192,65832,1,0,0:0:0:0:
36,192,65832,1,0,0:0:0:0:
256,192,66063,1,0,0:0:0:0:
329,192,66293,1,0,0:0:0:0:
109,192,66293,1,8,0:0:0:0:
402,192,66524,1,0,0:0:0:0:
475,192,66755,1,0,0:0:0:10:LR_Drum Kick Low.wav
36,192,66755,1,0,0:0:0:0:
256,192,66755,1,0,0:0:0:0:
182,192,66986,1,0,0:0:0:10:LR_Drum Hit Hard Long Drop.wav
329,192,66986,1,0,0:0:0:0:
475,192,67217,1,2,0:0:0:0:
36,192,67217,1,0,0:0:0:10:LR_Drum Hit Hard Long Drop.wav
402,192,67332,1,2,0:0:0:0:
329,192,67447,1,2,0:0:0:0:
256,192,67563,1,2,0:0:0:0:
182,192,67678,1,2,0:0:0:0:
36,192,67678,1,0,0:0:0:0:
329,192,67793,1,0,0:0:0:0:
402,192,67909,1,2,0:0:0:0:
475,192,68024,1,2,0:0:0:0:
36,192,68140,1,8,0:0:0:0:
329,192,68140,1,2,0:0:0:0:
109,192,68255,1,0,0:0:0:0:
182,192,68370,1,0,0:0:0:0:
256,192,68486,1,0,0:0:0:0:
329,192,68601,1,0,0:0:0:0:
36,192,68601,1,0,0:0:0:0:
182,192,68832,1,0,0:0:0:0:
256,192,68947,1,0,0:0:0:0:
329,192,69063,1,0,0:0:0:0:
36,192,69063,1,8,0:0:0:0:
402,192,69293,1,0,0:0:0:0:
475,192,69524,1,0,0:0:0:0:
109,192,69524,1,0,0:0:0:0:
256,192,69755,1,0,0:0:0:0:
36,192,69986,1,0,0:0:0:0:
402,192,69986,1,8,0:0:0:0:
256,192,70217,1,0,0:0:0:0:
109,192,70447,1,2,0:0:0:0:
329,192,70447,1,0,0:0:0:0:
475,192,70447,1,0,0:0:0:0:
182,192,70678,1,0,0:0:0:0:
256,192,70909,1,0,0:0:0:0:
402,192,70909,1,2,0:0:0:0:
36,192,70909,1,8,0:0:0:0:
109,192,71140,1,0,0:0:0:0:
182,192,71140,1,0,0:0:0:0:
475,192,71140,1,2,0:0:0:0:
329,192,71370,1,0,0:0:0:0:
36,192,71370,1,0,0:0:0:0:
475,192,71601,1,0,0:0:0:0:
109,192,71832,1,8,0:0:0:0:
402,192,71832,1,0,0:0:0:0:
256,192,72063,1,0,0:0:0:0:
36,192,72293,1,0,0:0:0:0:
329,192,72293,1,0,0:0:0:0:
109,192,72524,1,0,0:0:0:0:
402,192,72755,1,8,0:0:0:0:
256,192,72755,1,0,0:0:0:0:
36,192,72986,1,0,0:0:0:0:
182,192,73217,1,0,0:0:0:0:
329,192,73217,1,0,0:0:0:0:
475,192,73447,1,0,0:0:0:0:
109,192,73678,1,0,0:0:0:0:
402,192,73678,1,8,0:0:0:0:
256,192,73909,1,0,0:0:0:0:
36,192,74140,1,0,0:0:0:0:
475,192,74140,1,0,0:0:0:0:
329,192,74370,1,0,0:0:0:0:
182,192,74601,1,2,0:0:0:0:
475,192,74601,1,8,0:0:0:0:
256,192,74717,1,2,0:0:0:0:
109,192,74832,1,2,0:0:0:0:
182,192,74947,1,2,0:0:0:0:
36,192,75063,1,2,0:0:0:0:
329,192,75063,1,0,0:0:0:0:
109,192,75178,1,2,0:0:0:0:
402,192,75293,1,0,0:0:0:0:
329,192,75409,1,0,0:0:0:0:
256,192,75524,1,0,0:0:0:0:
36,192,75524,1,8,0:0:0:0:
182,192,75755,1,0,0:0:0:0:
109,192,75986,1,0,0:0:0:0:
475,192,75986,1,0,0:0:0:0:
402,192,76217,1,0,0:0:0:0:
329,192,76332,1,0,0:0:0:0:
256,192,76447,1,0,0:0:0:0:
36,192,76447,1,8,0:0:0:0:
402,192,76678,1,0,0:0:0:0:
182,192,76909,1,0,0:0:0:0:
36,192,76909,1,0,0:0:0:0:
329,192,77140,1,0,0:0:0:0:
475,192,77370,1,0,0:0:0:0:
109,192,77370,1,8,0:0:0:0:
256,192,77601,1,0,0:0:0:0:
36,192,77832,1,0,0:0:0:0:
402,192,77832,1,0,0:0:0:0:
182,192,78063,1,0,0:0:0:0:
329,192,78293,1,8,0:0:0:0:
475,192,78293,1,0,0:0:0:0:
109,192,78409,1,0,0:0:0:0:
256,192,78524,1,2,0:0:0:0:
402,192,78755,1,0,0:0:0:0:
182,192,78755,1,0,0:0:0:0:
109,192,78986,1,0,0:0:0:0:
36,192,79217,1,0,0:0:0:0:
329,192,79217,1,8,0:0:0:0:
109,192,79447,1,0,0:0:0:0:
402,192,79447,1,2,0:0:0:0:
182,192,79678,1,0,0:0:0:0:
475,192,79678,1,0,0:0:0:0:
329,192,79909,1,0,0:0:0:0:
109,192,80140,1,8,0:0:0:0:
402,192,80140,1,0,0:0:0:0:
182,192,80370,1,0,0:0:0:0:
36,192,80601,1,0,0:0:0:0:
475,192,80601,1,8,0:0:0:0:
256,192,80717,1,0,0:0:0:0:
109,192,80832,1,8,0:0:0:0:
402,192,80832,1,0,0:0:0:0:
256,192,80947,1,0,0:0:0:0:
475,192,81063,1,8,0:0:0:0:
36,192,81063,1,0,0:0:0:0:
256,192,81178,1,0,0:0:0:0:
109,192,81293,1,8,0:0:0:0:
402,192,81293,1,0,0:0:0:0:
36,192,81524,1,0,0:0:0:10:LR_Drum Kick Low.wav
329,192,81524,1,0,0:0:0:0:
109,192,81755,1,0,0:0:0:10:LR_Drum Hit Hard Long Drop.wav
402,192,81755,1,0,0:0:0:0:
182,192,81986,1,0,0:0:0:10:LR_Drum Hit Hard Long Drop.wav
475,192,81986,1,0,0:0:0:0:
402,192,82101,1,0,0:0:0:0:
329,192,82217,1,0,0:0:0:0:
256,192,82332,1,0,0:0:0:0:
182,192,82447,1,0,0:0:0:0:
36,192,82447,1,0,0:0:0:0:
256,192,82678,1,0,0:0:0:0:
475,192,82909,1,0,0:0:0:0:
36,192,82909,1,8,0:0:0:0:
182,192,83140,1,0,0:0:0:0:
256,192,83255,1,0,0:0:0:0:
109,192,83370,1,0,0:0:0:0:
329,192,83370,1,0,0:0:0:0:
182,192,83486,1,0,0:0:0:0:
402,192,83601,1,0,0:0:0:0:
109,192,83832,1,8,0:0:0:0:
475,192,83832,1,0,0:0:0:0:
36,192,84063,1,0,0:0:0:0:
256,192,84178,1,0,0:0:0:0:
402,192,84293,1,0,0:0:0:0:
109,192,84293,1,0,0:0:0:0:
475,192,84524,1,0,0:0:0:0:
256,192,84755,1,8,0:0:0:0:
36,192,84755,1,0,0:0:0:0:
329,192,84986,1,0,0:0:0:0:
109,192,85217,1,0,0:0:0:0:
402,192,85217,1,0,0:0:0:0:
182,192,85447,1,0,0:0:0:0:
36,192,85678,1,0,0:0:0:0:
329,192,85678,1,8,0:0:0:0:
109,192,85909,1,0,0:0:0:0:
329,192,86140,1,0,0:0:0:0:
475,192,86140,1,0,0:0:0:0:
182,192,86255,1,0,0:0:0:0:
36,192,86370,1,0,0:0:0:0:
109,192,86601,1,0,0:0:0:0:
402,192,86601,1,8,0:0:0:0:
256,192,86832,1,0,0:0:0:0:
182,192,87063,1,0,0:0:0:0:
329,192,87063,1,0,0:0:0:0:
402,192,87293,1,0,0:0:0:0:
109,192,87293,1,0,0:0:0:0:
36,192,87524,128,0,87986:0:0:0:0:
475,192,87524,128,0,87986:0:0:0:0:
256,192,87986,128,0,89832:0:0:0:0:
109,192,87986,1,0,0:0:0:0:
402,192,87986,1,0,0:0:0:0:
