osu file format v14

[General]
AudioFilename: YourSong.mp3
AudioLeadIn: 0
PreviewTime: 7355
Countdown: 0
SampleSet: Soft
StackLeniency: 0.7
Mode: 3
LetterboxInBreaks: 0
SpecialStyle: 0
WidescreenStoryboard: 1

[Editor]
DistanceSpacing: 1
BeatDivisor: 4
GridSize: 8
TimelineZoom: 0.6999999

[Metadata]
Title:Your song*
TitleUnicode:Your song*
Artist:Yun*chi
ArtistUnicode:Yun*chi
Creator:Mat
Version:NM
Source:ログ・ホライズン
Tags:TV Size Log Horizon ending
BeatmapID:501636
BeatmapSetID:160076

[Difficulty]
HPDrainRate:7.5
CircleSize:4
OverallDifficulty:7.5
ApproachRate:9
SliderMultiplier:1.8
SliderTickRate:2

[Events]
//Background and Video events
Video,14500,"Video.avi"
0,0,"Log-Horizon-Anime-Wallpaper.png",0,0
//Break Periods
//Storyboard Layer 0 (Background)
//Storyboard Layer 1 (Fail)
//Storyboard Layer 2 (Pass)
//Storyboard Layer 3 (Foreground)
//Storyboard Sound Samples

[TimingPoints]
6432,461.538461538462,4,2,1,30,1,0
8278,-100,4,2,1,30,0,1
23047,-100,4,2,1,30,0,0
96893,-100,4,2,1,30,0,1
104278,-100,4,2,1,30,0,0

[HitObjects]
192,192,6432,128,4,7355:3:0:0:0:
320,192,6432,1,0,0:0:0:0:
448,192,6893,1,0,0:0:0:0:
320,192,7355,128,0,7816:0:0:0:0:
64,192,7355,1,0,0:0:0:0:
448,192,7816,128,0,8278:0:0:0:0:
192,192,7816,1,0,0:0:0:0:
64,192,8278,1,0,3:0:0:0:
320,192,8278,1,0,0:0:0:0:
192,192,8508,1,0,0:0:0:0:
320,192,8739,1,0,3:0:0:0:
64,192,8970,1,0,0:0:0:0:
448,192,9201,1,0,3:0:0:0:
192,192,9201,1,0,0:0:0:0:
320,192,9432,1,0,0:0:0:0:
192,192,9662,1,0,3:0:0:0:
64,192,9893,1,0,0:0:0:0:
192,192,10124,1,0,3:0:0:0:
320,192,10124,1,4,3:0:0:0:
64,192,10355,1,0,0:0:0:0:
192,192,10585,1,0,3:0:0:0:
320,192,10816,1,0,0:0:0:0:
448,192,11047,1,0,3:0:0:0:
192,192,11047,1,0,0:0:0:0:
64,192,11278,1,0,0:0:0:0:
192,192,11508,1,0,3:0:0:0:
320,192,11739,1,0,0:0:0:0:
448,192,11970,1,0,3:0:0:0:
192,192,11970,1,4,3:0:0:0:
320,192,12201,1,0,0:0:0:0:
192,192,12432,1,0,3:0:0:0:
64,192,12662,1,0,0:0:0:0:
192,192,12893,1,0,3:0:0:0:
448,192,12893,1,0,0:0:0:0:
320,192,13124,1,0,0:0:0:0:
192,192,13355,1,0,3:0:0:0:
448,192,13585,1,0,0:0:0:0:
192,192,13816,1,4,3:0:0:0:
320,192,13816,1,0,3:0:0:0:
64,192,14047,1,0,0:0:0:0:
192,192,14278,1,0,3:0:0:0:
320,192,14508,1,0,0:0:0:0:
192,192,14739,1,0,3:0:0:0:
64,192,14739,1,0,0:0:0:0:
448,192,14970,1,0,0:0:0:0:
320,192,15201,1,0,3:0:0:0:
64,192,15432,1,0,0:0:0:0:
192,192,15662,1,0,3:0:0:0:
320,192,15662,1,4,3:0:0:0:
448,192,15893,1,0,0:0:0:0:
320,192,16124,1,0,3:0:0:0:
64,192,16355,1,0,0:0:0:0:
192,192,16585,1,0,3:0:0:0:
448,192,16585,1,0,0:0:0:0:
64,192,16816,1,0,0:0:0:0:
320,192,17047,1,0,3:0:0:0:
448,192,17278,1,0,0:0:0:0:
192,192,17508,1,0,3:0:0:0:
64,192,17508,1,4,3:0:0:0:
448,192,17739,1,0,0:0:0:0:
192,192,17970,1,0,3:0:0:0:
64,192,18201,1,0,0:0:0:0:
192,192,18432,1,0,3:0:0:0:
448,192,18432,1,0,0:0:0:0:
320,192,18662,1,0,0:0:0:0:
448,192,18893,1,0,3:0:0:0:
320,192,19124,1,0,0:0:0:0:
192,192,19355,1,0,3:0:0:0:
64,192,19355,1,4,3:0:0:0:
320,192,19585,1,0,0:0:0:0:
192,192,19816,1,0,3:0:0:0:
448,192,20047,1,0,0:0:0:0:
320,192,20278,1,0,3:0:0:0:
192,192,20278,1,0,0:0:0:0:
64,192,20508,1,0,0:0:0:0:
192,192,20739,1,0,3:0:0:0:
320,192,20970,1,0,0:0:0:0:
448,192,21201,1,4,3:0:0:0:
192,192,21201,1,0,3:0:0:0:
320,192,21432,1,0,0:0:0:0:
64,192,21662,128,4,22124:3:0:0:0:
192,192,21662,1,0,0:0:0:0:
448,192,22124,1,4,3:0:0:0:
320,192,22355,1,0,0:0:0:0:
64,192,22585,1,4,3:0:0:0:
448,192,22585,1,0,0:0:0:0:
192,192,22816,1,0,0:0:0:0:
320,192,23047,1,8,3:0:0:0:
64,192,23047,128,0,25816:0:0:0:0:
448,192,23278,1,2,0:0:0:0:
320,192,23508,1,2,0:0:0:0:
448,192,23739,1,2,0:0:0:0:
320,192,23970,1,2,0:0:0:0:
448,192,24201,1,2,0:0:0:0:
320,192,24432,1,2,0:0:0:0:
192,192,24662,1,2,0:0:0:0:
320,192,24893,1,8,3:0:0:0:
192,192,25124,1,2,0:0:0:0:
320,192,25355,1,2,0:0:0:0:
192,192,25585,1,2,0:0:0:0:
320,192,25816,1,2,0:0:0:0:
448,192,26047,1,2,0:0:0:0:
320,192,26278,1,2,0:0:0:0:
192,192,26508,1,2,0:0:0:0:
64,192,26739,1,8,3:0:0:0:
448,192,26739,128,2,29739:0:0:0:0:
192,192,26970,1,2,0:0:0:0:
320,192,27201,1,2,0:0:0:0:
192,192,27432,1,2,0:0:0:0:
320,192,27662,1,2,0:0:0:0:
192,192,27893,1,2,0:0:0:0:
64,192,28124,1,2,0:0:0:0:
192,192,28355,1,2,0:0:0:0:
320,192,28585,1,8,3:0:0:0:
192,192,28816,1,2,0:0:0:0:
64,192,29047,1,2,0:0:0:0:
192,192,29278,1,2,0:0:0:0:
64,192,29508,1,2,0:0:0:0:
192,192,29739,1,2,0:0:0:0:
448,192,29970,1,2,0:0:0:0:
320,192,30201,1,2,0:0:0:0:
192,192,30432,1,8,3:0:0:0:
64,192,30432,128,0,33201:0:0:0:0:
448,192,30432,1,0,0:0:0:0:
320,192,30662,1,2,0:0:0:0:
448,192,30893,1,2,0:0:0:0:
320,192,31124,1,2,0:0:0:0:
448,192,31355,1,2,0:0:0:0:
320,192,31585,1,2,0:0:0:0:
192,192,31816,1,2,0:0:0:0:
320,192,32047,1,2,0:0:0:0:
448,192,32278,1,8,3:0:0:0:
192,192,32508,1,2,0:0:0:0:
320,192,32739,1,2,0:0:0:0:
192,192,32970,1,2,0:0:0:0:
320,192,33201,1,2,0:0:0:0:
448,192,33432,1,2,0:0:0:0:
192,192,33662,128,8,34355:3:0:0:0:
64,192,33662,1,2,0:0:0:0:
320,192,33893,1,8,3:0:0:0:
448,192,34124,1,2,0:0:0:0:
320,192,34355,1,2,0:0:0:0:
448,192,34585,128,8,35047:3:0:0:0:
192,192,34585,1,2,0:0:0:0:
64,192,34816,1,8,3:0:0:0:
192,192,35047,1,2,0:0:0:0:
64,192,35278,128,2,36662:0:0:0:0:
320,192,35278,1,8,3:0:0:0:
448,192,35508,1,8,3:0:0:0:
320,192,35739,1,8,3:0:0:0:
448,192,35970,1,2,0:0:0:0:
192,192,36201,1,2,0:0:0:0:
320,192,36432,1,2,0:0:0:0:
448,192,36662,1,2,0:0:0:0:
320,192,36893,1,2,0:0:0:0:
192,192,37124,1,2,0:0:0:0:
448,192,37355,1,2,0:0:0:0:
64,192,37585,1,2,0:0:0:0:
192,192,37816,1,0,3:0:0:0:
320,192,37816,128,4,40585:3:0:0:0:
448,192,38047,1,0,0:0:0:0:
192,192,38278,1,0,3:0:0:0:
64,192,38508,1,0,0:0:0:0:
192,192,38739,1,0,3:0:0:0:
64,192,38970,1,0,0:0:0:0:
192,192,39201,1,0,3:0:0:0:
448,192,39432,1,0,0:0:0:0:
192,192,39662,1,0,3:0:0:0:
448,192,39893,1,0,0:0:0:0:
192,192,40124,1,0,3:0:0:0:
448,192,40355,1,0,0:0:0:0:
192,192,40585,1,0,3:0:0:0:
64,192,40816,1,0,0:0:0:0:
192,192,41047,1,0,3:0:0:0:
320,192,41278,1,0,0:0:0:0:
192,192,41508,128,4,44278:3:0:0:0:
448,192,41508,1,0,3:0:0:0:
320,192,41739,1,0,0:0:0:0:
64,192,41970,1,0,3:0:0:0:
448,192,42201,1,2,0:0:0:0:
64,192,42432,1,0,3:0:0:0:
448,192,42662,1,0,0:0:0:0:
64,192,42893,1,0,3:0:0:0:
320,192,43124,1,0,0:0:0:0:
448,192,43355,1,0,3:0:0:0:
320,192,43585,1,0,0:0:0:0:
64,192,43816,1,0,3:0:0:0:
320,192,44047,1,0,0:0:0:0:
448,192,44278,1,0,3:0:0:0:
320,192,44508,1,0,0:0:0:0:
192,192,44739,1,0,3:0:0:0:
320,192,44970,1,0,0:0:0:0:
448,192,45201,1,0,3:0:0:0:
64,192,45201,128,4,47970:3:0:0:0:
320,192,45432,1,0,0:0:0:0:
192,192,45662,1,0,3:0:0:0:
320,192,45893,1,0,0:0:0:0:
192,192,46124,1,0,3:0:0:0:
320,192,46355,1,0,0:0:0:0:
448,192,46585,1,0,3:0:0:0:
320,192,46816,1,0,0:0:0:0:
448,192,47047,1,0,3:0:0:0:
320,192,47278,1,0,0:0:0:0:
192,192,47508,1,0,3:0:0:0:
320,192,47739,1,0,0:0:0:0:
448,192,47970,1,0,3:0:0:0:
192,192,48201,1,0,0:0:0:0:
320,192,48432,128,0,49124:3:0:0:0:
448,192,48432,1,0,0:0:0:0:
64,192,48662,1,0,0:0:0:0:
448,192,48893,1,0,3:0:0:0:
64,192,49124,1,0,0:0:0:0:
448,192,49355,128,0,49816:0:0:0:0:
192,192,49355,1,0,3:0:0:0:
64,192,49585,1,0,0:0:0:0:
192,192,49816,1,0,3:0:0:0:
64,192,50047,128,0,51432:0:0:0:0:
320,192,50047,1,0,0:0:0:0:
448,192,50278,1,0,3:0:0:0:
320,192,50508,1,0,0:0:0:0:
192,192,50739,1,0,3:0:0:0:
320,192,50970,1,0,0:0:0:0:
192,192,51201,1,0,3:0:0:0:
448,192,51432,1,0,0:0:0:0:
448,192,51662,1,4,3:0:0:0:
320,192,51662,1,0,3:0:0:0:
448,192,51893,1,0,0:0:0:0:
192,192,51893,1,0,3:0:0:0:
64,192,52124,1,0,3:0:0:0:
320,192,52124,1,4,3:0:0:0:
64,192,52355,1,0,3:0:0:0:
192,192,52355,1,0,0:0:0:0:
64,192,52585,128,4,53508:3:0:0:0:
320,192,52585,1,2,0:0:0:0:
448,192,53047,1,2,0:0:0:0:
192,192,53508,128,0,54432:0:0:0:0:
320,192,53508,1,2,0:0:0:0:
448,192,53970,1,2,0:0:0:0:
448,192,54432,128,0,55355:0:0:0:0:
320,192,54432,1,2,0:0:0:0:
192,192,54893,1,2,0:0:0:0:
320,192,55355,128,0,55816:0:0:0:0:
64,192,55355,1,2,0:0:0:0:
192,192,55816,1,2,0:0:0:0:
192,192,56278,128,0,57201:0:0:0:0:
320,192,56278,1,2,0:0:0:0:
448,192,56739,1,2,0:0:0:0:
320,192,57201,128,0,58124:0:0:0:0:
64,192,57201,1,2,0:0:0:0:
448,192,57662,1,2,0:0:0:0:
448,192,58124,128,0,59047:0:0:0:0:
64,192,58124,1,2,0:0:0:0:
192,192,58585,1,2,0:0:0:0:
192,192,59047,128,0,59508:0:0:0:0:
320,192,59047,1,2,0:0:0:0:
64,192,59508,1,2,0:0:0:0:
64,192,59970,128,0,60893:0:0:0:0:
320,192,59970,1,2,0:0:0:0:
448,192,60432,1,2,0:0:0:0:
192,192,60893,128,0,61816:0:0:0:0:
320,192,60893,1,2,0:0:0:0:
448,192,61355,1,2,0:0:0:0:
448,192,61816,128,0,62278:0:0:0:0:
64,192,61816,1,2,0:0:0:0:
192,192,62278,1,2,0:0:0:0:
320,192,62739,128,0,64124:0:0:0:0:
64,192,62739,1,2,0:0:0:0:
192,192,63201,1,2,0:0:0:0:
448,192,63432,1,4,3:0:0:0:
64,192,63893,1,2,0:0:0:0:
448,192,64124,128,4,66432:3:0:0:0:
192,192,64585,1,2,0:0:0:0:
320,192,65047,1,2,0:0:0:0:
192,192,65508,1,2,0:0:0:0:
64,192,65970,1,2,0:0:0:0:
320,192,66432,1,2,0:0:0:0:
192,192,66662,1,2,0:0:0:0:
64,192,66893,1,2,0:0:0:0:
448,192,67008,1,2,0:0:0:0:
192,192,67124,1,2,0:0:0:0:
320,192,67239,1,2,0:0:0:0:
64,192,67355,128,4,70585:3:0:0:0:
192,192,67355,1,0,3:0:0:0:
448,192,67585,1,0,0:0:0:0:
320,192,67816,1,0,3:0:0:0:
192,192,68047,1,0,0:0:0:0:
448,192,68278,1,0,3:0:0:0:
192,192,68508,1,0,0:0:0:0:
320,192,68739,1,0,3:0:0:0:
448,192,68970,1,0,0:0:0:0:
320,192,69201,1,0,3:0:0:0:
448,192,69432,1,0,0:0:0:0:
320,192,69662,1,0,3:0:0:0:
192,192,69893,1,0,0:0:0:0:
320,192,70124,1,0,3:0:0:0:
448,192,70355,1,0,0:0:0:0:
320,192,70585,1,0,3:0:0:0:
192,192,70816,1,0,0:0:0:0:
64,192,71047,1,0,3:0:0:0:
448,192,71047,128,4,74278:3:0:0:0:
320,192,71278,1,0,0:0:0:0:
192,192,71508,1,0,3:0:0:0:
64,192,71739,1,0,0:0:0:0:
320,192,71970,1,0,3:0:0:0:
192,192,72201,1,0,0:0:0:0:
320,192,72432,1,0,3:0:0:0:
64,192,72662,1,0,0:0:0:0:
192,192,72893,1,0,3:0:0:0:
64,192,73124,1,0,0:0:0:0:
320,192,73355,1,0,3:0:0:0:
192,192,73585,1,0,0:0:0:0:
320,192,73816,1,0,3:0:0:0:
64,192,74047,1,0,0:0:0:0:
192,192,74278,1,0,3:0:0:0:
320,192,74508,1,0,0:0:0:0:
448,192,74739,1,0,3:0:0:0:
64,192,74739,128,4,77508:3:0:0:0:
320,192,74970,1,0,0:0:0:0:
192,192,75201,1,0,3:0:0:0:
448,192,75432,1,0,0:0:0:0:
320,192,75662,1,0,3:0:0:0:
192,192,75893,1,0,0:0:0:0:
320,192,76124,1,0,3:0:0:0:
192,192,76355,1,0,0:0:0:0:
320,192,76585,1,0,3:0:0:0:
448,192,76816,1,0,0:0:0:0:
192,192,77047,1,0,3:0:0:0:
320,192,77278,1,0,0:0:0:0:
448,192,77508,1,0,3:0:0:0:
320,192,77739,1,0,0:0:0:0:
448,192,77970,128,4,79816:3:0:0:0:
64,192,77970,1,0,3:0:0:0:
320,192,78201,1,0,0:0:0:0:
64,192,78432,1,0,3:0:0:0:
192,192,78662,1,0,0:0:0:0:
64,192,78893,1,0,3:0:0:0:
192,192,79124,1,0,0:0:0:0:
320,192,79355,1,0,3:0:0:0:
192,192,79585,1,0,0:0:0:0:
320,192,79816,1,0,3:0:0:0:
192,192,80047,1,0,0:0:0:0:
64,192,80278,128,4,81662:3:0:0:0:
320,192,80278,1,0,3:0:0:0:
448,192,80508,1,0,0:0:0:0:
320,192,80739,1,0,3:0:0:0:
192,192,80970,1,0,0:0:0:0:
320,192,81201,1,0,3:0:0:0:
448,192,81432,1,0,0:0:0:0:
192,192,81662,1,0,3:0:0:0:
320,192,81893,1,0,0:0:0:0:
448,192,82124,1,0,3:0:0:0:
192,192,82124,128,4,85355:3:0:0:0:
64,192,82355,1,0,0:0:0:0:
320,192,82585,1,0,3:0:0:0:
448,192,82816,1,0,0:0:0:0:
64,192,83047,1,0,3:0:0:0:
320,192,83278,1,0,0:0:0:0:
448,192,83508,1,0,3:0:0:0:
320,192,83739,1,0,0:0:0:0:
64,192,83970,1,0,3:0:0:0:
448,192,84201,1,0,0:0:0:0:
320,192,84432,1,0,3:0:0:0:
64,192,84662,1,0,0:0:0:0:
320,192,84893,1,0,3:0:0:0:
448,192,85124,1,0,0:0:0:0:
64,192,85355,1,0,3:0:0:0:
448,192,85585,1,0,0:0:0:0:
320,192,85816,128,4,89047:3:0:0:0:
192,192,85816,1,0,3:0:0:0:
64,192,86047,1,0,0:0:0:0:
448,192,86278,1,0,3:0:0:0:
192,192,86508,1,0,0:0:0:0:
64,192,86739,1,0,3:0:0:0:
448,192,86970,1,0,0:0:0:0:
192,192,87201,1,0,3:0:0:0:
64,192,87432,1,0,0:0:0:0:
192,192,87662,1,0,3:0:0:0:
448,192,87893,1,0,0:0:0:0:
192,192,88124,1,0,3:0:0:0:
64,192,88355,1,0,0:0:0:0:
448,192,88585,1,0,3:0:0:0:
192,192,88816,1,0,0:0:0:0:
64,192,89047,1,0,3:0:0:0:
192,192,89278,1,0,0:0:0:0:
320,192,89508,1,0,3:0:0:0:
64,192,89508,128,4,92739:3:0:0:0:
192,192,89739,1,0,0:0:0:0:
320,192,89970,1,0,3:0:0:0:
192,192,90201,1,0,0:0:0:0:
320,192,90432,1,0,3:0:0:0:
448,192,90662,1,0,0:0:0:0:
320,192,90893,1,0,3:0:0:0:
192,192,91124,1,0,0:0:0:0:
448,192,91355,1,0,3:0:0:0:
192,192,91585,1,0,0:0:0:0:
320,192,91816,1,0,3:0:0:0:
448,192,92047,1,0,0:0:0:0:
320,192,92278,1,0,3:0:0:0:
192,192,92508,1,0,0:0:0:0:
320,192,92739,1,0,3:0:0:0:
448,192,92739,128,0,93432:0:0:0:0:
192,192,92970,1,0,0:0:0:0:
64,192,93201,1,0,3:0:0:0:
320,192,93432,128,0,93893:0:0:0:0:
192,192,93662,1,0,3:0:0:0:
64,192,93893,128,0,94355:0:0:0:0:
320,192,94124,1,0,3:0:0:0:
448,192,94355,128,0,94816:0:0:0:0:
192,192,94585,1,0,3:0:0:0:
320,192,94816,128,0,95739:0:0:0:0:
64,192,95047,1,0,3:0:0:0:
448,192,95278,1,0,0:0:0:0:
64,192,95508,1,0,3:0:0:0:
192,192,95739,1,0,0:0:0:0:
64,192,95970,128,4,96432:3:0:0:0:
320,192,95970,1,0,3:0:0:0:
192,192,96432,128,4,96893:3:0:0:0:
448,192,96432,1,0,3:0:0:0:
448,192,96893,128,4,99201:3:0:0:0:
320,192,96893,1,0,3:0:0:0:
64,192,97124,1,0,0:0:0:0:
320,192,97355,1,0,3:0:0:0:
192,192,97585,1,0,0:0:0:0:
320,192,97816,1,0,3:0:0:0:
64,192,98047,1,0,0:0:0:0:
320,192,98278,1,0,3:0:0:0:
192,192,98508,1,0,0:0:0:0:
320,192,98739,1,0,3:0:0:0:
64,192,98970,1,0,0:0:0:0:
320,192,99201,1,0,3:0:0:0:
448,192,99662,128,4,100124:3:0:0:0:
192,192,99662,1,0,3:0:0:0:
320,192,100124,128,4,100585:3:0:0:0:
64,192,100124,1,0,3:0:0:0:
64,192,100585,128,4,102893:3:0:0:0:
192,192,100585,1,0,3:0:0:0:
448,192,100816,1,0,0:0:0:0:
192,192,101047,1,0,3:0:0:0:
320,192,101278,1,0,0:0:0:0:
192,192,101508,1,0,3:0:0:0:
448,192,101739,1,0,0:0:0:0:
192,192,101970,1,0,3:0:0:0:
320,192,102201,1,0,0:0:0:0:
192,192,102432,1,0,3:0:0:0:
448,192,102662,1,0,0:0:0:0:
192,192,102893,1,0,3:0:0:0:
64,192,103355,128,4,103816:3:0:0:0:
320,192,103355,1,0,3:0:0:0:
448,192,103816,1,0,3:0:0:0:
192,192,103816,128,4,104278:3:0:0:0:
448,192,104278,128,4,107970:3:0:0:0:
320,192,104278,1,0,3:0:0:0:
192,192,104739,1,0,0:0:0:0:
64,192,105201,1,0,0:0:0:0:
192,192,105662,1,0,0:0:0:0:
320,192,106124,1,0,3:0:0:0:
64,192,106585,1,0,0:0:0:0:
320,192,107047,1,0,3:0:0:0:
64,192,107508,1,0,0:0:0:0:
