osu file format v14

[General]
AudioFilename: audio.mp3
AudioLeadIn: 0
PreviewTime: 51085
Countdown: 0
SampleSet: Soft
StackLeniency: 0.3
Mode: 0
LetterboxInBreaks: 0
WidescreenStoryboard: 0

[Editor]
Bookmarks: 16058,26271,36484,51643,79888,90101,110526,120580,123133,125686,153931,169250,179303,186963,190792,219037,229250,239463,242654
DistanceSpacing: 1
BeatDivisor: 4
GridSize: 4
TimelineZoom: 1.7

[Metadata]
Title:Break Beat Bark!
TitleUnicode:Break Beat Bark!
Artist:Yuna (CV: Kanda Sayaka)
ArtistUnicode:ユナ (CV: 神田沙也加)
Creator:Meg
Version:Kalibe's Insane
Source:劇場版 ソードアート・オンライン -オーディナル・スケール-
Tags:gekijouban Sword Art Online Ordinal Scale SAO Movie iMage-- kuei Kalibe Net0
BeatmapID:1839666
BeatmapSetID:878387

[Difficulty]
HPDrainRate:6
CircleSize:4
OverallDifficulty:8
ApproachRate:9
SliderMultiplier:1.65
SliderTickRate:1

[Events]
//Background and Video events
0,0,"BG.jpg",0,0
//Break Periods
2,16258,20245
2,120780,122533
2,179503,186363
//Storyboard Layer 0 (Background)
//Storyboard Layer 1 (Fail)
//Storyboard Layer 2 (Pass)
//Storyboard Layer 3 (Foreground)
//Storyboard Sound Samples

[TimingPoints]
-537,319.148936170213,4,2,1,40,1,0
420,-133.333333333333,4,2,1,40,0,0
4728,-105.263157894737,4,2,1,40,0,0
5367,-133.333333333333,4,2,1,60,0,0
5526,-133.333333333333,4,2,1,60,0,0
5686,-133.333333333333,4,2,1,60,0,0
5845,-100,4,2,1,60,0,0
16058,-133.333333333333,4,2,1,60,0,0
20845,-100,4,2,1,60,0,0
21165,-111.111111111111,4,2,1,60,0,0
26271,-100,4,2,1,60,0,0
36484,-133.333333333333,4,2,1,60,0,0
46537,-111.111111111111,4,2,1,60,0,0
49090,-100,4,2,1,60,0,0
51165,-71.4285714285714,4,2,1,60,0,0
51244,-71.4285714285714,4,2,1,60,0,0
51324,-142.857142857143,4,2,1,60,0,0
51564,-142.857142857143,4,2,1,60,0,0
51643,-90.9090909090909,4,2,1,70,0,1
60580,-76.9230769230769,4,2,1,70,0,1
61856,-90.9090909090909,4,2,1,70,0,1
70792,-83.3333333333333,4,2,1,70,0,1
71750,-100,4,2,1,70,0,1
72228,-142.857142857143,4,2,1,70,0,0
77335,-90.9090909090909,4,2,1,70,0,1
79888,-100,4,2,1,60,0,0
89782,-76.9230769230769,4,2,1,60,0,0
90101,-100,4,2,1,60,0,0
114994,-142.857142857143,4,2,1,60,0,0
115633,-100,4,2,1,60,0,0
125367,-76.9230769230769,4,2,1,60,0,0
125686,-90.9090909090909,4,2,1,70,0,1
134622,-76.9230769230769,4,2,1,70,0,1
135899,-90.9090909090909,4,2,1,70,0,1
144835,-76.9230769230769,4,2,1,70,0,1
145792,-100,4,2,1,70,0,1
146271,-142.857142857143,4,2,1,70,0,0
151377,-100,4,2,1,70,0,1
153931,-111.111111111111,4,2,1,60,0,0
158718,-66.6666666666667,4,2,1,60,0,0
159037,-111.111111111111,4,2,1,60,0,0
164463,-100,4,2,1,40,0,0
164782,-100,4,2,1,50,0,0
165101,-100,4,2,1,60,0,0
165420,-100,4,2,1,70,0,0
166058,-100,4,2,1,80,0,0
167175,-83.3333333333333,4,2,1,80,0,0
167654,-71.4285714285714,4,2,1,80,0,0
168292,-76.9230769230769,4,2,1,70,0,0
169250,-90.9090909090909,4,2,1,70,0,0
179143,-76.9230769230769,4,2,1,70,0,0
179303,-83.3333333333333,4,2,1,50,0,0
186963,-133.333333333333,4,2,1,60,0,0
187282,-133.333333333333,4,2,1,20,0,0
187441,-133.333333333333,4,2,1,30,0,0
187760,-133.333333333333,4,2,1,50,0,0
188080,-133.333333333333,4,2,1,70,0,0
188399,-133.333333333333,4,2,1,60,0,0
190314,-71.4285714285714,4,2,1,60,0,0
190473,-142.857142857143,4,2,1,60,0,0
190792,-90.9090909090909,4,2,1,80,0,1
199728,-71.4285714285714,4,2,1,80,0,1
201005,-90.9090909090909,4,2,1,80,0,1
209941,-71.4285714285714,4,2,1,80,0,1
210899,-100,4,2,1,80,0,1
211377,-142.857142857143,4,2,1,80,0,0
216484,-90.9090909090909,4,2,1,80,0,1
219037,-100,4,2,1,70,0,0
236909,-142.857142857143,4,2,1,70,0,0
237867,-90.9090909090909,4,2,1,70,0,0
238186,-83.3333333333333,4,2,1,70,0,0
239463,-83.3333333333333,4,2,1,70,0,0
240101,-83.3333333333333,4,2,1,50,0,0
240739,-83.3333333333333,4,2,1,60,0,0
241377,-83.3333333333333,4,2,1,70,0,0
242016,-83.3333333333333,4,2,1,80,0,0
242494,-83.3333333333333,4,2,1,60,0,0
242574,-83.3333333333333,4,2,1,45,0,0
242654,-83.3333333333333,4,2,1,30,0,0

[Colours]
Combo1 : 200,255,255
Combo2 : 255,89,172
Combo3 : 213,213,255
Combo4 : 255,189,222

[HitObjects]
265,210,420,6,0,L|186:222,1,61.875002360344,2|2,0:3|0:3,0:0:0:0:
90,293,739,5,4,0:0:0:0:
90,293,899,2,0,P|120:258|210:253,1,123.750004720688,0|4,0:0|0:0,0:0:0:0:
256,314,1377,2,0,P|242:346|231:390,1,61.875002360344,0|0,0:0|0:0,0:0:0:0:
346,252,1697,2,0,P|390:267|468:287,1,123.750004720688,4|0,0:0|0:0,0:0:0:0:
321,158,2175,1,4,0:0:0:0:
321,158,2335,2,0,P|357:146|392:127,1,61.875002360344,0|0,0:0|0:0,0:0:0:0:
387,127,2574,1,0,0:0:0:0:
393,121,2654,1,8,0:3:0:0:
325,262,2814,1,8,0:3:0:0:
199,160,2973,1,8,0:3:0:0:
199,160,3133,1,8,0:3:0:0:
100,234,3292,6,0,P|64:195|71:121,1,123.750004720688,4|0,0:0|0:0,0:0:0:0:
170,27,3771,1,4,0:0:0:0:
170,27,3931,2,0,P|161:48|151:99,1,61.875002360344,0|0,0:0|0:0,0:0:0:0:
194,302,4250,2,0,P|198:224|216:169,1,123.750004720688,4|0,0:0|0:0,0:0:0:0:
218,185,4728,6,0,L|304:169,1,78.3749979071618,4|0,0:0|0:0,0:0:0:0:
433,320,5048,1,0,0:0:0:0:
433,320,5127,1,0,0:0:0:0:
433,320,5207,6,0,P|440:302|443:262,1,39.1874989535809,8|0,0:0|0:0,0:0:0:0:
378,162,5367,6,0,P|385:180|386:204,1,30.937501180172,8|0,0:0|0:0,0:0:0:0:
311,360,5526,6,0,P|298:351|287:339,1,30.937501180172,8|0,0:0|0:0,0:0:0:0:
258,210,5686,6,0,P|271:223|285:231,1,30.937501180172,8|0,0:0|0:0,0:0:0:0:
365,272,5845,5,12,0:0:0:0:
365,272,6005,2,0,P|322:262|279:237,1,82.5,0|2,0:0|0:0,0:0:0:0:
62,374,6324,2,0,B|153:360|119:309|204:299,1,165,12|2,0:0|0:0,0:0:0:0:
115,213,6803,2,0,L|104:128,1,82.5,12|0,0:0|0:0,0:0:0:0:
365,150,7122,5,2,0:0:0:0:
351,246,7282,2,0,L|333:333,1,82.5,12|6,0:0|0:0,0:0:0:0:
473,213,7601,1,0,0:0:0:0:
275,141,7760,6,0,P|235:152|182:162,1,82.5,12|2,0:0|0:0,0:0:0:0:
338,240,8080,1,12,0:0:0:0:
206,377,8239,1,2,0:0:0:0:
206,377,8319,1,2,0:0:0:0:
206,377,8399,6,0,B|224:338|224:338|214:295,1,82.5,12|2,0:0|0:0,0:0:0:0:
105,225,8718,1,2,0:0:0:0:
245,173,8877,2,0,P|185:227|99:222,1,165,12|2,0:0|0:0,0:0:0:0:
36,132,9356,2,0,P|48:82|58:23,1,82.5,12|0,0:0|0:0,0:0:0:0:
151,129,9675,5,2,0:0:0:0:
287,52,9835,2,0,P|325:58|396:64,1,82.5,12|2,0:0|0:0,0:0:0:0:
440,146,10154,1,2,0:0:0:0:
321,280,10314,5,10,0:0:0:0:
286,258,10393,1,2,0:0:0:0:
272,219,10473,1,2,0:0:0:0:
285,179,10553,1,2,0:0:0:0:
316,152,10633,5,2,0:0:0:0:
320,169,10713,1,2,0:0:0:0:
324,191,10792,1,2,0:0:0:0:
329,215,10872,1,2,0:0:0:0:
334,242,10952,5,12,0:0:0:0:
418,297,11111,2,0,P|456:303|526:320,1,82.5,2|2,0:0|0:0,0:0:0:0:
236,247,11431,2,0,P|180:254|116:348,1,165,12|2,0:0|0:0,0:0:0:0:
82,225,11909,2,0,P|39:219|-16:207,1,82.5,12|2,0:0|0:0,0:0:0:0:
19,314,12228,1,2,0:0:0:0:
177,157,12388,2,0,B|188:117|188:117|169:73,1,82.5,12|8,0:0|0:0,0:0:0:0:
73,133,12707,1,8,0:0:0:0:
259,273,12867,2,0,L|369:293,1,82.5,12|2,0:0|0:0,0:0:0:0:
316,64,13186,2,0,L|426:44,1,82.5,12|2,0:0|0:0,0:0:0:0:
397,49,13425,1,2,0:0:0:0:
397,49,13505,5,12,0:0:0:0:
484,111,13665,1,2,0:0:0:0:
388,159,13824,1,0,0:0:0:0:
365,292,13984,5,12,0:0:0:0:
452,230,14143,1,2,0:0:0:0:
356,182,14303,1,0,0:0:0:0:
250,321,14463,5,12,0:0:0:0:
343,373,14622,1,2,0:0:0:0:
346,266,14782,1,0,0:0:0:0:
161,355,14941,6,0,P|114:368|75:383,1,82.5,12|2,0:0|0:0,0:0:0:0:
236,288,15260,1,0,0:0:0:0:
4,185,15420,6,0,P|49:210|122:223,1,123.75,12|8,0:0|0:0,0:0:0:0:
150,244,15739,1,8,0:0:0:0:
112,243,15819,1,8,0:0:0:0:
76,254,15899,1,8,0:0:0:0:
51,281,15978,1,8,0:0:0:0:
32,318,16058,1,4,0:0:0:0:
285,268,20845,6,0,L|418:294,1,123.75,4|0,0:0|0:0,0:0:0:0:
394,204,21165,6,0,B|408:169|408:169|395:131,1,74.2499977340699,6|0,0:0|0:0,0:0:0:0:
274,253,21484,1,8,0:0:0:0:
395,324,21643,2,0,P|444:321|494:242,1,148.49999546814,0|0,0:0|0:0,0:0:0:0:
292,344,22122,2,0,P|255:352|215:367,1,74.2499977340699,8|2,0:0|0:0,0:0:0:0:
190,270,22441,6,0,P|146:265|55:204,1,148.49999546814,2|8,0:0|0:0,0:0:0:0:
136,58,22920,2,0,P|182:82|170:187,1,148.49999546814,0|2,0:0|0:0,0:0:0:0:
77,119,23399,2,0,L|0:107,1,74.2499977340699,8|0,0:0|0:0,0:0:0:0:
206,179,23718,6,0,B|264:167|264:167|285:138|285:138|352:127,1,148.49999546814,2|8,0:0|0:0,0:0:0:0:
427,166,24197,2,0,P|436:115|449:84,1,74.2499977340699,0|2,0:0|0:0,0:0:0:0:
325,228,24516,1,2,0:0:0:0:
387,298,24675,2,0,L|372:386,1,74.2499977340699,8|2,0:0|0:0,0:0:0:0:
511,255,24994,5,2,0:0:0:0:
407,156,25154,1,0,0:0:0:0:
512,87,25314,2,0,P|472:78|435:63,1,74.2499977340699,8|2,0:0|0:0,0:0:0:0:
326,239,25633,2,0,P|286:248|249:263,1,74.2499977340699,8|2,0:0|0:0,0:0:0:0:
171,155,25952,2,0,P|131:146|94:131,1,74.2499977340699,8|0,0:0|0:0,0:0:0:0:
0,320,26271,6,0,P|28:270|134:249,1,165,6|8,0:0|0:0,0:0:0:0:
61,152,26750,2,0,L|3:165,2,41.25,0|10|2,0:0|0:0|0:0,0:0:0:0:
185,50,27069,1,2,0:0:0:0:
185,50,27228,2,0,B|195:89|195:89|180:132,1,82.5,8|0,0:0|0:0,0:0:0:0:
277,337,27548,6,0,L|266:200,1,123.75,2|0,0:0|0:0,0:0:0:0:
275,200,27867,1,8,0:0:0:0:
376,310,28026,1,0,0:0:0:0:
392,291,28106,1,8,0:0:0:0:
389,266,28186,1,2,0:0:0:0:
272,348,28345,2,0,P|231:357|190:373,1,82.5,2|8,0:0|0:0,0:0:0:0:
362,129,28665,5,2,0:0:0:0:
362,129,28744,1,2,0:0:0:0:
362,129,28824,2,0,B|430:151|430:151|437:177|437:177|508:202,1,165,2|8,0:0|0:0,0:0:0:0:
489,76,29303,2,0,L|483:22,2,41.25,0|8|2,0:0|0:0|0:0,0:0:0:0:
342,300,29622,2,0,P|350:259|351:217,1,82.5,2|8,0:0|0:0,0:0:0:0:
275,162,29941,1,0,0:0:0:0:
212,250,30101,6,0,L|122:272,1,82.5,2|2,0:0|0:0,0:0:0:0:
1,266,30420,2,0,P|50:267|110:371,1,165,8|2,0:0|0:0,0:0:0:0:
157,181,30899,1,2,0:0:0:0:
157,181,31058,2,0,P|149:140|143:91,1,82.5,8|0,0:0|0:0,0:0:0:0:
239,275,31377,6,0,B|331:287|305:228|408:245,1,165,6|8,0:0|0:0,0:0:0:0:
478,348,31856,1,0,0:0:0:0:
478,348,31936,1,8,0:0:0:0:
478,348,32016,2,0,P|480:309|515:283,1,82.5,2|2,0:0|0:0,0:0:0:0:
424,138,32335,2,0,L|334:124,1,82.5,8|0,0:0|0:0,0:0:0:0:
138,213,32654,6,0,P|190:202|285:192,1,123.75,2|0,0:0|0:0,0:0:0:0:
270,174,32973,1,8,0:0:0:0:
200,82,33133,2,0,P|197:105|179:142,2,41.25,0|8|2,0:0|0:0|0:0,0:0:0:0:
71,142,33452,1,2,0:0:0:0:
71,142,33611,2,0,P|39:170|39:239,1,82.5,8|0,0:0|0:0,0:0:0:0:
143,375,33931,6,0,P|196:342|195:234,1,165,2|8,0:0|0:0,0:0:0:0:
104,295,34409,2,0,P|63:307|7:330,1,82.5,0|2,0:0|0:0,0:0:0:0:
104,295,34728,1,2,0:0:0:0:
233,356,34888,2,0,P|275:363|324:380,1,82.5,8|0,0:0|0:0,0:0:0:0:
469,305,35207,5,2,0:0:0:0:
347,206,35367,1,2,0:0:0:0:
299,342,35526,5,8,0:0:0:0:
456,185,35686,1,8,0:0:0:0:
395,374,35845,5,8,0:0:0:0:
257,248,36005,1,8,0:0:0:0:
257,248,36085,1,8,0:0:0:0:
257,248,36165,2,0,L|206:230,2,41.25,8|8|2,0:0|0:0|0:0,0:0:0:0:
347,206,36484,6,0,B|226:198|251:299|105:282,1,247.500009441376,6|0,0:0|0:0,0:0:0:0:
120,283,37441,2,0,P|129:235|131:208,1,61.875002360344,0|2,0:0|0:0,0:0:0:0:
53,142,37760,6,0,P|76:177|155:192,1,123.750004720688,2|0,0:0|0:0,0:0:0:0:
311,71,38239,2,0,P|250:83|188:90,1,123.750004720688,0|2,0:0|0:0,0:0:0:0:
298,188,38718,2,0,P|271:180|229:174,1,61.875002360344,8|0,0:0|0:0,0:0:0:0:
359,264,39037,6,0,P|403:217|395:157,1,123.750004720688,2|0,0:0|0:0,0:0:0:0:
248,259,39516,2,0,P|259:310|267:396,1,123.750004720688,0|0,0:0|0:0,0:0:0:0:
345,342,39994,1,0,0:0:0:0:
443,367,40154,6,0,P|472:374|519:387,1,61.875002360344,2|0,0:0|0:0,0:0:0:0:
397,260,40473,2,0,P|417:235|444:193,1,61.875002360344,8|0,0:0|0:0,0:0:0:0:
277,289,40792,2,0,P|216:279|140:274,1,123.750004720688,4|4,0:3|0:3,0:0:0:0:
53,346,41271,1,4,0:3:0:0:
61,331,41590,6,0,P|65:222|176:248,1,247.500009441376,6|0,0:0|0:0,0:0:0:0:
172,241,42548,2,0,P|159:213|171:175,1,61.875002360344,0|2,0:0|0:0,0:0:0:0:
109,66,42867,6,0,P|159:85|251:109,1,123.750004720688,2|0,0:0|0:0,0:0:0:0:
356,155,43345,2,0,P|295:162|244:209,1,123.750004720688,2|2,0:0|0:0,0:0:0:0:
317,72,43824,2,0,L|301:-10,1,61.875002360344,8|0,0:0|0:0,0:0:0:0:
434,93,44143,6,0,B|468:126|468:126|452:217,1,123.750004720688,6|0,0:0|0:0,0:0:0:0:
284,285,44622,1,2,0:0:0:0:
367,364,44782,1,8,0:0:0:0:
367,364,44941,2,0,P|371:305|388:225,1,123.750004720688,0|0,0:0|0:0,0:0:0:0:
298,192,45420,6,0,P|291:140|283:108,1,61.875002360344,8|0,0:0|0:0,0:0:0:0:
469,274,45739,2,0,P|476:222|484:190,1,61.875002360344,2|0,0:0|0:0,0:0:0:0:
271,319,46058,2,0,B|222:331|222:331|206:348|206:348|147:365,1,123.750004720688,8|0,0:0|0:0,0:0:0:0:
19,295,46537,6,0,P|73:298|138:222,1,148.49999546814,6|0,0:0|0:0,0:0:0:0:
211,117,47016,2,0,L|292:100,1,74.2499977340699,8|0,0:0|0:0,0:0:0:0:
254,300,47335,2,0,B|236:266|236:266|253:234,1,74.2499977340699,8|0,0:0|0:0,0:0:0:0:
112,153,47654,1,8,0:0:0:0:
130,54,47814,6,0,P|93:48|55:37,1,74.2499977340699,0|8,0:0|0:0,0:0:0:0:
220,214,48133,1,2,0:0:0:0:
220,214,48213,1,2,0:0:0:0:
220,214,48292,2,0,P|239:175|223:130,1,74.2499977340699,8|2,0:0|0:0,0:0:0:0:
24,254,48611,1,8,0:0:0:0:
39,288,48691,1,0,0:0:0:0:
71,307,48771,1,2,0:0:0:0:
108,307,48851,1,2,0:0:0:0:
143,294,48931,1,8,0:0:0:0:
244,353,49090,6,0,L|388:369,1,123.75,6|0,0:0|0:0,0:0:0:0:
382,371,49409,1,12,0:0:0:0:
494,301,49569,1,2,0:0:0:0:
385,220,49728,1,2,0:0:0:0:
433,41,49888,5,12,0:0:0:0:
291,118,50048,1,2,0:0:0:0:
413,205,50207,1,0,0:0:0:0:
381,114,50367,6,0,P|293:146|265:217,1,165,4|2,0:0|0:0,0:0:0:0:
327,377,50845,2,0,P|336:336|353:286,1,82.5,8|8,0:0|0:0,0:0:0:0:
356,303,51085,1,8,0:0:0:0:
356,303,51165,6,0,P|308:315|277:320,1,57.7499982376099,2|0,0:0|0:0,0:0:0:0:
156,270,51324,6,0,P|170:322|164:357,1,86.6249973564149,0|0,0:0|0:0,0:0:0:0:
134,376,51643,6,0,P|165:318|275:302,1,181.500005538941,6|2,0:0|0:0,0:0:0:0:
120,192,52122,2,0,L|6:174,1,90.7500027694703,8|0,0:0|0:0,0:0:0:0:
227,43,52441,2,0,B|241:85|241:85|223:130,1,90.7500027694703,2|2,0:0|0:0,0:0:0:0:
300,357,52760,2,0,B|286:315|286:315|304:270,1,90.7500027694703,8|0,0:0|0:0,0:0:0:0:
421,173,53080,5,2,0:0:0:0:
421,173,53239,2,0,P|463:181|531:187,1,90.7500027694703,2|8,0:0|0:0,0:0:0:0:
396,283,53558,2,0,P|388:325|382:393,1,90.7500027694703,0|2,0:0|0:0,0:0:0:0:
271,248,53877,2,0,P|226:261|181:270,1,90.7500027694703,2|8,0:0|0:0,0:0:0:0:
390,33,54197,6,0,P|332:63|328:170,1,181.500005538941,6|2,0:0|0:0,0:0:0:0:
501,284,54675,2,0,B|446:265|408:249|408:249|350:271|361:316,1,181.500005538941,8|2,0:0|0:0,0:0:0:0:
500,185,55154,1,2,0:0:0:0:
423,119,55314,2,0,L|326:138,1,90.7500027694703,8|0,0:0|0:0,0:0:0:0:
135,269,55633,5,2,0:0:0:0:
234,322,55792,2,0,B|253:280|253:280|240:232,1,90.7500027694703,2|8,0:0|0:0,0:0:0:0:
93,162,56111,1,0,0:0:0:0:
93,162,56191,1,8,0:0:0:0:
93,162,56271,2,0,L|-24:191,1,90.7500027694703,2|2,0:0|0:0,0:0:0:0:
252,97,56590,1,8,0:0:0:0:
89,29,56750,6,0,B|188:31|153:90|257:97,1,181.500005538941,6|0,0:0|0:0,0:0:0:0:
330,170,57228,2,0,P|354:98|347:64,1,90.7500027694703,8|0,0:0|0:0,0:0:0:0:
220,242,57548,1,2,0:0:0:0:
320,337,57707,2,0,P|359:343|421:362,1,90.7500027694703,2|8,0:0|0:0,0:0:0:0:
210,328,58026,6,0,L|22:372,1,181.500005538941,2|0,0:0|0:0,0:0:0:0:
117,263,58505,1,8,0:0:0:0:
27,187,58665,1,0,0:0:0:0:
0,290,58824,5,2,0:0:0:0:
127,170,58984,1,2,0:0:0:0:
210,328,59143,1,8,0:0:0:0:
383,185,59303,6,0,B|457:178|439:152|524:145,1,136.125004154205,6|0,0:0|0:0,0:0:0:0:
512,146,59622,2,0,L|491:256,1,90.7500027694703,2|8,0:0|0:0,0:0:0:0:
336,384,59941,1,2,0:0:0:0:
438,325,60101,1,8,0:0:0:0:
276,230,60260,2,0,P|232:244|188:253,1,90.7500027694703,2|8,0:0|0:0,0:0:0:0:
110,244,60500,1,2,0:0:0:0:
102,240,60580,5,12,1:2:0:0:
130,159,60899,5,12,1:2:0:0:
155,76,61218,5,12,1:2:0:0:
155,76,61537,6,0,P|127:84|81:88,1,53.6249975452424,8|0,1:2|0:0,0:0:0:0:
102,240,61697,2,0,P|72:244|23:258,1,53.6249975452424,8|0,1:2|0:0,0:0:0:0:
23,161,61856,6,0,B|130:165|84:231|190:234,1,181.500005538941,6|2,0:0|0:0,0:0:0:0:
282,304,62335,2,0,P|254:349|272:398,1,90.7500027694703,8|0,0:0|0:0,0:0:0:0:
399,261,62654,2,0,P|447:253|504:242,1,90.7500027694703,2|2,0:0|0:0,0:0:0:0:
343,142,62973,2,0,B|366:103|366:103|346:48,1,90.7500027694703,8|0,0:0|0:0,0:0:0:0:
168,148,63292,5,2,0:0:0:0:
168,148,63452,2,0,P|176:193|179:246,1,90.7500027694703,2|8,0:0|0:0,0:0:0:0:
269,90,63771,1,0,0:0:0:0:
269,90,63851,1,8,0:0:0:0:
269,90,63931,1,2,0:0:0:0:
394,219,64090,1,2,0:0:0:0:
472,61,64250,1,8,0:0:0:0:
262,179,64409,6,0,B|171:172|192:245|57:220,1,181.500005538941,6|2,0:0|0:0,0:0:0:0:
207,303,64888,2,0,B|222:346|222:346|192:397,1,90.7500027694703,8|0,0:0|0:0,0:0:0:0:
360,212,65207,2,0,L|375:118,1,90.7500027694703,2|2,0:0|0:0,0:0:0:0:
240,184,65526,2,0,P|196:179|123:162,1,90.7500027694703,8|0,0:0|0:0,0:0:0:0:
359,351,65845,5,2,0:0:0:0:
359,351,66005,2,0,P|404:339|463:339,1,90.7500027694703,2|8,0:0|0:0,0:0:0:0:
378,130,66324,2,0,P|423:142|482:142,1,90.7500027694703,0|2,0:0|0:0,0:0:0:0:
262,304,66643,1,2,0:0:0:0:
274,284,66723,1,8,0:0:0:0:
271,260,66803,1,8,0:0:0:0:
189,219,66963,6,0,B|202:295|202:295|231:307|231:307|245:386,1,181.500005538941,6|0,0:0|0:0,0:0:0:0:
97,272,67441,2,0,L|-2:294,1,90.7500027694703,8|0,0:0|0:0,0:0:0:0:
144,156,67760,1,2,0:0:0:0:
144,156,67920,2,0,B|161:111|161:111|145:62,1,90.7500027694703,2|8,0:0|0:0,0:0:0:0:
287,206,68239,6,0,P|272:268|256:390,1,181.500005538941,2|0,0:0|0:0,0:0:0:0:
380,194,68718,2,0,P|382:148|357:112,1,90.7500027694703,8|0,0:0|0:0,0:0:0:0:
356,316,69037,1,2,0:0:0:0:
356,316,69197,2,0,P|395:321|459:338,1,90.7500027694703,2|8,0:0|0:0,0:0:0:0:
264,216,69516,6,0,P|196:227|139:324,1,181.500005538941,6|2,0:0|0:0,0:0:0:0:
324,132,69994,2,0,L|309:37,1,90.7500027694703,8|0,0:0|0:0,0:0:0:0:
306,32,70234,1,0,0:0:0:0:
302,21,70314,1,8,0:0:0:0:
394,193,70473,1,0,0:0:0:0:
496,76,70633,1,8,0:0:0:0:
289,117,70792,6,0,B|210:125|229:153|142:161,1,148.49999546814,8|0,1:2|0:0,0:0:0:0:
131,138,71111,2,0,P|47:126|15:119,1,98.9999969787599,8|0,1:2|0:0,0:0:0:0:
273,258,71431,6,0,P|377:272|444:295,1,148.49999546814,8|0,1:2|0:0,0:0:0:0:
492,215,71750,6,0,P|428:204|336:309,1,206.25,12|0,1:2|0:0,0:0:0:0:
264,358,72228,6,0,P|212:362|134:381,1,115.49999647522,6|0,0:0|0:0,0:0:0:0:
52,294,72707,1,2,0:0:0:0:
89,206,72867,2,0,B|183:201|147:259|257:261,1,173.24999471283,12|0,0:0|0:0,0:0:0:0:
248,260,73425,1,0,0:0:0:0:
248,260,73505,1,6,0:0:0:0:
365,333,73665,6,0,P|356:301|353:276,1,57.7499982376099,8|0,0:0|0:0,0:0:0:0:
473,127,73984,1,0,0:0:0:0:
473,127,74143,2,0,P|452:191|448:239,1,115.49999647522,12|2,0:0|0:0,0:0:0:0:
448,238,74782,6,0,P|388:252|314:169,1,173.24999471283,6|2,0:0|0:0,0:0:0:0:
294,79,75420,2,0,P|305:38|310:7,1,57.7499982376099,12|0,0:0|0:0,0:0:0:0:
183,119,75739,2,0,L|112:101,1,57.7499982376099,0|0,0:0|0:0,0:0:0:0:
236,250,76058,5,2,0:0:0:0:
236,250,76218,2,0,P|182:273|125:303,1,115.49999647522,2|2,0:0|0:0,0:0:0:0:
74,216,76697,5,8,0:0:0:0:
156,349,76856,1,0,0:0:0:0:
261,231,77016,1,4,0:3:0:0:
41,313,77175,5,4,0:3:0:0:
41,313,77255,1,4,0:3:0:0:
41,313,77335,2,0,B|76:314|122:283|122:283|111:314|132:340,1,136.125004154205,12|0,0:0|0:0,0:0:0:0:
197,298,77654,2,0,L|308:314,1,90.7500027694703,8|0,0:0|0:0,0:0:0:0:
75,146,77973,2,0,P|45:190|59:240,1,90.7500027694703,8|0,0:0|0:0,0:0:0:0:
219,89,78292,2,0,P|211:41|208:-10,1,90.7500027694703,8|0,0:0|0:0,0:0:0:0:
88,156,78611,5,8,0:0:0:0:
224,254,78771,1,4,0:0:0:0:
195,266,79090,5,0,0:0:0:0:
379,129,79250,1,8,0:0:0:0:
421,145,79330,1,8,0:0:0:0:
445,182,79409,1,8,0:0:0:0:
447,228,79489,1,8,0:0:0:0:
428,269,79569,2,0,P|405:281|383:285,1,45.3750013847352,8|8,0:0|0:0,0:0:0:0:
281,192,79728,5,8,0:0:0:0:
281,192,79808,1,8,0:0:0:0:
281,192,79888,2,0,P|319:198|374:213,1,82.5,12|0,0:0|0:0,0:0:0:0:
251,59,80207,1,2,0:0:0:0:
488,46,80367,6,0,B|412:54|429:118|330:114,1,165,12|2,0:0|0:0,0:0:0:0:
295,283,80845,2,0,B|305:322|305:322|284:369,1,82.5,12|0,0:0|0:0,0:0:0:0:
387,216,81165,5,2,0:0:0:0:
287,181,81324,2,0,P|243:194|197:199,1,82.5,12|6,0:0|0:0,0:0:0:0:
2,334,81643,1,2,0:0:0:0:
113,233,81803,1,12,0:0:0:0:
133,369,81963,1,2,0:0:0:0:
30,255,82122,1,12,0:0:0:0:
222,309,82282,5,2,0:0:0:0:
222,309,82361,1,2,0:0:0:0:
222,309,82441,2,0,P|251:316|313:325,1,82.5,12|2,0:0|0:0,0:0:0:0:
402,384,82760,1,2,0:0:0:0:
225,224,82920,6,0,P|157:235|96:325,1,165,12|2,0:0|0:0,0:0:0:0:
338,192,83399,2,0,L|322:89,1,82.5,12|0,0:0|0:0,0:0:0:0:
216,341,83718,5,2,0:0:0:0:
216,341,83877,2,0,P|254:348|311:368,1,82.5,12|2,0:0|0:0,0:0:0:0:
171,126,84197,1,2,0:0:0:0:
100,221,84356,1,10,0:0:0:0:
131,248,84436,1,2,0:0:0:0:
172,253,84516,1,2,0:0:0:0:
210,240,84595,1,2,0:0:0:0:
220,220,84675,5,2,0:0:0:0:
257,201,84755,1,2,0:0:0:0:
298,198,84835,1,2,0:0:0:0:
335,215,84915,1,2,0:0:0:0:
358,248,84994,6,0,L|471:269,1,82.5,12|2,0:0|0:0,0:0:0:0:
304,338,85314,1,2,0:0:0:0:
460,239,85473,1,12,0:0:0:0:
331,131,85633,1,2,0:0:0:0:
363,232,85792,5,2,0:0:0:0:
494,53,85952,6,0,L|403:70,1,82.5,12|2,0:0|0:0,0:0:0:0:
206,205,86271,1,2,0:0:0:0:
300,34,86431,1,12,0:0:0:0:
419,170,86590,1,8,0:0:0:0:
307,128,86750,5,8,0:0:0:0:
242,363,86909,6,0,B|259:322|259:322|248:271,1,82.5,12|2,0:0|0:0,0:0:0:0:
122,172,87228,2,0,L|23:157,1,82.5,12|2,0:0|0:0,0:0:0:0:
20,166,87468,1,2,0:0:0:0:
7,172,87548,5,12,0:0:0:0:
78,245,87707,1,2,0:0:0:0:
147,152,87867,1,0,0:0:0:0:
287,316,88026,5,12,0:0:0:0:
227,225,88186,1,2,0:0:0:0:
134,340,88345,1,0,0:0:0:0:
333,224,88505,5,12,0:0:0:0:
262,134,88665,1,2,0:0:0:0:
187,251,88824,1,0,0:0:0:0:
409,329,88984,5,12,0:0:0:0:
409,329,89143,2,0,L|516:349,1,82.5,8|0,0:0|0:0,0:0:0:0:
350,134,89463,2,0,B|368:96|368:96|354:53,1,82.5,4|4,0:0|0:3,0:0:0:0:
159,176,89782,5,4,0:3:0:0:
159,176,89861,1,4,0:3:0:0:
159,176,89941,2,0,L|141:249,1,53.6249975452424,4|4,0:3|0:3,0:0:0:0:
104,379,90101,6,0,B|120:315|120:315|147:294|147:294|166:232,1,165,6|8,0:0|0:0,0:0:0:0:
253,300,90580,2,0,P|291:305|337:318,1,82.5,0|2,0:0|0:0,0:0:0:0:
240,130,90899,1,2,0:0:0:0:
310,64,91058,2,0,P|348:59|394:46,1,82.5,8|0,0:0|0:0,0:0:0:0:
503,271,91377,6,0,P|471:222|347:227,1,165,2|8,0:0|0:0,0:0:0:0:
251,141,91856,2,0,L|161:129,1,82.5,0|2,0:0|0:0,0:0:0:0:
310,64,92175,1,2,0:0:0:0:
207,339,92335,2,0,B|191:301|191:301|207:260,1,82.5,8|4,0:0|0:3,0:0:0:0:
218,257,92574,1,4,0:3:0:0:
226,250,92654,6,0,P|262:266|337:279,1,82.5,2|0,0:0|0:0,0:0:0:0:
139,161,92973,1,8,0:0:0:0:
139,161,93133,2,0,P|77:176|26:268,1,165,0|2,0:0|0:0,0:0:0:0:
227,132,93611,2,0,P|219:93|215:49,1,82.5,8|0,0:0|0:0,0:0:0:0:
320,281,93931,6,0,P|295:313|308:364,1,82.5,2|0,0:0|0:0,0:0:0:0:
403,188,94250,1,8,0:0:0:0:
259,220,94409,2,0,B|355:223|312:276|414:282,1,165,0|2,0:0|0:0,0:0:0:0:
267,355,94888,2,0,P|226:360|185:368,1,82.5,8|0,0:0|0:0,0:0:0:0:
44,206,95207,6,0,P|98:200|162:279,1,165,6|8,0:0|0:0,0:0:0:0:
229,131,95686,2,0,P|211:63|220:27,1,82.5,0|2,0:0|0:0,0:0:0:0:
127,159,96005,1,2,0:0:0:0:
240,235,96165,2,0,P|296:246|358:262,1,82.5,8|0,0:0|0:0,0:0:0:0:
147,292,96484,6,0,L|52:319,1,82.5,2|0,0:0|0:0,0:0:0:0:
303,160,96803,1,8,0:0:0:0:
339,267,96963,2,0,P|386:266|453:168,1,165,0|2,0:0|0:0,0:0:0:0:
263,11,97441,2,0,P|258:53|241:102,1,82.5,8|2,0:0|0:0,0:0:0:0:
253,96,97681,1,2,0:0:0:0:
253,96,97760,6,0,P|319:78|342:78,1,82.5,2|0,0:0|0:0,0:0:0:0:
156,181,98080,1,8,0:0:0:0:
221,261,98239,2,0,P|209:302|197:368,1,82.5,0|2,0:0|0:0,0:0:0:0:
306,177,98558,1,2,0:0:0:0:
162,85,98718,2,0,L|65:104,1,82.5,8|0,0:0|0:0,0:0:0:0:
249,256,99037,5,2,0:0:0:0:
109,178,99197,1,0,0:0:0:0:
267,14,99356,2,0,P|297:48|292:104,1,82.5,12|0,0:0|0:0,0:0:0:0:
294,103,99595,1,8,0:0:0:0:
289,115,99675,5,8,0:0:0:0:
410,185,99835,1,8,0:0:0:0:
258,287,99994,1,8,0:0:0:0:
388,88,100154,1,8,0:0:0:0:
308,202,100314,6,0,B|223:190|240:155|145:146,1,165,6|8,0:0|0:0,0:0:0:0:
62,315,100792,2,0,B|112:298|167:289|167:289|190:259|149:226,1,165,0|2,0:0|0:0,0:0:0:0:
95,82,101271,2,0,P|66:109|67:177,1,82.5,8|0,0:0|0:0,0:0:0:0:
196,318,101590,6,0,P|263:327|371:346,1,165,2|8,0:0|0:0,0:0:0:0:
498,153,102069,2,0,P|421:153|370:229,1,165,0|2,0:0|0:0,0:0:0:0:
477,354,102548,2,0,B|497:317|497:317|488:267,1,82.5,8|0,0:0|0:0,0:0:0:0:
401,117,102867,6,0,B|334:101|334:101|322:78|322:78|246:58,1,165,2|8,0:0|0:0,0:0:0:0:
176,137,103345,2,0,L|96:158,1,82.5,0|2,0:0|0:0,0:0:0:0:
261,277,103665,1,2,0:0:0:0:
144,372,103824,2,0,B|120:333|120:333|150:246,1,123.75,8|0,0:0|0:0,0:0:0:0:
153,237,104143,5,2,0:0:0:0:
262,132,104303,1,0,0:0:0:0:
353,276,104463,1,8,0:0:0:0:
467,127,104622,1,2,0:0:0:0:
498,154,104702,1,2,0:0:0:0:
512,192,104782,1,4,0:3:0:0:
505,232,104861,1,4,0:3:0:0:
475,261,104941,1,2,0:0:0:0:
352,193,105101,2,0,P|314:203|271:210,1,82.5,8|0,0:0|0:0,0:0:0:0:
32,116,105420,6,0,B|76:119|111:89|111:89|112:129|153:164,1,165,6|8,0:0|0:0,0:0:0:0:
225,87,105899,2,0,P|232:47|251:-16,1,82.5,0|2,0:0|0:0,0:0:0:0:
141,245,106218,1,2,0:0:0:0:
40,208,106377,2,0,P|47:245|45:310,1,82.5,8|0,0:0|0:0,0:0:0:0:
177,367,106697,6,0,P|217:316|328:319,1,165,2|8,0:0|0:0,0:0:0:0:
385,187,107175,2,0,P|378:121|386:79,1,82.5,0|2,0:0|0:0,0:0:0:0:
289,199,107494,1,2,0:0:0:0:
416,322,107654,2,0,L|499:345,1,82.5,8|0,0:0|0:0,0:0:0:0:
412,103,107973,5,2,0:0:0:0:
315,278,108133,1,0,0:0:0:0:
463,212,108292,1,8,0:0:0:0:
299,158,108452,2,0,P|233:166|174:252,1,165,0|2,0:0|0:0,0:0:0:0:
107,162,108931,6,0,P|65:153|25:135,1,82.5,12|0,0:0|0:0,0:0:0:0:
185,255,109250,2,0,P|157:285|156:358,1,82.5,6|0,0:0|0:0,0:0:0:0:
326,113,109569,2,0,P|317:73|308:7,1,82.5,8|8,0:0|0:0,0:0:0:0:
490,261,109888,1,8,0:0:0:0:
508,134,110048,1,8,0:0:0:0:
392,189,110207,1,8,0:0:0:0:
462,193,110526,6,0,B|385:198|408:252|312:259,1,165,12|2,0:0|0:0,0:0:0:0:
118,105,111005,2,0,B|195:110|172:164|268:171,1,165,12|2,0:0|0:0,0:0:0:0:
136,323,111484,1,2,0:0:0:0:
136,323,111643,1,2,0:0:0:0:
62,270,111803,6,0,P|71:225|77:174,1,82.5,12|0,0:0|0:0,0:0:0:0:
158,240,112122,1,2,0:0:0:0:
272,13,112282,2,0,P|276:85|291:175,1,123.75,12|0,0:0|0:0,0:0:0:0:
289,145,112601,2,0,B|336:150|327:134|385:143,1,82.5,2|8,0:0|0:0,0:0:0:0:
276,291,112920,1,2,0:0:0:0:
440,327,113080,6,0,P|401:275|286:294,1,165,12|2,0:0|0:0,0:0:0:0:
171,161,113558,2,0,P|189:110|192:73,1,82.5,12|0,0:0|0:0,0:0:0:0:
78,224,113877,2,0,P|37:229|0:245,1,82.5,2|8,0:0|0:0,0:0:0:0:
137,352,114197,6,0,P|189:355|279:283,1,165,4|2,0:0|0:0,0:0:0:0:
401,140,114675,1,8,0:0:0:0:
275,189,114835,1,0,0:0:0:0:
388,243,114994,6,0,B|423:235|423:235|446:239|446:239|488:230,2,86.6249973564149,8|4|4,0:0|0:3|0:3,0:0:0:0:
181,124,115633,6,0,B|234:132|263:99|263:99|267:143|305:170,1,165,12|2,0:0|0:0,0:0:0:0:
400,339,116111,2,0,B|417:281|436:240|436:240|419:210|383:212,1,165,12|2,0:0|0:0,0:0:0:0:
231,287,116590,1,2,0:0:0:0:
302,365,116750,1,2,0:0:0:0:
153,334,116909,6,0,P|104:346|59:353,1,82.5,12|0,0:0|0:0,0:0:0:0:
138,249,117228,1,2,0:0:0:0:
13,135,117388,2,0,P|61:146|189:162,1,165,12|2,0:0|0:0,0:0:0:0:
0,300,117867,2,0,P|13:259|14:212,1,82.5,8|0,0:0|0:0,0:0:0:0:
246,89,118186,6,0,P|299:122|280:236,1,165,12|2,0:0|0:0,0:0:0:0:
407,107,118665,2,0,P|459:86|502:64,1,82.5,12|0,0:0|0:0,0:0:0:0:
395,293,118984,2,0,P|370:354|361:391,1,82.5,0|8,0:0|0:0,0:0:0:0:
267,199,119303,6,0,P|224:163|106:166,1,165,4|0,0:0|0:0,0:0:0:0:
0,262,119782,1,8,0:0:0:0:
94,143,119941,1,2,0:0:0:0:
183,351,120101,5,8,0:0:0:0:
118,250,120260,1,2,0:0:0:0:
118,250,120340,1,2,0:0:0:0:
118,250,120420,1,8,0:0:0:0:
270,183,120580,5,0,0:0:0:0:
317,63,123133,6,0,P|361:70|418:75,1,82.5,6|0,0:0|0:0,0:0:0:0:
210,221,123452,1,12,0:0:0:0:
286,283,123611,2,0,P|279:327|274:384,1,82.5,0|0,0:0|0:0,0:0:0:0:
349,184,123931,5,8,0:0:0:0:
189,302,124090,1,2,0:0:0:0:
316,384,124250,1,2,0:0:0:0:
202,194,124409,2,0,P|140:202|73:295,1,165,12|2,0:0|0:0,0:0:0:0:
349,184,124888,1,8,0:0:0:0:
374,151,124968,1,8,0:0:0:0:
371,109,125048,1,8,0:0:0:0:
345,77,125127,1,8,0:0:0:0:
305,66,125207,1,2,3:0:0:0:
195,158,125367,1,0,3:0:0:0:
339,292,125526,1,2,3:0:0:0:
339,292,125606,1,0,3:0:0:0:
339,292,125686,6,0,B|415:271|415:271|431:241|431:241|509:220,1,181.500005538941,6|2,0:0|0:0,0:0:0:0:
389,101,126165,2,0,B|407:59|407:59|385:7,1,90.7500027694703,8|0,0:0|0:0,0:0:0:0:
257,241,126484,2,0,P|232:292|234:332,1,90.7500027694703,2|2,0:0|0:0,0:0:0:0:
149,127,126803,2,0,L|42:103,1,90.7500027694703,8|0,0:0|0:0,0:0:0:0:
32,329,127122,5,2,0:0:0:0:
32,329,127282,2,0,P|52:304|126:297,1,90.7500027694703,2|8,0:0|0:0,0:0:0:0:
246,138,127601,2,0,L|267:38,1,90.7500027694703,0|2,0:0|0:0,0:0:0:0:
361,289,127920,2,0,P|366:355|381:383,1,90.7500027694703,2|8,0:0|0:0,0:0:0:0:
269,129,128239,6,0,B|178:121|196:191|74:176,1,181.500005538941,6|2,0:0|0:0,0:0:0:0:
276,217,128718,2,0,P|340:202|375:201,1,90.7500027694703,8|0,0:0|0:0,0:0:0:0:
387,213,128957,1,0,0:0:0:0:
401,220,129037,1,2,0:0:0:0:
272,108,129197,1,2,0:0:0:0:
414,3,129356,2,0,B|432:44|432:44|414:92,1,90.7500027694703,8|0,0:0|0:0,0:0:0:0:
275,326,129675,5,2,0:0:0:0:
169,255,129835,2,0,P|183:211|192:167,1,90.7500027694703,2|8,0:0|0:0,0:0:0:0:
326,23,130154,1,2,0:0:0:0:
326,23,130234,1,2,0:0:0:0:
326,23,130314,1,2,0:0:0:0:
382,207,130473,1,2,0:0:0:0:
487,93,130633,1,8,0:0:0:0:
271,117,130792,6,0,B|178:119|192:176|77:169,1,181.500005538941,6|2,0:0|0:0,0:0:0:0:
168,297,131271,2,0,P|165:354|135:388,1,90.7500027694703,8|0,0:0|0:0,0:0:0:0:
294,239,131590,1,2,0:0:0:0:
294,239,131750,2,0,P|337:248|391:256,1,90.7500027694703,2|8,0:0|0:0,0:0:0:0:
181,116,132069,6,0,L|165:35,2,45.3750013847352,0|0|2,0:0|0:0|0:0,0:0:0:0:
109,198,132388,1,0,0:0:0:0:
301,44,132548,2,0,B|277:82|277:82|293:135,1,90.7500027694703,8|0,0:0|0:0,0:0:0:0:
374,333,132867,1,2,0:0:0:0:
261,254,133026,1,2,0:0:0:0:
395,165,133186,1,8,0:0:0:0:
273,291,133345,6,0,B|185:283|210:334|96:331,1,181.500005538941,6|2,0:0|0:0,0:0:0:0:
146,205,133824,5,8,0:0:0:0:
280,314,133984,1,2,0:0:0:0:
207,135,134143,5,8,0:0:0:0:
89,300,134303,1,2,0:0:0:0:
158,57,134463,5,8,0:0:0:0:
191,337,134622,5,12,1:2:0:0:
259,212,134941,5,12,1:2:0:0:
372,297,135260,5,12,1:2:0:0:
191,337,135580,6,0,P|157:332|118:332,1,53.6249975452424,8|0,1:2|0:0,0:0:0:0:
259,212,135739,2,0,P|232:210|205:206,1,53.6249975452424,8|0,1:2|0:0,0:0:0:0:
374,299,135899,6,0,P|426:308|506:208,1,181.500005538941,6|2,0:0|0:0,0:0:0:0:
264,286,136377,2,0,P|229:339|230:381,1,90.7500027694703,8|0,0:0|0:0,0:0:0:0:
360,158,136697,2,0,L|344:57,1,90.7500027694703,2|2,0:0|0:0,0:0:0:0:
175,154,137016,2,0,P|128:161|62:179,1,90.7500027694703,8|0,0:0|0:0,0:0:0:0:
316,375,137335,5,2,0:0:0:0:
257,211,137494,1,2,0:0:0:0:
121,316,137654,1,8,0:0:0:0:
260,301,137814,5,0,0:0:0:0:
260,301,137893,1,8,0:0:0:0:
260,301,137973,2,0,P|303:292|363:288,1,90.7500027694703,2|2,0:0|0:0,0:0:0:0:
509,206,138292,1,8,0:0:0:0:
334,120,138452,6,0,B|399:139|399:139|416:176|416:176|490:200,1,181.500005538941,6|2,0:0|0:0,0:0:0:0:
349,288,138931,2,0,B|324:327|324:327|337:377,1,90.7500027694703,8|0,0:0|0:0,0:0:0:0:
233,158,139250,2,0,L|221:57,1,90.7500027694703,2|2,0:0|0:0,0:0:0:0:
112,306,139569,2,0,P|50:324|8:347,1,90.7500027694703,8|0,0:0|0:0,0:0:0:0:
215,248,139888,5,2,0:0:0:0:
119,169,140048,1,2,0:0:0:0:
302,104,140207,1,8,0:0:0:0:
47,242,140367,2,0,P|40:203|24:143,1,90.7500027694703,2|8,0:0|0:0,0:0:0:0:
15,137,140606,1,8,0:0:0:0:
11,126,140686,1,8,0:0:0:0:
125,325,140845,1,8,0:0:0:0:
317,28,141005,6,0,B|266:63|266:63|288:189,1,181.500005538941,6|2,0:0|0:0,0:0:0:0:
414,314,141484,1,8,0:0:0:0:
298,360,141643,2,0,P|305:339|313:307,2,45.3750013847352,0|0|2,0:0|0:0|0:0,0:0:0:0:
497,217,141963,2,0,P|501:261|514:311,1,90.7500027694703,2|8,0:0|0:0,0:0:0:0:
378,167,142282,2,0,P|390:122|396:73,1,90.7500027694703,0|2,0:0|0:0,0:0:0:0:
203,259,142601,5,0,0:0:0:0:
127,186,142760,2,0,L|7:209,1,90.7500027694703,8|0,0:0|0:0,0:0:0:0:
21,215,143000,1,2,0:0:0:0:
6,221,143080,1,2,0:0:0:0:
129,76,143239,2,0,L|111:2,2,45.3750013847352,2|0|8,0:0|0:0|0:0,0:0:0:0:
110,272,143558,6,0,B|215:273|168:334|279:334,1,181.500005538941,6|0,0:0|0:0,0:0:0:0:
386,260,144037,2,0,P|431:273|488:281,1,90.7500027694703,8|2,0:0|0:0,0:0:0:0:
264,79,144356,2,0,P|227:122|236:159,1,90.7500027694703,8|2,0:0|0:0,0:0:0:0:
238,168,144595,1,0,0:0:0:0:
249,185,144675,1,8,0:0:0:0:
49,336,144835,6,0,B|139:297|139:297|137:335|174:360,1,160.874992635727,8|0,1:2|0:0,0:0:0:0:
239,295,145154,2,0,B|283:305|283:305|295:320|295:320|340:333,1,107.249995090485,8|0,1:2|0:0,0:0:0:0:
146,99,145473,6,0,B|87:114|87:114|67:136|67:136|-8:158,1,160.874992635727,8|0,1:2|0:0,0:0:0:0:
8,129,145792,6,0,B|123:118|89:193|199:194,1,206.25,12|0,1:2|0:0,0:0:0:0:
302,131,146271,6,0,P|292:71|285:0,1,115.49999647522,6|0,0:0|0:0,0:0:0:0:
398,168,146750,1,2,0:0:0:0:
330,231,146909,2,0,P|272:242|222:349,1,173.24999471283,12|0,0:0|0:0,0:0:0:0:
220,335,147468,1,0,0:0:0:0:
220,335,147548,1,6,0:0:0:0:
320,323,147707,6,0,P|347:330|390:350,1,57.7499982376099,8|0,0:0|0:0,0:0:0:0:
200,251,148026,1,2,0:0:0:0:
200,251,148186,2,0,P|145:265|73:295,1,115.49999647522,12|2,0:0|0:0,0:0:0:0:
90,286,148824,6,0,P|43:240|87:149,1,173.24999471283,6|2,0:0|0:0,0:0:0:0:
182,78,149463,2,0,P|174:45|167:6,1,57.7499982376099,12|0,0:0|0:0,0:0:0:0:
262,160,149782,2,0,P|243:182|226:205,1,57.7499982376099,0|0,0:0|0:0,0:0:0:0:
312,64,150101,5,2,0:0:0:0:
312,64,150260,2,0,P|368:79|428:87,1,115.49999647522,8|2,0:0|0:0,0:0:0:0:
503,160,150739,2,0,L|513:237,1,57.7499982376099,12|0,0:0|0:0,0:0:0:0:
270,382,151058,2,0,L|280:305,1,57.7499982376099,4|4,0:3|0:3,0:0:0:0:
284,330,151298,1,4,0:3:0:0:
284,330,151377,6,0,B|305:286|305:286|399:301,1,123.75,12|0,0:0|0:0,0:0:0:0:
403,302,151697,1,2,0:0:0:0:
286,182,151856,1,0,0:0:0:0:
396,74,152016,2,0,P|373:140|370:166,1,82.5,12|0,0:0|0:0,0:0:0:0:
116,312,152335,2,0,P|182:289|208:286,1,82.5,2|0,0:0|0:0,0:0:0:0:
301,218,152654,5,12,0:0:0:0:
260,102,152814,1,0,0:0:0:0:
110,225,152973,5,8,0:0:0:0:
200,39,153133,1,8,0:0:0:0:
200,39,153213,1,8,0:0:0:0:
200,39,153292,1,4,0:3:0:0:
3,157,153452,5,4,0:3:0:0:
85,97,153611,1,4,0:3:0:0:
0,53,153771,1,4,0:3:0:0:
114,190,153931,6,0,P|150:182|213:176,1,74.2499977340699,12|2,0:0|0:0,0:0:0:0:
88,306,154250,1,2,0:0:0:0:
191,351,154409,1,12,0:0:0:0:
191,351,154569,2,0,P|251:358|348:378,1,148.49999546814,0|2,0:0|0:0,0:0:0:0:
394,54,155207,5,12,0:0:0:0:
340,215,155367,1,2,0:0:0:0:
340,215,155526,1,2,0:0:0:0:
446,279,155686,2,0,L|466:194,1,74.2499977340699,12|2,0:0|0:0,0:0:0:0:
260,333,156005,1,2,0:0:0:0:
236,261,156165,2,0,L|217:176,1,74.2499977340699,2|2,0:0|0:0,0:0:0:0:
115,17,156484,6,0,P|140:37|191:44,1,74.2499977340699,12|2,0:0|0:0,0:0:0:0:
281,111,156803,1,2,0:0:0:0:
94,244,156963,1,12,0:0:0:0:
94,244,157122,2,0,P|131:203|240:195,1,148.49999546814,0|2,0:0|0:0,0:0:0:0:
488,354,157760,5,12,0:0:0:0:
400,223,157920,1,2,0:0:0:0:
512,143,158080,1,2,0:0:0:0:
388,346,158239,2,0,P|371:319|323:302,1,74.2499977340699,12|8,0:0|0:0,0:0:0:0:
250,98,158558,5,2,0:0:0:0:
250,98,158638,1,2,0:0:0:0:
250,98,158718,2,0,B|312:148|325:216|279:268|215:267|188:213|218:175|240:169,1,247.500009441376,12|12,0:0|0:0,0:0:0:0:
219,187,159356,6,0,L|346:165,1,111.374996601105,8|0,0:0|0:0,0:0:0:0:
328,167,159675,2,0,P|306:210|313:248,1,74.2499977340699,12|0,0:0|0:0,0:0:0:0:
412,119,159994,2,0,L|502:138,1,74.2499977340699,8|0,0:0|0:0,0:0:0:0:
340,14,160314,6,0,P|299:55|191:55,1,148.49999546814,12|8,0:0|0:0,0:0:0:0:
118,108,160792,2,0,L|40:124,1,74.2499977340699,0|12,0:0|0:0,0:0:0:0:
151,221,161111,1,0,0:0:0:0:
151,221,161271,2,0,P|124:256|125:295,1,74.2499977340699,8|0,0:0|0:0,0:0:0:0:
75,373,161590,6,0,P|115:329|226:317,1,148.49999546814,12|8,0:0|0:0,0:0:0:0:
314,259,162069,2,0,L|320:356,1,74.2499977340699,0|12,0:0|0:0,0:0:0:0:
314,259,162388,1,0,0:0:0:0:
422,137,162548,2,0,P|412:102|421:57,1,74.2499977340699,8|0,0:0|0:0,0:0:0:0:
284,160,162867,6,0,B|202:176|233:210|138:230,1,148.49999546814,12|8,0:0|0:0,0:0:0:0:
337,290,163345,2,0,P|389:293|453:373,1,148.49999546814,0|0,0:0|0:0,0:0:0:0:
249,297,163824,2,0,L|164:316,1,74.2499977340699,8|0,0:0|0:0,0:0:0:0:
162,127,164143,6,0,L|37:113,1,111.374996601105,6|0,0:0|0:0,0:0:0:0:
51,114,164463,1,8,0:0:0:0:
79,191,164622,1,8,0:0:0:0:
151,230,164782,1,8,0:0:0:0:
230,209,164941,1,8,0:0:0:0:
288,150,165101,1,8,0:0:0:0:
365,121,165260,1,8,0:0:0:0:
425,266,165420,5,8,0:0:0:0:
349,330,165580,1,8,0:0:0:0:
253,306,165739,1,8,0:0:0:0:
230,209,165899,1,8,0:0:0:0:
105,364,166058,5,8,0:0:0:0:
267,282,166218,1,8,0:0:0:0:
129,165,166377,1,8,0:0:0:0:
172,299,166537,5,2,0:0:0:0:
172,299,166617,1,2,0:0:0:0:
172,299,166697,2,0,P|183:253|193:199,1,82.5,12|0,0:0|0:0,0:0:0:0:
381,115,167016,1,2,0:0:0:0:
462,307,167175,5,12,0:0:0:0:
372,253,167335,1,0,0:0:0:0:
463,199,167494,1,2,0:0:0:0:
252,364,167654,5,12,0:0:0:0:
189,218,167814,1,2,0:0:0:0:
68,319,167973,1,2,0:0:0:0:
386,218,168133,5,8,0:0:0:0:
217,118,168292,1,12,0:0:0:0:
168,309,168452,1,0,0:0:0:0:
273,234,168611,6,0,P|289:197|292:172,1,53.6249975452424,8|8,0:0|0:0,0:0:0:0:
332,28,168771,5,8,0:0:0:0:
318,22,168851,1,8,0:0:0:0:
301,19,168931,2,0,P|267:34|246:60,1,53.6249975452424,2|2,0:0|0:0,0:0:0:0:
86,119,169090,6,0,P|113:143|146:151,1,53.6249975452424,2|2,0:0|0:0,0:0:0:0:
217,118,169250,6,0,B|131:130|159:197|34:207,1,181.500005538941,12|2,0:0|0:0,0:0:0:0:
159,378,169728,2,0,P|173:348|170:287,1,90.7500027694703,12|0,0:0|0:0,0:0:0:0:
343,162,170048,2,0,L|404:182,1,45.3750013847352
482,258,170207,1,12,0:0:0:0:
481,83,170367,5,2,0:0:0:0:
481,83,170526,2,0,B|458:121|458:121|474:176,1,90.7500027694703,6|2,0:0|0:0,0:0:0:0:
311,380,170845,2,0,P|326:322|331:277,1,90.7500027694703,8|2,0:0|0:0,0:0:0:0:
238,178,171165,1,2,0:0:0:0:
40,349,171324,5,8,0:0:0:0:
155,300,171484,1,2,0:0:0:0:
51,330,171643,1,2,0:0:0:0:
197,372,171803,5,12,0:0:0:0:
254,321,171963,1,2,0:0:0:0:
326,352,172122,1,2,0:0:0:0:
377,171,172282,5,12,0:0:0:0:
295,214,172441,1,2,0:0:0:0:
368,267,172601,1,2,0:0:0:0:
319,66,172760,5,12,0:0:0:0:
228,147,172920,1,2,0:0:0:0:
216,47,173080,5,2,0:0:0:0:
398,137,173239,1,8,0:0:0:0:
198,251,173399,1,8,0:0:0:0:
279,307,173558,6,0,P|279:338|282:356,2,45.3750013847352,0|0|8,0:0|0:0|0:0,0:0:0:0:
125,179,173877,1,8,0:0:0:0:
163,154,173957,1,8,0:0:0:0:
208,154,174037,1,8,0:0:0:0:
225,173,174117,1,8,0:0:0:0:
263,197,174197,1,8,0:0:0:0:
306,184,174276,1,8,0:0:0:0:
328,166,174356,6,0,L|350:27,1,136.125004154205,6|0,0:0|0:0,0:0:0:0:
341,19,174675,2,0,B|286:27|310:34|251:44,1,90.7500027694703,12|0,0:0|0:0,0:0:0:0:
427,134,174994,2,0,P|436:180|451:221,1,90.7500027694703,2|2,0:0|0:0,0:0:0:0:
278,371,175314,2,0,P|302:325|294:280,1,90.7500027694703,8|0,0:0|0:0,0:0:0:0:
293,274,175553,1,0,0:0:0:0:
285,262,175633,5,2,0:0:0:0:
185,350,175792,1,2,0:0:0:0:
76,203,175952,1,8,0:0:0:0:
13,332,176111,1,0,0:0:0:0:
13,332,176191,1,0,0:0:0:0:
13,332,176271,2,0,B|79:314|79:314|102:279|102:279|174:262,1,181.500005538941,2|8,0:0|0:0,0:0:0:0:
302,152,176750,1,2,0:0:0:0:
194,130,176909,6,0,L|296:150,1,90.7500027694703,6|0,0:0|0:0,0:0:0:0:
372,272,177228,1,8,0:0:0:0:
488,54,177388,2,0,B|422:42|422:42|389:162,1,181.500005538941,6|2,0:0|0:0,0:0:0:0:
473,361,177867,2,0,P|502:316|487:270,1,90.7500027694703,8|8,0:0|0:0,0:0:0:0:
481,253,178106,1,8,0:0:0:0:
465,239,178186,1,6,0:0:0:0:
359,368,178345,1,2,0:0:0:0:
302,152,178505,1,8,0:0:0:0:
209,300,178665,6,0,P|164:306|107:322,1,90.7500027694703,6|0,0:0|0:0,0:0:0:0:
8,214,178984,5,8,0:0:0:0:
6,210,179064,1,8,0:0:0:0:
4,205,179143,2,0,P|10:163|12:143,1,53.6249975452424,8|0,0:0|0:0,0:0:0:0:
25,74,179303,1,0,0:0:0:0:
65,19,186963,6,0,P|27:41|15:121,1,123.750004720688,2|0,3:0|0:0,0:0:0:0:
29,129,187441,6,0,L|113:116,1,61.875002360344,8|8,0:0|0:0,0:0:0:0:
164,260,187760,6,0,P|211:278|241:275,1,61.875002360344,8|8,0:0|0:0,0:0:0:0:
345,84,188080,6,0,P|394:68|432:69,1,61.875002360344,8|8,0:0|0:0,0:0:0:0:
490,318,188399,5,8,0:0:0:0:
443,222,188558,1,4,0:3:0:0:
453,206,188638,1,4,0:3:0:0:
471,208,188718,1,4,0:3:0:0:
384,376,188877,5,8,0:0:0:0:
258,231,189037,5,4,0:3:0:0:
243,219,189117,1,4,0:3:0:0:
224,222,189197,1,4,0:3:0:0:
214,356,189356,1,8,0:0:0:0:
316,300,189516,5,4,0:3:0:0:
124,238,189675,5,8,0:0:0:0:
43,306,189835,1,8,0:0:0:0:
30,319,189915,1,8,0:0:0:0:
17,332,189994,1,8,0:0:0:0:
102,158,190154,1,8,0:0:0:0:
95,141,190234,1,8,0:0:0:0:
90,124,190314,6,0,P|93:92|117:57,1,57.7499982376099,8|0,0:0|0:0,0:0:0:0:
282,227,190473,6,0,B|328:225|321:208|383:208,1,86.6249973564149,0|0,3:0|0:0,0:0:0:0:
487,254,190792,6,0,B|391:230|391:230|382:279|353:312,1,181.500005538941,6|2,0:0|0:0,0:0:0:0:
473,122,191271,2,0,P|459:56|460:15,1,90.7500027694703,8|0,0:0|0:0,0:0:0:0:
286,148,191590,2,0,L|179:130,1,90.7500027694703,2|2,0:0|0:0,0:0:0:0:
344,292,191909,2,0,P|311:325|318:399,1,90.7500027694703,8|0,0:0|0:0,0:0:0:0:
471,272,192228,5,2,0:0:0:0:
375,147,192388,1,2,0:0:0:0:
249,242,192548,1,8,0:0:0:0:
350,375,192707,1,0,0:0:0:0:
350,375,192787,1,8,0:0:0:0:
350,375,192867,1,2,0:0:0:0:
372,273,193026,2,0,P|365:232|362:174,1,90.7500027694703,2|8,0:0|0:0,0:0:0:0:
115,24,193345,6,0,P|57:49|39:162,1,181.500005538941,6|2,0:0|0:0,0:0:0:0:
164,228,193824,2,0,L|273:208,1,90.7500027694703,8|0,0:0|0:0,0:0:0:0:
75,307,194143,2,0,P|44:330|35:394,1,90.7500027694703,2|2,0:0|0:0,0:0:0:0:
197,135,194463,2,0,L|171:27,1,90.7500027694703,8|0,0:0|0:0,0:0:0:0:
64,183,194782,5,2,0:0:0:0:
244,247,194941,2,0,P|287:256|351:297,1,90.7500027694703,2|8,0:0|0:0,0:0:0:0:
423,88,195260,2,0,P|391:121|351:143,1,90.7500027694703,2|8,0:0|0:0,0:0:0:0:
468,324,195580,2,0,P|451:283|447:235,1,90.7500027694703,2|8,0:0|0:0,0:0:0:0:
208,166,195899,6,0,B|120:169|133:217|34:223,1,181.500005538941,6|0,0:0|0:0,0:0:0:0:
126,14,196377,2,0,B|101:55|101:55|118:104,1,90.7500027694703,8|0,0:0|0:0,0:0:0:0:
276,262,196697,1,2,0:0:0:0:
138,362,196856,2,0,L|157:259,1,90.7500027694703,2|8,0:0|0:0,0:0:0:0:
289,80,197175,5,0,0:0:0:0:
283,53,197255,1,0,0:0:0:0:
279,25,197335,1,2,0:0:0:0:
442,170,197494,1,0,0:0:0:0:
343,263,197654,2,0,P|300:275|240:301,1,90.7500027694703,8|0,0:0|0:0,0:0:0:0:
231,312,197893,1,8,0:0:0:0:
221,321,197973,1,2,0:0:0:0:
337,166,198133,1,2,0:0:0:0:
443,369,198292,1,8,0:0:0:0:
216,208,198452,6,0,P|143:226|77:320,1,181.500005538941,6|2,0:0|0:0,0:0:0:0:
75,333,198851,1,2,0:0:0:0:
87,349,198931,1,8,0:0:0:0:
222,180,199090,1,2,0:0:0:0:
144,40,199250,2,0,P|136:87|115:159,1,90.7500027694703,8|2,0:0|0:0,0:0:0:0:
296,348,199569,2,0,P|292:322|292:271,1,45.3750013847352,8|0,0:0|0:0,0:0:0:0:
335,207,199728,5,12,1:2:0:0:
427,253,200048,5,12,1:2:0:0:
319,108,200367,5,12,1:2:0:0:
427,253,200686,6,0,P|441:280|443:315,1,57.7499982376099,8|0,1:2|0:0,0:0:0:0:
319,108,200845,2,0,P|332:82|335:54,1,57.7499982376099,8|0,1:2|0:0,0:0:0:0:
218,214,201005,6,0,B|158:229|110:243|110:243|76:217|94:179,1,181.500005538941,6|2,0:0|0:0,0:0:0:0:
276,292,201484,2,0,P|256:351|251:392,1,90.7500027694703,8|0,0:0|0:0,0:0:0:0:
419,218,201803,2,0,P|454:242|515:236,1,90.7500027694703,2|2,0:0|0:0,0:0:0:0:
302,97,202122,2,0,B|317:56|317:56|304:7,1,90.7500027694703,8|0,0:0|0:0,0:0:0:0:
362,301,202441,5,2,0:0:0:0:
218,214,202601,1,2,0:0:0:0:
369,141,202760,1,8,0:0:0:0:
234,318,202920,5,0,0:0:0:0:
234,318,203000,1,8,0:0:0:0:
234,318,203080,2,0,P|183:332|142:347,1,90.7500027694703,2|2,0:0|0:0,0:0:0:0:
317,220,203399,1,8,0:0:0:0:
32,120,203558,6,0,B|108:140|108:140|128:169|128:169|200:190,1,181.500005538941,6|2,0:0|0:0,0:0:0:0:
283,110,204037,2,0,P|274:64|273:10,1,90.7500027694703,8|0,0:0|0:0,0:0:0:0:
107,193,204356,2,0,P|61:203|11:217,1,90.7500027694703,2|2,0:0|0:0,0:0:0:0:
188,297,204675,2,0,P|169:329|165:399,1,90.7500027694703,8|0,0:0|0:0,0:0:0:0:
330,277,204994,5,2,0:0:0:0:
452,196,205154,1,2,0:0:0:0:
298,78,205314,1,8,0:0:0:0:
413,0,205473,2,0,B|430:43|430:43|416:87,1,90.7500027694703,0|2,0:0|0:0,0:0:0:0:
255,203,205792,2,0,P|226:201|196:200,1,45.3750013847352,8|8,0:0|0:0,0:0:0:0:
76,129,205952,1,8,0:0:0:0:
266,54,206111,6,0,B|181:64|188:124|103:128,1,181.500005538941,6|0,0:0|0:0,0:0:0:0:
184,228,206590,2,0,P|170:269|165:325,1,90.7500027694703,8|0,0:0|0:0,0:0:0:0:
314,138,206909,1,2,0:0:0:0:
395,203,207069,2,0,L|507:216,1,90.7500027694703,2|8,0:0|0:0,0:0:0:0:
267,336,207388,6,0,L|257:254,2,45.3750013847352,0|0|2,0:0|0:0|0:0,0:0:0:0:
202,206,207707,1,0,0:0:0:0:
85,287,207867,2,0,P|43:300|-10:323,1,90.7500027694703,8|0,0:0|0:0,0:0:0:0:
162,112,208186,1,2,0:0:0:0:
70,22,208345,2,0,P|35:71|45:112,1,90.7500027694703,2|8,0:0|0:0,0:0:0:0:
209,224,208665,6,0,P|275:210|389:191,1,181.500005538941,6|0,0:0|0:0,0:0:0:0:
317,33,209143,2,0,P|277:89|286:131,1,90.7500027694703,8|2,0:0|0:0,0:0:0:0:
152,369,209463,2,0,P|144:324|112:294,1,90.7500027694703,8|2,0:0|0:0,0:0:0:0:
0,140,209782,2,0,L|71:154,1,45.3750013847352,8|0,0:0|0:0,0:0:0:0:
173,203,209941,5,12,1:2:0:0:
268,270,210260,5,8,1:2:0:0:
379,225,210580,5,8,1:2:0:0:
512,343,210899,6,0,B|488:339|462:317|462:317|418:339|418:339|389:318|389:318|361:361|301:352,1,206.25,12|0,1:2|0:0,0:0:0:0:
293,257,211377,6,0,P|238:265|199:376,1,173.24999471283,6|2,0:0|0:0,0:0:0:0:
97,307,212016,2,0,P|66:316|20:327,1,57.7499982376099,12|0,0:0|0:0,0:0:0:0:
141,208,212335,2,0,P|132:177|121:131,1,57.7499982376099,0|0,0:0|0:0,0:0:0:0:
43,219,212654,5,6,0:0:0:0:
151,142,212814,2,0,L|23:121,1,115.49999647522,8|0,0:0|0:0,0:0:0:0:
199,268,213292,2,0,P|241:229|307:232,1,115.49999647522,12|2,0:0|0:0,0:0:0:0:
296,227,213931,6,0,P|364:239|420:158,1,173.24999471283,6|2,0:0|0:0,0:0:0:0:
493,56,214569,2,0,P|432:48|376:32,1,115.49999647522,12|2,0:0|0:0,0:0:0:0:
293,100,215048,2,0,P|312:124|313:163,1,57.7499982376099,8|0,0:0|0:0,0:0:0:0:
195,365,215367,2,0,P|214:341|215:302,1,57.7499982376099,8|0,0:0|0:0,0:0:0:0:
150,226,215686,1,2,0:0:0:0:
150,226,215845,2,0,L|70:241,1,57.7499982376099,8|0,0:0|0:0,0:0:0:0:
10,298,216165,1,4,0:3:0:0:
173,207,216324,5,4,0:3:0:0:
173,207,216404,1,4,0:3:0:0:
173,207,216484,2,0,B|251:199|220:243|327:235,1,136.125004154205,12|0,0:0|0:0,0:0:0:0:
317,249,216803,2,0,B|290:289|290:289|303:337,1,90.7500027694703,8|0,0:0|0:0,0:0:0:0:
389,201,217122,5,8,0:0:0:0:
333,55,217282,1,0,0:0:0:0:
189,227,217441,5,8,0:0:0:0:
234,75,217601,1,0,0:0:0:0:
437,78,217760,6,0,B|368:92|368:92|348:156|281:157,1,181.500005538941,12|2,0:0|0:0,0:0:0:0:
174,353,218239,2,0,P|169:331|152:315,1,45.3750013847352,2|2,0:0|0:0,0:0:0:0:
67,239,218399,1,8,0:0:0:0:
31,258,218478,1,2,0:0:0:0:
7,291,218558,1,2,0:0:0:0:
0,331,218638,1,2,0:0:0:0:
20,366,218718,1,12,0:0:0:0:
143,143,219037,6,0,L|130:38,1,82.5,12|0,0:0|0:0,0:0:0:0:
36,148,219356,1,2,0:0:0:0:
178,243,219516,2,0,P|228:247|302:334,1,165,12|2,0:0|0:0,0:0:0:0:
387,262,219994,6,0,P|429:254|474:245,1,82.5,12|0,0:0|0:0,0:0:0:0:
303,93,220314,1,2,0:0:0:0:
372,26,220473,2,0,P|414:33|459:43,1,82.5,12|4,0:0|0:0,0:0:0:0:
312,179,220792,1,2,0:0:0:0:
312,179,220952,2,0,P|295:216|292:264,1,82.5,12|2,0:0|0:0,0:0:0:0:
168,115,221271,2,0,L|76:134,1,82.5,12|2,0:0|0:0,0:0:0:0:
67,138,221510,1,2,0:0:0:0:
48,136,221590,5,12,0:0:0:0:
152,218,221750,1,0,0:0:0:0:
10,286,221909,1,2,0:0:0:0:
94,345,222069,2,0,P|145:352|258:381,1,165,12|2,0:0|0:0,0:0:0:0:
370,247,222548,6,0,P|358:200|373:165,1,82.5,12|2,0:0|0:0,0:0:0:0:
238,250,222867,1,2,0:0:0:0:
371,350,223026,2,0,P|422:359|501:282,1,165,12|2,0:0|0:0,0:0:0:0:
402,151,223505,5,10,0:0:0:0:
370,141,223585,1,2,0:0:0:0:
337,149,223665,1,2,0:0:0:0:
312,170,223744,1,2,0:0:0:0:
285,195,223824,5,2,0:0:0:0:
247,178,223904,1,2,0:0:0:0:
206,184,223984,1,2,0:0:0:0:
176,212,224064,1,2,0:0:0:0:
161,250,224143,6,0,P|155:288|141:341,1,82.5,12|0,0:0|0:0,0:0:0:0:
44,232,224463,1,2,0:0:0:0:
251,142,224622,2,0,B|179:135|207:81|106:67,1,165,12|2,0:0|0:0,0:0:0:0:
269,235,225101,2,0,L|380:257,1,82.5,12|0,0:0|0:0,0:0:0:0:
258,66,225420,1,2,0:0:0:0:
360,42,225580,2,0,L|471:20,1,82.5,12|4,0:0|0:0,0:0:0:0:
274,264,225899,5,2,0:0:0:0:
444,178,226058,1,12,0:0:0:0:
327,113,226218,1,0,0:0:0:0:
360,356,226377,2,0,P|368:314|389:271,1,82.5,8|8,0:0|0:0,0:0:0:0:
395,263,226617,1,8,0:0:0:0:
406,256,226697,5,12,0:0:0:0:
322,197,226856,1,2,0:0:0:0:
279,293,227016,1,2,0:0:0:0:
149,58,227175,5,12,0:0:0:0:
217,180,227335,1,2,0:0:0:0:
323,79,227494,1,2,0:0:0:0:
80,249,227654,5,12,0:0:0:0:
192,160,227814,1,2,0:0:0:0:
59,92,227973,1,2,0:0:0:0:
140,345,228133,5,8,0:0:0:0:
145,338,228213,1,8,0:0:0:0:
149,331,228292,2,0,P|155:309|168:274,3,41.25,8|8|8|2,0:0|0:0|0:0|0:0,0:0:0:0:
235,346,228611,5,8,0:0:0:0:
268,321,228691,1,8,0:0:0:0:
309,317,228771,1,8,0:0:0:0:
346,334,228851,1,8,0:0:0:0:
382,360,228931,1,8,0:0:0:0:
426,366,229010,1,8,0:0:0:0:
468,351,229090,1,8,0:0:0:0:
482,329,229170,1,8,0:0:0:0:
493,313,229250,6,0,L|476:169,1,123.75,6|0,0:0|0:0,0:0:0:0:
459,209,229569,2,0,B|430:202|430:202|408:188|408:188|375:181,1,82.5,12|0,0:0|0:0,0:0:0:0:
145,338,229888,2,0,P|182:283|282:273,1,165,2|8,0:0|0:0,0:0:0:0:
365,354,230367,2,0,P|381:289|383:257,1,82.5,0|2,0:0|0:0,0:0:0:0:
184,128,230686,5,0,0:0:0:0:
123,213,230845,2,0,L|38:228,1,82.5,8|0,0:0|0:0,0:0:0:0:
175,38,231165,2,0,L|90:23,1,82.5,2|2,0:0|0:0,0:0:0:0:
73,33,231404,1,8,0:0:0:0:
56,41,231484,1,8,0:0:0:0:
112,183,231643,1,2,0:0:0:0:
272,85,231803,6,0,B|367:88|327:132|427:137,1,165,2|8,0:0|0:0,0:0:0:0:
306,214,232282,2,0,P|288:250|276:318,1,82.5,0|2,0:0|0:0,0:0:0:0:
306,214,232601,1,2,0:0:0:0:
414,367,232760,2,0,P|396:331|384:263,1,82.5,8|0,0:0|0:0,0:0:0:0:
192,220,233080,6,0,P|130:241|76:320,2,165,2|8|2,0:0|0:0|0:0,0:0:0:0:
278,110,233877,1,8,0:0:0:0:
272,85,233957,1,8,0:0:0:0:
270,60,234037,1,8,0:0:0:0:
392,243,234197,1,8,0:0:0:0:
384,266,234276,1,8,0:0:0:0:
385,290,234356,5,6,0:0:0:0:
512,172,234516,1,0,0:0:0:0:
446,103,234675,2,0,P|402:98|340:87,1,82.5,8|0,0:0|0:0,0:0:0:0:
264,303,234994,2,0,P|220:308|158:319,1,82.5,6|2,0:0|0:0,0:0:0:0:
61,164,235314,5,8,0:0:0:0:
61,164,235473,2,0,B|148:155|133:224|223:215,1,165,2|0,0:0|0:0,0:0:0:0:
66,353,235952,2,0,B|57:312|57:312|79:258,1,82.5,8|0,0:0|0:0,0:0:0:0:
228,126,236271,2,0,L|324:138,1,82.5,12|2,0:0|0:0,0:0:0:0:
329,136,236510,1,2,0:0:0:0:
347,133,236590,1,8,0:0:0:0:
233,229,236750,1,2,0:0:0:0:
148,96,236909,6,0,P|142:71|130:38,2,57.7499982376099,6|2|8,0:0|0:3|0:0,0:0:0:0:
194,311,237388,6,0,P|188:335|166:364,2,57.7499982376099,2|2|0,0:0|0:0|0:0,0:0:0:0:
368,219,237867,6,0,L|463:209,1,90.7500027694703,12|0,0:0|0:0,0:0:0:0:
474,219,238106,1,0,0:0:0:0:
487,230,238186,2,0,P|498:199|494:161,1,49.4999984893799,10|2,0:0|0:0,0:0:0:0:
424,72,238345,5,2,0:0:0:0:
386,48,238425,1,2,0:0:0:0:
341,48,238505,1,2,0:0:0:0:
302,71,238585,1,2,0:0:0:0:
280,110,238665,1,2,0:0:0:0:
262,150,238744,1,2,0:0:0:0:
241,189,238824,1,2,0:0:0:0:
205,216,238904,1,2,0:0:0:0:
161,224,238984,1,2,0:0:0:0:
119,200,239064,1,2,0:0:0:0:
100,159,239143,1,12,0:0:0:0:
76,84,239463,6,0,B|68:169|47:144|40:236,1,148.49999546814,6|0,0:0|0:0,0:0:0:0:
28,236,239782,5,8,0:0:0:0:
99,287,239941,1,0,1:0:0:0:
168,209,240101,5,8,0:0:0:0:
228,285,240260,1,8,0:0:0:0:
335,199,240420,5,8,0:0:0:0:
381,312,240580,1,8,0:0:0:0:
465,178,240739,5,8,0:0:0:0:
398,293,240899,1,8,0:0:0:0:
311,384,241058,5,8,0:0:0:0:
254,254,241218,1,8,0:0:0:0:
173,179,241377,5,8,0:0:0:0:
97,341,241537,1,8,0:0:0:0:
39,173,241697,5,8,0:0:0:0:
119,319,241856,1,8,0:0:0:0:
324,277,242016,6,0,B|256:239|189:270|236:358|116:340|119:264|62:301|110:203|141:181|187:205|188:238,1,346.499989425659,12|2,0:0|0:3,0:0:0:0:
