osu file format v14

[General]
AudioFilename: audio.mp3
AudioLeadIn: 0
PreviewTime: 51085
Countdown: 0
SampleSet: Soft
StackLeniency: 0.5
Mode: 0
LetterboxInBreaks: 0
WidescreenStoryboard: 0

[Editor]
Bookmarks: 16058,26271,36484,51643,79888,90101,110526,120580,123133,125686,153931,169250,179303,186963,190792,219037,229250,239463,242654
DistanceSpacing: 2
BeatDivisor: 4
GridSize: 4
TimelineZoom: 1.7

[Metadata]
Title:Break Beat Bark!
TitleUnicode:Break Beat Bark!
Artist:Yuna (CV: Kanda Sayaka)
ArtistUnicode:ユナ (CV: 神田沙也加)
Creator:Meg
Version:Heartbeat
Source:劇場版 ソードアート・オンライン -オーディナル・スケール-
Tags:gekijouban Sword Art Online Ordinal Scale SAO Movie iMage-- kuei Kalibe Net0
BeatmapID:1837093
BeatmapSetID:878387

[Difficulty]
HPDrainRate:6
CircleSize:4
OverallDifficulty:9
ApproachRate:9.5
SliderMultiplier:1.8
SliderTickRate:1

[Events]
//Background and Video events
0,0,"BG.jpg",0,0
//Break Periods
2,120780,122608
2,179503,186438
//Storyboard Layer 0 (Background)
//Storyboard Layer 1 (Fail)
//Storyboard Layer 2 (Pass)
//Storyboard Layer 3 (Foreground)
//Storyboard Sound Samples

[TimingPoints]
-537,319.148936170213,4,2,1,40,1,0
420,-133.333333333333,4,2,1,40,0,0
5367,-125,4,2,1,45,0,0
5526,-111.111111111111,4,2,1,50,0,0
5686,-100,4,2,1,55,0,0
5845,-100,4,2,1,60,0,0
16058,-133.333333333333,4,2,1,60,0,0
20845,-100,4,2,1,60,0,0
21165,-111.111111111111,4,2,1,60,0,0
26271,-100,4,2,1,60,0,0
36484,-133.333333333333,4,2,1,60,0,0
46537,-100,4,2,1,60,0,0
49090,-76.9230769230769,4,2,1,60,0,0
51324,-200,4,2,1,60,0,0
51643,-90.9090909090909,4,2,1,70,0,1
60580,-76.9230769230769,4,2,1,70,0,1
61856,-90.9090909090909,4,2,1,70,0,1
70792,-76.9230769230769,4,2,1,70,0,1
71750,-100,4,2,1,70,0,1
72228,-100,4,2,1,70,0,0
77335,-90.9090909090909,4,2,1,70,0,1
79888,-100,4,2,1,60,0,0
125686,-90.9090909090909,4,2,1,70,0,1
134622,-76.9230769230769,4,2,1,70,0,1
135899,-90.9090909090909,4,2,1,70,0,1
144835,-76.9230769230769,4,2,1,70,0,1
145792,-100,4,2,1,70,0,1
146271,-100,4,2,1,70,0,0
151377,-90.9090909090909,4,2,1,70,0,1
153931,-100,4,2,1,60,0,0
164463,-100,4,2,1,40,0,0
164782,-100,4,2,1,50,0,0
165101,-100,4,2,1,60,0,0
165420,-100,4,2,1,70,0,0
166058,-100,4,2,1,80,0,0
167175,-83.3333333333333,4,2,1,80,0,0
167654,-71.4285714285714,4,2,1,80,0,0
168292,-62.5,4,2,1,70,0,0
169250,-83.3333333333333,4,2,1,70,0,0
179303,-83.3333333333333,4,2,1,50,0,0
186963,-133.333333333333,4,2,1,60,0,0
187282,-133.333333333333,4,2,1,20,0,0
187441,-133.333333333333,4,2,1,30,0,0
187760,-133.333333333333,4,2,1,50,0,0
188080,-133.333333333333,4,2,1,70,0,0
188399,-133.333333333333,4,2,1,60,0,0
190314,-76.9230769230769,4,2,1,60,0,0
190473,-200,4,2,1,60,0,0
190792,-83.3333333333333,4,2,1,80,0,1
199728,-71.4285714285714,4,2,1,80,0,1
201005,-83.3333333333333,4,2,1,80,0,1
209941,-71.4285714285714,4,2,1,80,0,1
210899,-90.9090909090909,4,2,1,80,0,1
211377,-90.9090909090909,4,2,1,80,0,0
216484,-83.3333333333333,4,2,1,80,0,1
219037,-100,4,2,1,70,0,0
236909,-83.3333333333333,4,2,1,70,0,0
238186,-66.6666666666667,4,2,1,70,0,0
239463,-83.3333333333333,4,2,1,70,0,0
239542,-83.3333333333333,4,2,1,40,0,0
240101,-83.3333333333333,4,2,1,50,0,0
240739,-83.3333333333333,4,2,1,60,0,0
241377,-83.3333333333333,4,2,1,70,0,0
242016,-83.3333333333333,4,2,1,80,0,0
242494,-83.3333333333333,4,2,1,60,0,0
242574,-83.3333333333333,4,2,1,45,0,0
242654,-83.3333333333333,4,2,1,30,0,0

[Colours]
Combo1 : 200,255,255
Combo2 : 255,89,172
Combo3 : 213,213,255
Combo4 : 255,189,222

[HitObjects]
161,108,420,6,0,L|228:100,1,67.5000025749208
385,50,739,6,0,P|332:88|333:153,1,135.000005149842,4|0,0:0|0:0,0:0:0:0:
256,268,1218,2,0,P|320:288|387:292,1,135.000005149842,4|0,0:0|0:0,0:0:0:0:
482,161,1697,6,0,P|449:168|420:186,1,67.5000025749208,4|0,0:0|0:0,0:0:0:0:
485,254,2016,1,0,0:0:0:0:
333,152,2175,2,0,P|270:176|205:161,1,135.000005149842,4|0,0:0|0:0,0:0:0:0:
127,18,2654,6,0,L|111:83,1,67.5000025749208,8|8,0:3|0:3,0:0:0:0:
21,197,2973,2,0,L|5:131,1,67.5000025749208,8|8,0:3|0:3,0:0:0:0:
102,340,3292,6,0,L|133:208,1,135.000005149842,4|0,0:0|0:0,0:0:0:0:
304,49,3771,2,0,P|352:91|332:152,1,135.000005149842,4|0,0:0|0:0,0:0:0:0:
121,127,4250,6,0,B|168:132|168:132|199:159|199:159|245:167,1,135.000005149842,4|0,0:0|0:0,0:0:0:0:
271,316,4728,2,0,L|338:302,1,67.5000025749208,4|0,0:0|0:0,0:0:0:0:
449,155,5048,1,0,0:0:0:0:
449,155,5127,1,0,0:0:0:0:
449,155,5207,6,0,L|454:138,1,16.8750006437302,8|0,0:0|0:0,0:0:0:0:
356,109,5367,6,0,L|351:91,1,18,8|0,0:0|0:0,0:0:0:0:
252,115,5526,6,0,L|238:100,1,20.2499993820191,8|0,0:0|0:0,0:0:0:0:
165,172,5686,6,0,L|143:164,1,22.5,8|0,0:0|0:0,0:0:0:0:
118,265,5845,6,0,L|101:353,1,90,12|0,0:0|0:0,0:0:0:0:
32,175,6165,1,2,0:0:0:0:
222,259,6324,6,0,P|280:254|317:240,2,90,12|0|2,0:0|0:0|0:0,0:0:0:0:
440,173,6803,5,12,0:0:0:0:
286,112,6963,1,0,0:0:0:0:
346,331,7122,1,2,0:0:0:0:
440,173,7282,5,12,0:0:0:0:
346,331,7441,2,0,L|436:323,1,90,2|0,0:0|0:0,0:0:0:0:
286,112,7760,6,0,L|196:120,1,90,12|2,0:0|0:0,0:0:0:0:
23,274,8080,2,0,L|112:265,1,90,12|2,0:0|0:0,0:0:0:0:
134,262,8319,1,2,0:0:0:0:
156,260,8399,5,12,0:0:0:0:
196,120,8558,1,2,0:0:0:0:
279,286,8718,1,2,0:0:0:0:
186,100,8877,6,0,P|183:55|194:11,1,90,12|0,0:0|0:0,0:0:0:0:
320,105,9197,1,2,0:0:0:0:
103,151,9356,6,0,L|14:134,1,90,12|0,0:0|0:0,0:0:0:0:
193,13,9675,1,2,0:0:0:0:
268,215,9835,6,0,L|179:231,1,90,12|2,0:0|0:0,0:0:0:0:
14,134,10154,1,2,0:0:0:0:
52,297,10314,6,0,L|59:252,1,45,10|2,0:0|0:0,0:0:0:0:
124,111,10473,1,2,0:0:0:0:
154,100,10553,1,2,0:0:0:0:
186,100,10633,2,0,L|238:119,1,45,2|2,0:0|0:0,0:0:0:0:
306,231,10792,2,0,L|358:212,1,45,2|2,0:0|0:0,0:0:0:0:
474,168,10952,5,12,0:0:0:0:
218,214,11111,1,2,0:0:0:0:
369,319,11271,1,2,0:0:0:0:
323,62,11431,5,12,0:0:0:0:
369,319,11590,1,2,0:0:0:0:
474,168,11750,1,2,0:0:0:0:
218,214,11909,6,0,L|202:125,1,90,12|2,0:0|0:0,0:0:0:0:
323,62,12228,1,2,0:0:0:0:
49,46,12388,6,0,L|64:134,1,90,12|8,0:0|0:0,0:0:0:0:
101,355,12707,1,8,0:0:0:0:
202,125,12867,5,12,0:0:0:0:
23,226,13026,1,2,0:0:0:0:
306,193,13186,2,0,P|322:151|326:106,1,90,12|2,0:0|0:0,0:0:0:0:
323,62,13425,1,2,0:0:0:0:
323,62,13505,5,12,0:0:0:0:
335,315,13665,1,2,0:0:0:0:
109,198,13824,1,2,0:0:0:0:
344,75,13984,5,12,0:0:0:0:
312,326,14143,1,2,0:0:0:0:
110,173,14303,1,2,0:0:0:0:
363,92,14463,5,12,0:0:0:0:
288,334,14622,1,2,0:0:0:0:
116,148,14782,1,2,0:0:0:0:
379,112,14941,5,12,0:0:0:0:
262,338,15101,1,2,0:0:0:0:
126,125,15260,1,2,0:0:0:0:
390,135,15420,5,12,0:0:0:0:
246,27,15580,1,2,0:0:0:0:
223,66,15659,1,8,0:0:0:0:
219,110,15739,1,8,0:0:0:0:
236,152,15819,1,8,0:0:0:0:
258,191,15899,1,8,0:0:0:0:
262,235,15978,1,8,0:0:0:0:
245,277,16058,6,0,L|110:264,1,135.000005149842,4|0,0:0|0:0,0:0:0:0:
15,140,16537,2,0,L|150:153,1,135.000005149842
305,36,17016,2,0,L|286:100,1,67.5000025749208,0|2,0:0|0:0,0:0:0:0:
416,295,17335,6,0,P|454:243|428:184,1,135.000005149842,2|0,0:0|0:0,0:0:0:0:
286,100,17814,2,0,P|247:151|273:210,1,135.000005149842,2|0,0:0|0:0,0:0:0:0:
278,344,18292,2,0,P|245:334|212:331,1,67.5000025749208,8|0,0:0|0:0,0:0:0:0:
24,347,18611,6,0,P|85:319|124:265,1,135.000005149842,2|0,0:0|0:0,0:0:0:0:
273,210,19090,2,0,P|245:149|191:110,1,135.000005149842
37,118,19569,1,0,0:0:0:0:
199,25,19728,1,2,0:0:0:0:
145,195,19888,6,0,L|138:127,1,67.5000025749208,2|0,0:0|0:0,0:0:0:0:
299,46,20207,2,0,L|305:113,1,67.5000025749208,0|2,0:0|0:0,0:0:0:0:
359,284,20526,1,2,0:0:0:0:
230,180,20686,1,2,0:0:0:0:
426,59,20845,2,0,P|458:116|440:179,1,135,4|0,0:0|0:0,0:0:0:0:
423,199,21165,6,0,L|342:186,1,80.9999975280763,6|0,0:0|0:0,0:0:0:0:
135,86,21484,1,8,0:0:0:0:
169,220,21643,2,0,P|233:179|223:103,1,161.999995056153
343,186,22122,1,8,0:0:0:0:
223,103,22282,1,2,0:0:0:0:
426,59,22441,6,0,L|412:138,1,80.9999975280763,2|0,0:0|0:0,0:0:0:0:
495,272,22760,2,0,L|415:258,1,80.9999975280763,8|0,0:0|0:0,0:0:0:0:
228,231,23080,1,2,0:0:0:0:
412,138,23239,1,2,0:0:0:0:
294,111,23399,2,0,L|215:93,1,80.9999975280763,8|0,0:0|0:0,0:0:0:0:
41,37,23718,6,0,B|56:94|56:94|43:138|43:138|58:192,1,161.999995056153,2|8,0:0|0:0,0:0:0:0:
248,309,24197,2,0,L|227:230,2,80.9999975280763,0|2|2,0:0|0:0|0:0,0:0:0:0:
311,166,24675,1,8,0:0:0:0:
143,295,24835,1,2,0:0:0:0:
345,354,24994,6,0,P|403:365|454:335,1,121.499996292114,2|0,0:0|0:0,0:0:0:0:
466,310,25314,2,0,L|456:229,1,80.9999975280763,8|2,0:0|0:0,0:0:0:0:
437,54,25633,1,8,0:0:0:0:
264,182,25792,1,2,0:0:0:0:
437,54,25952,1,8,0:0:0:0:
437,54,26271,6,0,P|465:138|433:221,1,180,6|8,0:0|0:0,0:0:0:0:
414,337,26750,1,0,0:0:0:0:
410,345,26830,1,10,0:0:0:0:
406,353,26909,2,0,L|316:340,1,90,2|2,0:0|0:0,0:0:0:0:
140,274,27228,1,8,0:0:0:0:
301,158,27388,1,0,0:0:0:0:
173,35,27548,6,0,P|159:77|156:122,1,90,2|0,0:0|0:0,0:0:0:0:
284,245,27867,2,0,P|297:202|301:158,1,90,8|0,0:0|0:0,0:0:0:0:
301,158,28106,1,8,0:0:0:0:
301,158,28186,1,2,0:0:0:0:
408,237,28345,1,2,0:0:0:0:
480,127,28505,2,0,P|458:87|429:53,1,90,8|0,0:0|0:0,0:0:0:0:
396,43,28744,1,2,0:0:0:0:
396,43,28824,6,0,L|217:66,1,180,2|8,0:0|0:0,0:0:0:0:
41,184,29303,2,0,L|84:195,1,45,0|8,0:0|0:0,0:0:0:0:
205,244,29463,2,0,L|210:154,1,90,2|2,0:0|0:0,0:0:0:0:
95,15,29782,2,0,L|89:104,1,90,8|0,0:0|0:0,0:0:0:0:
348,74,30101,5,2,0:0:0:0:
210,154,30260,1,2,0:0:0:0:
356,235,30420,2,0,L|444:220,1,90,8|0,0:0|0:0,0:0:0:0:
232,365,30739,2,0,P|224:320|219:275,1,90,2|2,0:0|0:0,0:0:0:0:
86,84,31058,2,0,P|93:128|98:173,1,90,8|0,0:0|0:0,0:0:0:0:
92,259,31298,1,2,0:0:0:0:
73,247,31377,6,0,P|154:218|218:275,1,180,6|8,0:0|0:0,0:0:0:0:
368,357,31856,1,0,0:0:0:0:
368,357,31936,1,8,0:0:0:0:
368,357,32016,2,0,L|373:267,1,90,2|2,0:0|0:0,0:0:0:0:
397,98,32335,1,8,0:0:0:0:
491,235,32494,1,0,0:0:0:0:
295,160,32654,6,0,B|258:142|258:142|160:176|160:176|126:165,1,180,2|8,0:0|0:0,0:0:0:0:
117,359,33133,1,0,0:0:0:0:
117,359,33213,1,8,0:0:0:0:
117,358,33292,2,0,P|147:326|160:283,1,90,2|2,0:0|0:0,0:0:0:0:
22,104,33611,2,0,L|11:193,1,90,8|0,0:0|0:0,0:0:0:0:
294,160,33931,6,0,P|250:87|166:97,1,180,2|8,0:0|0:0,0:0:0:0:
21,271,34409,2,0,P|24:294|33:314,1,45,0|8,0:0|0:0,0:0:0:0:
117,358,34569,2,0,P|158:340|200:325,1,90,2|2,0:0|0:0,0:0:0:0:
416,251,34888,2,0,P|373:236|332:218,1,90,8|0,0:0|0:0,0:0:0:0:
246,21,35207,6,0,L|237:110,1,90,2|2,0:0|0:0,0:0:0:0:
232,317,35526,1,8,0:0:0:0:
126,165,35686,1,8,0:0:0:0:
366,130,35845,1,12,0:0:0:0:
115,258,36005,1,8,0:0:0:0:
74,242,36085,1,8,0:0:0:0:
44,209,36165,1,8,0:0:0:0:
33,165,36244,1,8,0:0:0:0:
44,122,36324,1,2,0:0:0:0:
153,41,36484,6,0,L|286:60,2,135.000005149842,6|0|0,0:0|0:0|0:0,0:0:0:0:
366,129,37441,2,0,P|384:101|392:69,1,67.5000025749208,0|2,0:0|0:0,0:0:0:0:
266,163,37760,6,0,P|269:230|291:293,1,135.000005149842,2|0,0:0|0:0,0:0:0:0:
471,330,38239,2,0,P|437:329|404:335,1,67.5000025749208
379,206,38558,1,2,0:0:0:0:
291,293,38718,2,0,P|257:293|224:287,1,67.5000025749208,8|0,0:0|0:0,0:0:0:0:
52,260,39037,6,0,P|85:203|149:190,1,135.000005149842,2|0,0:0|0:0,0:0:0:0:
272,195,39516,2,0,L|255:61,1,135.000005149842
404,17,39994,1,0,0:0:0:0:
463,106,40154,6,0,P|399:124|336:101,1,135.000005149842,2|8,0:0|0:0,0:0:0:0:
271,194,40633,1,0,0:0:0:0:
408,223,40792,2,0,P|438:282|409:340,1,135.000005149842,4|4,0:3|0:3,0:0:0:0:
257,364,41271,1,4,0:3:0:0:
257,364,41590,6,0,L|123:344,2,135.000005149842,6|0|0,0:0|0:0|0:0,0:0:0:0:
30,375,42548,2,0,L|23:307,1,67.5000025749208,0|2,0:0|0:0,0:0:0:0:
33,163,42867,6,0,P|99:164|137:216,1,135.000005149842,2|0,0:0|0:0,0:0:0:0:
302,264,43345,2,0,P|236:265|198:317,1,135.000005149842,2|2,0:0|0:0,0:0:0:0:
237,174,43824,2,0,L|229:106,1,67.5000025749208,8|0,0:0|0:0,0:0:0:0:
363,15,44143,6,0,L|348:149,1,135.000005149842,6|0,0:0|0:0,0:0:0:0:
365,300,44622,1,2,0:0:0:0:
482,233,44782,1,8,0:0:0:0:
365,300,44941,2,0,P|300:282|234:295,1,135.000005149842
129,380,45420,6,0,L|132:312,1,67.5000025749208,8|0,0:0|0:0,0:0:0:0:
36,188,45739,2,0,L|32:255,1,67.5000025749208,2|0,0:0|0:0,0:0:0:0:
177,192,46058,2,0,P|197:147|181:100,1,101.250003862381,8|0,0:0|0:0,0:0:0:0:
150,72,46377,2,0,L|116:75,1,33.7500012874604,4|4,0:3|0:3,0:0:0:0:
283,27,46537,6,0,L|460:56,1,180,6|0,0:0|0:0,0:0:0:0:
421,252,47016,2,0,P|404:211|396:167,1,90,8|0,0:0|0:0,0:0:0:0:
460,56,47335,1,8,0:0:0:0:
287,134,47494,1,0,0:0:0:0:
287,134,47574,1,0,0:0:0:0:
287,134,47654,2,0,L|198:119,1,90,8|0,0:0|0:0,0:0:0:0:
41,260,47973,5,8,0:0:0:0:
30,121,48133,1,2,0:0:0:0:
55,86,48213,1,2,0:0:0:0:
98,74,48292,1,8,0:0:0:0:
138,91,48372,1,0,0:0:0:0:
158,130,48452,1,2,0:0:0:0:
149,173,48532,1,2,0:0:0:0:
126,211,48611,1,8,0:0:0:0:
125,255,48691,1,0,0:0:0:0:
146,294,48771,1,2,0:0:0:0:
183,318,48851,1,2,0:0:0:0:
228,321,48931,2,0,L|271:307,1,45,8|0,0:0|0:0,0:0:0:0:
416,154,49090,6,0,P|357:96|286:137,1,175.499991966248,6|0,0:0|0:0,0:0:0:0:
275,162,49409,2,0,P|276:192|281:220,1,58.4999973220826,12|0,0:0|0:0,0:0:0:0:
369,336,49569,1,2,0:0:0:0:
146,294,49728,1,2,0:0:0:0:
416,154,49888,1,12,0:0:0:0:
146,294,50048,2,0,P|92:274|39:249,1,116.999994644165,2|0,0:0|0:0,0:0:0:0:
216,20,50367,6,0,P|195:104|199:192,1,175.499991966248,4|0,0:0|0:0,0:0:0:0:
212,230,50686,1,2,0:0:0:0:
95,115,50845,1,8,0:0:0:0:
350,54,51005,1,8,0:0:0:0:
362,58,51085,1,8,0:0:0:0:
374,63,51165,2,0,L|360:119,1,58.4999973220826,2|0,0:0|0:0,0:0:0:0:
302,224,51324,6,0,P|303:258|308:292,1,67.5
442,282,51643,6,0,P|392:203|301:224,1,198.000006042481,6|2,0:0|0:0,0:0:0:0:
99,319,52122,2,0,L|197:332,1,99.0000030212403,8|0,0:0|0:0,0:0:0:0:
363,276,52441,1,2,0:0:0:0:
328,101,52601,1,2,0:0:0:0:
193,233,52760,2,0,P|191:282|196:331,1,99.0000030212403,8|0,0:0|0:0,0:0:0:0:
223,139,53080,5,2,0:0:0:0:
363,276,53239,2,0,P|364:226|359:177,1,99.0000030212403,2|8,0:0|0:0,0:0:0:0:
289,40,53558,1,0,0:0:0:0:
289,40,53638,1,2,0:0:0:0:
289,40,53718,1,8,0:0:0:0:
193,233,53877,1,2,0:0:0:0:
359,177,54037,1,8,0:0:0:0:
158,242,54197,6,0,P|90:174|108:81,1,198.000006042481,6|2,0:0|0:0,0:0:0:0:
347,82,54675,2,0,P|298:93|249:97,1,99.0000030212403,8|0,0:0|0:0,0:0:0:0:
108,81,54994,1,2,0:0:0:0:
292,212,55154,1,2,0:0:0:0:
145,340,55314,2,0,L|157:241,1,99.0000030212403,8|0,0:0|0:0,0:0:0:0:
37,192,55633,5,2,0:0:0:0:
249,97,55792,2,0,P|266:142|262:191,1,99.0000030212403,2|8,0:0|0:0,0:0:0:0:
96,103,56111,1,0,0:0:0:0:
108,81,56191,1,8,0:0:0:0:
121,60,56271,1,2,0:0:0:0:
157,241,56431,1,2,0:0:0:0:
296,170,56590,1,8,0:0:0:0:
73,231,56750,6,0,P|114:314|207:308,1,198.000006042481,6|0,0:0|0:0,0:0:0:0:
380,304,57228,1,8,0:0:0:0:
296,170,57388,1,0,0:0:0:0:
444,175,57548,1,2,0:0:0:0:
285,180,57707,2,0,L|187:161,1,99.0000030212403,2|8,0:0|0:0,0:0:0:0:
359,36,58026,6,0,L|456:54,1,99.0000030212403,2|2,0:0|0:0,0:0:0:0:
380,304,58345,1,0,0:0:0:0:
285,180,58505,1,8,0:0:0:0:
211,320,58665,1,0,0:0:0:0:
296,170,58824,1,2,0:0:0:0:
111,180,58984,2,0,P|90:136|76:89,1,99.0000030212403,2|8,0:0|0:0,0:0:0:0:
26,335,59303,6,0,P|62:301|110:292,1,99.0000030212403,6|0,0:0|0:0,0:0:0:0:
296,350,59622,1,2,0:0:0:0:
296,350,59702,1,2,0:0:0:0:
296,350,59782,6,0,L|285:301,1,49.5000015106202,8|0,0:0|0:0,0:0:0:0:
321,143,59941,1,2,0:0:0:0:
203,321,60101,6,0,L|192:272,1,49.5000015106202,8|0,0:0|0:0,0:0:0:0:
414,172,60260,1,2,0:0:0:0:
110,292,60420,6,0,L|99:243,1,49.5000015106202,8|0,0:0|0:0,0:0:0:0:
74,128,60580,6,0,P|148:89|220:132,1,175.499991966248,8|0,1:2|0:0,0:0:0:0:
289,261,60899,2,0,P|218:215|219:131,1,175.499991966248,8|0,1:2|0:0,0:0:0:0:
297,7,61218,2,0,P|293:90|219:131,1,175.499991966248,8|0,1:2|0:0,0:0:0:0:
156,34,61537,6,0,L|214:43,1,58.4999973220826,8|0,1:2|0:0,0:0:0:0:
310,131,61697,2,0,L|367:122,1,58.4999973220826,8|0,1:2|0:0,0:0:0:0:
482,48,61856,6,0,P|503:142|459:229,1,198.000006042481,6|2,0:0|0:0,0:0:0:0:
462,376,62335,2,0,P|382:319|285:322,1,198.000006042481,8|2,0:0|0:0,0:0:0:0:
315,190,62814,1,2,0:0:0:0:
157,357,62973,2,0,P|139:310|133:261,1,99.0000030212403,8|0,0:0|0:0,0:0:0:0:
246,141,63292,5,2,0:0:0:0:
81,43,63452,2,0,P|50:81|29:126,1,99.0000030212403,2|8,0:0|0:0,0:0:0:0:
134,262,63771,1,0,0:0:0:0:
134,262,63851,1,8,0:0:0:0:
134,262,63931,1,2,0:0:0:0:
246,141,64090,1,2,0:0:0:0:
36,226,64250,1,8,0:0:0:0:
215,366,64409,6,0,B|249:291|223:226|223:226|252:233|275:223,1,198.000006042481,6|2,0:0|0:0,0:0:0:0:
486,282,64888,2,0,P|396:267|394:175,1,198.000006042481,8|2,0:0|0:0,0:0:0:0:
462,36,65367,1,2,0:0:0:0:
462,36,65447,1,2,0:0:0:0:
462,36,65526,2,0,L|471:134,1,99.0000030212403,8|0,0:0|0:0,0:0:0:0:
486,282,65845,5,2,0:0:0:0:
274,223,66005,2,0,P|227:236|181:255,1,99.0000030212403,2|8,0:0|0:0,0:0:0:0:
142,98,66324,1,0,0:0:0:0:
144,73,66404,1,2,0:0:0:0:
147,48,66484,1,2,0:0:0:0:
30,199,66643,1,8,0:0:0:0:
27,174,66723,1,8,0:0:0:0:
24,149,66803,1,8,0:0:0:0:
180,254,66963,6,0,P|149:339|62:315,1,198.000006042481,6|0,0:0|0:0,0:0:0:0:
147,48,67441,1,8,0:0:0:0:
212,162,67601,1,0,0:0:0:0:
286,26,67760,1,2,0:0:0:0:
351,184,67920,2,0,P|351:233|344:282,1,99.0000030212403,2|8,0:0|0:0,0:0:0:0:
212,162,68239,6,0,P|211:112|218:63,1,99.0000030212403,2|2,0:0|0:0,0:0:0:0:
118,213,68558,1,0,0:0:0:0:
306,111,68718,1,8,0:0:0:0:
120,106,68877,1,0,0:0:0:0:
303,217,69037,1,2,0:0:0:0:
120,106,69197,2,0,L|22:119,1,99.0000030212403,2|8,0:0|0:0,0:0:0:0:
221,19,69516,6,0,L|416:51,1,198.000006042481,6|2,0:0|0:0,0:0:0:0:
303,217,69994,1,8,0:0:0:0:
484,143,70154,1,0,0:0:0:0:
262,118,70314,1,8,0:0:0:0:
425,257,70473,1,0,0:0:0:0:
223,328,70633,1,8,0:0:0:0:
60,189,70792,6,0,B|43:113|77:56|77:56|86:75|103:83,1,175.499991966248,8|0,1:2|0:0,0:0:0:0:
190,249,71111,2,0,B|206:173|172:116|172:116|163:135|146:143,1,175.499991966248,8|0,1:2|0:0,0:0:0:0:
60,309,71431,2,0,B|43:233|77:176|77:176|86:195|103:203,1,175.499991966248,8|0,1:2|0:0,0:0:0:0:
190,369,71750,6,0,B|270:339|270:339|332:360|332:360|409:330,1,225,12|0,1:2|0:0,0:0:0:0:
486,296,72228,6,0,B|416:241|416:241|331:271,1,180,6|0,0:0|0:0,0:0:0:0:
222,195,72707,1,2,0:0:0:0:
424,154,72867,2,0,L|400:332,1,180,12|0,0:0|0:0,0:0:0:0:
336,91,73345,1,2,0:0:0:0:
351,74,73425,1,2,0:0:0:0:
369,61,73505,1,12,0:0:0:0:
500,258,73665,6,0,B|397:279|432:200|329:233,1,180,8|0,0:0|0:0,0:0:0:0:
176,348,74143,2,0,P|213:269|169:194,1,180,12|2,0:0|0:0,0:0:0:0:
110,271,74622,1,0,0:0:0:0:
18,110,74782,6,0,L|105:90,1,90,6|0,0:0|0:0,0:0:0:0:
257,175,75101,2,0,L|169:194,1,90,0|2,0:0|0:0,0:0:0:0:
236,61,75420,2,0,L|323:41,1,90,12|0,0:0|0:0,0:0:0:0:
408,259,75739,5,0,0:0:0:0:
475,126,75899,2,0,L|387:145,1,90,0|2,0:0|0:0,0:0:0:0:
314,325,76218,2,0,L|226:305,1,90,2|0,0:0|0:0,0:0:0:0:
34,328,76537,1,2,0:0:0:0:
34,328,76617,1,2,0:0:0:0:
34,327,76697,6,0,P|39:283|58:243,1,90,8|0,0:0|0:0,0:0:0:0:
249,203,77016,1,4,0:3:0:0:
111,40,77175,2,0,L|115:84,1,45,4|4,0:3|0:3,0:0:0:0:
57,160,77335,6,0,P|127:180|191:146,1,148.50000453186,12|0,0:0|0:0,0:0:0:0:
213,115,77654,5,8,0:0:0:0:
135,299,77814,1,0,0:0:0:0:
291,299,77973,5,8,0:0:0:0:
213,115,78133,1,0,0:0:0:0:
369,115,78292,5,8,0:0:0:0:
291,299,78452,1,0,0:0:0:0:
447,299,78611,5,8,0:0:0:0:
447,299,78691,1,8,0:0:0:0:
447,299,78771,1,4,0:0:0:0:
194,353,78931,2,0,P|175:307|182:259,1,99.0000030212403,2|0,0:0|0:0,0:0:0:0:
380,66,79250,6,0,L|368:114,1,49.5000015106202,8|8,0:0|0:0,0:0:0:0:
409,210,79409,2,0,L|361:198,1,49.5000015106202,8|8,0:0|0:0,0:0:0:0:
265,240,79569,2,0,L|276:191,1,49.5000015106202,8|8,0:0|0:0,0:0:0:0:
235,95,79728,2,0,L|283:107,1,49.5000015106202,8|8,0:0|0:0,0:0:0:0:
461,146,79888,6,0,P|489:227|433:292,1,180,12|2,0:0|0:0,0:0:0:0:
238,312,80367,5,12,0:0:0:0:
283,107,80526,1,0,0:0:0:0:
409,210,80686,1,2,0:0:0:0:
187,174,80845,6,0,P|168:133|165:88,2,90,12|0|2,0:0|0:0|0:0,0:0:0:0:
367,114,81324,5,12,0:0:0:0:
238,312,81484,2,0,P|193:307|153:287,1,90,2|2,0:0|0:0,0:0:0:0:
52,131,81803,5,12,0:0:0:0:
165,88,81963,1,2,0:0:0:0:
410,210,82122,5,12,0:0:0:0:
297,253,82282,1,2,0:0:0:0:
297,253,82361,1,2,0:0:0:0:
297,253,82441,5,12,0:0:0:0:
165,88,82601,1,2,0:0:0:0:
373,56,82760,1,2,0:0:0:0:
241,311,82920,6,0,P|221:227|286:172,1,180,12|2,0:0|0:0,0:0:0:0:
486,248,83399,6,0,P|442:238|409:209,1,90,12|0,0:0|0:0,0:0:0:0:
373,56,83718,1,2,0:0:0:0:
290,252,83877,5,12,0:0:0:0:
483,159,84037,1,2,0:0:0:0:
373,56,84197,1,2,0:0:0:0:
208,163,84356,5,10,0:0:0:0:
186,167,84436,1,2,0:0:0:0:
164,165,84516,1,2,0:0:0:0:
143,157,84595,1,2,0:0:0:0:
125,144,84675,1,2,0:0:0:0:
111,126,84755,1,2,0:0:0:0:
102,105,84835,1,2,0:0:0:0:
100,83,84915,1,2,0:0:0:0:
103,61,84994,6,0,L|192:48,1,90,12|2,0:0|0:0,0:0:0:0:
325,28,85314,1,2,0:0:0:0:
430,196,85473,6,0,L|340:183,1,90,12|2,0:0|0:0,0:0:0:0:
208,163,85792,1,2,0:0:0:0:
103,331,85952,6,0,L|192:318,1,90,12|2,0:0|0:0,0:0:0:0:
325,298,86271,1,2,0:0:0:0:
325,28,86431,5,12,0:0:0:0:
208,163,86590,1,8,0:0:0:0:
442,163,86750,1,8,0:0:0:0:
324,297,86909,6,0,P|309:255|304:211,1,90,12|2,0:0|0:0,0:0:0:0:
421,76,87228,2,0,P|436:118|441:162,1,90,12|2,0:0|0:0,0:0:0:0:
442,163,87468,1,2,0:0:0:0:
442,163,87548,5,12,0:0:0:0:
243,61,87707,1,2,0:0:0:0:
243,61,87867,1,2,0:0:0:0:
442,163,88026,5,12,0:0:0:0:
218,174,88186,1,2,0:0:0:0:
218,174,88345,1,2,0:0:0:0:
442,163,88505,5,12,0:0:0:0:
254,284,88665,1,2,0:0:0:0:
254,284,88824,1,2,0:0:0:0:
442,163,88984,5,12,0:0:0:0:
340,362,89143,1,8,0:0:0:0:
340,362,89303,1,2,0:0:0:0:
442,163,89463,5,4,0:0:0:0:
218,174,89622,1,4,0:3:0:0:
188,168,89702,1,4,0:3:0:0:
158,163,89782,1,4,0:3:0:0:
129,158,89861,1,4,0:3:0:0:
99,153,89941,1,4,0:3:0:0:
70,148,90021,1,4,0:3:0:0:
39,143,90101,6,0,P|38:227|117:256,1,180,6|8,0:0|0:0,0:0:0:0:
304,210,90580,1,0,0:0:0:0:
228,76,90739,1,2,0:0:0:0:
129,158,90899,1,2,0:0:0:0:
237,51,91058,2,0,L|326:62,1,90,8|0,0:0|0:0,0:0:0:0:
459,196,91377,6,0,P|474:154|469:109,1,90,2|0,0:0|0:0,0:0:0:0:
304,210,91697,2,0,P|298:254|314:296,1,90,8|0,0:0|0:0,0:0:0:0:
475,341,92016,1,2,0:0:0:0:
419,213,92175,1,2,0:0:0:0:
345,369,92335,2,0,P|300:373|260:354,1,90,8|4,0:0|0:3,0:0:0:0:
245,339,92574,1,4,0:3:0:0:
234,320,92654,6,0,L|55:341,1,180,2|8,0:0|0:0,0:0:0:0:
181,194,93133,1,0,0:0:0:0:
45,219,93292,2,0,P|21:181|12:137,1,90,2|2,0:0|0:0,0:0:0:0:
175,39,93611,2,0,L|260:67,1,90,8|0,0:0|0:0,0:0:0:0:
447,109,93931,5,2,0:0:0:0:
277,190,94090,1,0,0:0:0:0:
440,301,94250,2,0,P|454:259|456:214,1,90,8|0,0:0|0:0,0:0:0:0:
359,29,94569,1,2,0:0:0:0:
277,190,94728,1,2,0:0:0:0:
184,89,94888,1,8,0:0:0:0:
90,151,95048,1,0,0:0:0:0:
90,151,95127,1,2,0:0:0:0:
90,151,95207,6,0,P|12:116|10:30,1,180,6|8,0:0|0:0,0:0:0:0:
20,301,95686,2,0,P|59:279|103:273,1,90,0|2,0:0|0:0,0:0:0:0:
201,342,96005,1,2,0:0:0:0:
147,165,96165,2,0,P|185:188|212:223,1,90,8|0,0:0|0:0,0:0:0:0:
352,352,96484,6,0,L|377:173,1,180,2|8,0:0|0:0,0:0:0:0:
347,74,96963,2,0,L|258:58,1,90,0|2,0:0|0:0,0:0:0:0:
499,224,97282,1,2,0:0:0:0:
465,44,97441,1,8,0:0:0:0:
377,173,97601,1,2,0:0:0:0:
377,173,97681,1,2,0:0:0:0:
377,173,97760,6,0,L|199:142,1,180,2|8,0:0|0:0,0:0:0:0:
41,97,98239,2,0,P|83:82|127:72,1,90,0|2,0:0|0:0,0:0:0:0:
207,251,98558,1,2,0:0:0:0:
16,282,98718,2,0,P|35:241|59:203,1,90,8|0,0:0|0:0,0:0:0:0:
75,183,98957,1,2,0:0:0:0:
75,183,99037,6,0,L|165:173,1,90,2|0,0:0|0:0,0:0:0:0:
313,17,99356,1,12,0:0:0:0:
337,223,99516,1,0,0:0:0:0:
340,245,99595,1,8,0:0:0:0:
343,267,99675,1,8,0:0:0:0:
416,135,99835,1,8,0:0:0:0:
346,289,99994,1,8,0:0:0:0:
200,120,100154,1,8,0:0:0:0:
347,309,100314,6,0,P|432:326|492:264,1,180,6|8,0:0|0:0,0:0:0:0:
472,54,100792,2,0,P|439:83|415:121,1,90,0|2,0:0|0:0,0:0:0:0:
405,239,101111,1,2,0:0:0:0:
208,161,101271,2,0,L|297:164,1,90,8|0,0:0|0:0,0:0:0:0:
436,331,101590,6,0,L|256:323,1,180,2|8,0:0|0:0,0:0:0:0:
101,365,102069,2,0,P|82:324|87:280,1,90,0|2,0:0|0:0,0:0:0:0:
216,234,102388,1,2,0:0:0:0:
16,230,102548,2,0,P|31:187|48:146,1,90,8|0,0:0|0:0,0:0:0:0:
73,115,102787,1,2,0:0:0:0:
73,115,102867,6,0,B|95:94|135:82|135:82|176:121|236:109,1,180,2|8,0:0|0:0,0:0:0:0:
424,141,103345,2,0,P|424:96|401:57,1,90,0|2,0:0|0:0,0:0:0:0:
303,195,103665,1,2,0:0:0:0:
404,287,103824,2,0,L|493:296,1,90,8|0,0:0|0:0,0:0:0:0:
303,195,104143,5,2,0:0:0:0:
261,334,104303,1,0,0:0:0:0:
404,183,104463,1,8,0:0:0:0:
192,109,104622,1,0,0:0:0:0:
174,137,104702,1,2,0:0:0:0:
164,169,104782,1,4,0:3:0:0:
163,203,104861,1,4,0:3:0:0:
171,236,104941,1,2,0:0:0:0:
192,109,105101,2,0,P|190:65|179:21,1,90,8|0,0:0|0:0,0:0:0:0:
6,215,105420,6,0,P|92:195|171:236,1,180,6|8,0:0|0:0,0:0:0:0:
367,242,105899,2,0,P|328:264|298:297,1,90,0|2,0:0|0:0,0:0:0:0:
447,346,106218,1,2,0:0:0:0:
464,186,106377,2,0,P|453:143|445:98,1,90,8|0,0:0|0:0,0:0:0:0:
314,21,106697,6,0,P|334:106|290:182,1,180,2|8,0:0|0:0,0:0:0:0:
118,84,107175,2,0,L|208:90,1,90,0|2,0:0|0:0,0:0:0:0:
208,265,107494,1,2,0:0:0:0:
380,176,107654,2,0,L|290:182,1,90,8|0,0:0|0:0,0:0:0:0:
125,348,107973,6,0,L|304:359,1,180,2|8,0:0|0:0,0:0:0:0:
86,224,108452,2,0,P|46:244|16:277,1,90,0|2,0:0|0:0,0:0:0:0:
125,348,108771,1,2,0:0:0:0:
220,224,108931,2,0,L|207:89,1,135,12|0,0:0|0:0,0:0:0:0:
206,51,109250,6,0,P|245:72|288:85,1,90,6|0,0:0|0:0,0:0:0:0:
452,43,109569,1,8,0:0:0:0:
338,205,109728,1,8,0:0:0:0:
338,205,109808,1,2,0:0:0:0:
338,205,109888,1,8,0:0:0:0:
207,89,110048,1,8,0:0:0:0:
311,312,110207,1,8,0:0:0:0:
311,312,110526,6,0,B|389:300|389:300|436:317|436:317|480:290,1,180,12|2,0:0|0:0,0:0:0:0:
185,204,111005,2,0,B|107:216|107:216|60:199|60:199|16:226,1,180,12|2,0:0|0:0,0:0:0:0:
302,195,111484,1,2,0:0:0:0:
194,321,111643,1,2,0:0:0:0:
302,195,111803,6,0,B|320:122|320:122|315:108|315:108|325:103|325:103|344:26,1,180,12|2,0:0|0:0,0:0:0:0:
458,191,112282,2,0,B|440:264|440:264|445:277|445:277|435:282|435:282|415:359,1,180,12|2,0:0|0:0,0:0:0:0:
194,321,112760,1,8,0:0:0:0:
302,195,112920,1,2,0:0:0:0:
167,52,113080,6,0,B|134:103|134:103|156:220,1,180,12|2,0:0|0:0,0:0:0:0:
28,363,113558,2,0,B|61:312|61:312|38:194,1,180,12|2,0:0|0:0,0:0:0:0:
10,52,114037,1,8,0:0:0:0:
156,220,114197,6,0,B|205:211|205:211|285:234|285:234|330:223,1,180,4|2,0:0|0:0,0:0:0:0:
418,72,114675,2,0,L|329:90,1,90,8|0,0:0|0:0,0:0:0:0:
390,289,114994,2,0,P|421:231|403:168,2,135,8|8|4,0:0|0:3|0:3,0:0:0:0:
228,361,115633,6,0,P|167:332|100:333,1,135,12|0,0:0|0:0,0:0:0:0:
64,351,115952,1,2,0:0:0:0:
176,175,116111,2,0,P|89:183|37:254,1,180,12|2,0:0|0:0,0:0:0:0:
228,361,116590,1,2,0:0:0:0:
137,270,116750,1,2,0:0:0:0:
315,255,116909,6,0,P|340:193|325:128,1,135,12|0,0:0|0:0,0:0:0:0:
293,104,117228,1,2,0:0:0:0:
246,324,117388,2,0,P|328:353|401:305,1,180,12|2,0:0|0:0,0:0:0:0:
483,173,117867,2,0,P|465:133|468:88,1,90,8|0,0:0|0:0,0:0:0:0:
293,103,118186,6,0,P|238:140|173:128,1,135,12|0,0:0|0:0,0:0:0:0:
143,101,118505,1,2,0:0:0:0:
81,274,118665,2,0,P|34:199|51:112,1,180,12|0,0:0|0:0,0:0:0:0:
220,56,119143,1,8,0:0:0:0:
376,180,119303,6,0,L|196:198,1,180,4|0,0:0|0:0,0:0:0:0:
61,211,119782,1,8,0:0:0:0:
206,287,119941,1,2,0:0:0:0:
38,213,120101,1,8,0:0:0:0:
187,109,120260,1,2,0:0:0:0:
209,107,120340,1,2,0:0:0:0:
232,105,120420,1,8,0:0:0:0:
105,29,120580,5,2,3:0:0:0:
401,56,123133,6,0,P|389:99|384:144,1,90,6|0,0:0|0:0,0:0:0:0:
300,311,123452,2,0,P|294:266|283:222,1,90,12|0,0:0|0:0,0:0:0:0:
154,128,123771,1,0,0:0:0:0:
136,134,123851,1,2,0:0:0:0:
118,140,123931,1,8,0:0:0:0:
304,136,124090,1,2,0:0:0:0:
241,19,124250,1,2,0:0:0:0:
201,213,124409,6,0,L|218:346,1,135,12|0,0:0|0:0,0:0:0:0:
223,377,124728,1,2,0:0:0:0:
417,316,124888,1,8,0:0:0:0:
419,260,124968,1,8,0:0:0:0:
387,215,125048,1,8,0:0:0:0:
334,200,125127,1,8,0:0:0:0:
283,222,125207,5,2,3:0:0:0:
178,282,125367,1,0,3:0:0:0:
71,228,125526,2,0,P|56:210|46:190,1,45,2|0,3:0|3:0,0:0:0:0:
84,74,125686,6,0,L|280:48,1,198.000006042481,6|2,0:0|0:0,0:0:0:0:
471,40,126165,2,0,P|451:85|440:133,1,99.0000030212403,8|0,0:0|0:0,0:0:0:0:
426,260,126484,1,2,0:0:0:0:
313,167,126643,1,2,0:0:0:0:
227,354,126803,2,0,P|276:344|325:346,1,99.0000030212403,8|0,0:0|0:0,0:0:0:0:
426,260,127122,5,2,0:0:0:0:
223,216,127282,2,0,P|203:172|199:123,1,99.0000030212403,2|8,0:0|0:0,0:0:0:0:
61,351,127601,2,0,P|81:306|85:257,1,99.0000030212403,0|2,0:0|0:0,0:0:0:0:
325,346,127920,1,2,0:0:0:0:
325,346,128000,1,2,0:0:0:0:
325,346,128080,1,8,0:0:0:0:
372,155,128239,6,0,B|299:142|299:142|243:167|243:167|198:123,1,198.000006042481,6|2,0:0|0:0,0:0:0:0:
371,59,128718,2,0,B|385:107|385:107|372:154,1,99.0000030212403,8|0,0:0|0:0,0:0:0:0:
325,346,129037,2,0,B|312:299|312:299|326:250,1,99.0000030212403,2|2,0:0|0:0,0:0:0:0:
446,233,129356,1,8,0:0:0:0:
249,172,129516,1,0,0:0:0:0:
371,59,129675,5,2,0:0:0:0:
235,184,129835,2,0,L|137:166,1,99.0000030212403,2|8,0:0|0:0,0:0:0:0:
371,154,130154,1,2,0:0:0:0:
376,178,130234,1,2,0:0:0:0:
382,202,130314,1,2,0:0:0:0:
447,96,130473,1,2,0:0:0:0:
306,260,130633,1,8,0:0:0:0:
264,17,130792,6,0,B|209:43|205:91|205:91|232:126|234:183,1,198.000006042481,6|2,0:0|0:0,0:0:0:0:
111,304,131271,1,8,0:0:0:0:
306,260,131431,1,0,0:0:0:0:
80,295,131590,1,2,0:0:0:0:
270,354,131750,2,0,P|318:361|364:344,1,99.0000030212403,2|8,0:0|0:0,0:0:0:0:
341,165,132069,6,0,P|292:157|246:174,1,99.0000030212403,0|2,0:0|0:0,0:0:0:0:
80,295,132388,1,0,0:0:0:0:
36,100,132548,1,8,0:0:0:0:
111,304,132707,1,0,0:0:0:0:
170,113,132867,1,2,0:0:0:0:
133,327,133026,2,0,P|113:281|109:232,1,99.0000030212403,2|8,0:0|0:0,0:0:0:0:
269,19,133345,6,0,P|288:64|292:113,1,99.0000030212403,6|0,0:0|0:0,0:0:0:0:
433,185,133665,1,2,0:0:0:0:
433,185,133744,1,2,0:0:0:0:
433,185,133824,6,0,L|383:190,1,49.5000015106202,8|0,0:0|0:0,0:0:0:0:
207,185,133984,1,2,0:0:0:0:
380,274,134143,6,0,L|330:279,1,49.5000015106202,8|0,0:0|0:0,0:0:0:0:
260,96,134303,1,2,0:0:0:0:
327,363,134463,6,0,L|277:368,1,49.5000015106202,8|0,0:0|0:0,0:0:0:0:
127,371,134622,6,0,P|91:293|122:214,1,175.499991966248,8|0,1:2|0:0,0:0:0:0:
207,185,134941,2,0,L|380:211,1,175.499991966248,8|0,1:2|0:0,0:0:0:0:
467,193,135260,2,0,P|502:115|471:36,1,175.499991966248,8|0,1:2|0:0,0:0:0:0:
368,51,135580,6,0,L|351:107,1,58.4999973220826,8|0,1:2|0:0,0:0:0:0:
271,169,135739,2,0,L|287:225,1,58.4999973220826,8|0,1:2|0:0,0:0:0:0:
447,334,135899,6,0,P|414:253|338:297,1,198.000006042481,6|2,0:0|0:0,0:0:0:0:
150,285,136377,2,0,B|252:246|233:339|338:296,1,198.000006042481,8|2,0:0|0:0,0:0:0:0:
195,359,136856,1,2,0:0:0:0:
282,126,137016,2,0,L|287:225,1,99.0000030212403,8|0,0:0|0:0,0:0:0:0:
159,124,137335,5,2,0:0:0:0:
380,157,137494,2,0,P|386:109|368:64,1,99.0000030212403,2|8,0:0|0:0,0:0:0:0:
286,224,137814,1,0,0:0:0:0:
286,224,137893,1,8,0:0:0:0:
286,224,137973,1,2,0:0:0:0:
389,272,138133,1,2,0:0:0:0:
281,125,138292,1,8,0:0:0:0:
209,333,138452,6,0,B|109:357|109:357|61:347|36:299,1,198.000006042481,6|2,0:0|0:0,0:0:0:0:
159,123,138931,2,0,P|151:172|139:220,1,99.0000030212403,8|0,0:0|0:0,0:0:0:0:
108,30,139250,1,2,0:0:0:0:
246,167,139409,1,2,0:0:0:0:
321,49,139569,2,0,P|369:41|414:61,1,99.0000030212403,8|0,0:0|0:0,0:0:0:0:
460,263,139888,5,2,0:0:0:0:
246,167,140048,1,2,0:0:0:0:
414,61,140207,1,8,0:0:0:0:
357,173,140367,1,2,0:0:0:0:
176,101,140526,1,8,0:0:0:0:
171,76,140606,1,8,0:0:0:0:
167,52,140686,1,8,0:0:0:0:
75,246,140845,1,8,0:0:0:0:
240,361,141005,6,0,P|297:286|247:208,1,198.000006042481,6|2,0:0|0:0,0:0:0:0:
394,348,141484,1,8,0:0:0:0:
215,283,141643,1,0,0:0:0:0:
394,218,141803,1,2,0:0:0:0:
200,282,141963,2,0,P|152:268|105:252,1,99.0000030212403,2|8,0:0|0:0,0:0:0:0:
4,119,142282,6,0,P|18:72|57:44,1,99.0000030212403,0|2,0:0|0:0,0:0:0:0:
240,29,142601,1,0,0:0:0:0:
326,205,142760,1,8,0:0:0:0:
358,70,142920,1,0,0:0:0:0:
363,45,143000,1,2,0:0:0:0:
368,21,143080,1,2,0:0:0:0:
476,111,143239,1,2,0:0:0:0:
240,29,143399,1,8,0:0:0:0:
169,233,143558,6,0,P|238:169|325:204,1,198.000006042481,6|0,0:0|0:0,0:0:0:0:
32,340,144037,1,8,0:0:0:0:
253,252,144197,1,2,0:0:0:0:
106,154,144356,1,8,0:0:0:0:
69,247,144516,1,2,0:0:0:0:
143,61,144675,1,8,0:0:0:0:
252,251,144835,6,0,B|373:284|373:284|361:234,1,175.499991966248,8|0,1:2|0:0,0:0:0:0:
342,89,145154,2,0,B|254:176|254:176|303:191,1,175.499991966248,8|0,1:2|0:0,0:0:0:0:
438,247,145473,2,0,B|405:127|405:127|368:162,1,175.499991966248,8|0,1:2|0:0,0:0:0:0:
252,251,145792,6,0,B|177:231|177:231|133:187|133:187|98:200|49:206,1,225,12|0,1:2|0:0,0:0:0:0:
28,283,146271,6,0,P|110:261|126:177,1,180,6|0,0:0|0:0,0:0:0:0:
8,67,146750,1,2,0:0:0:0:
50,205,146909,2,0,L|229:189,1,180,12|0,0:0|0:0,0:0:0:0:
332,65,147388,1,2,0:0:0:0:
338,86,147468,1,2,0:0:0:0:
345,107,147547,1,12,0:0:0:0:
448,250,147707,6,0,L|475:164,1,90,8|0,0:0|0:0,0:0:0:0:
420,335,148026,1,2,0:0:0:0:
298,233,148186,2,0,P|213:228|180:306,1,180,12|2,0:0|0:0,0:0:0:0:
253,293,148665,1,0,0:0:0:0:
419,335,148824,6,0,P|434:292|435:247,1,90,6|0,0:0|0:0,0:0:0:0:
313,145,149143,2,0,P|298:187|297:232,1,90,0|2,0:0|0:0,0:0:0:0:
451,74,149463,2,0,P|368:106|285:77,1,180,12|0,0:0|0:0,0:0:0:0:
118,118,149941,1,0,0:0:0:0:
118,118,150021,1,2,0:0:0:0:
118,118,150101,1,2,0:0:0:0:
220,21,150260,6,0,P|260:39|284:77,1,90,8|0,0:0|0:0,0:0:0:0:
297,232,150580,1,2,0:0:0:0:
297,232,150659,1,2,0:0:0:0:
297,232,150739,2,0,L|207:224,1,90,12|0,0:0|0:0,0:0:0:0:
412,173,151058,1,4,0:3:0:0:
389,336,151218,2,0,L|345:340,1,45,4|4,0:3|0:3,0:0:0:0:
157,302,151377,6,0,P|117:215|172:138,1,198.000006042481,12|2,0:0|0:0,0:0:0:0:
297,232,151856,1,0,0:0:0:0:
170,138,152016,1,12,0:0:0:0:
315,76,152175,1,0,0:0:0:0:
207,224,152335,1,2,0:0:0:0:
132,56,152494,1,0,0:0:0:0:
377,22,152654,6,0,P|396:68|386:115,1,99.0000030212403,12|0,0:0|0:0,0:0:0:0:
475,257,152973,2,0,P|426:260|378:249,1,99.0000030212403,8|8,0:0|0:0,0:0:0:0:
378,249,153213,1,8,0:0:0:0:
378,249,153292,1,4,0:3:0:0:
292,206,153452,1,4,0:3:0:0:
198,232,153611,1,4,0:3:0:0:
152,317,153771,1,4,0:3:0:0:
53,316,153931,6,0,P|34:276|35:232,1,90,12|2,0:0|0:0,0:0:0:0:
181,114,154250,1,2,0:0:0:0:
38,78,154409,2,0,P|99:139|181:114,1,180,12|0,0:0|0:0,0:0:0:0:
283,23,154888,1,2,0:0:0:0:
283,23,155207,6,0,L|294:112,1,90,12|2,0:0|0:0,0:0:0:0:
305,201,155526,1,2,0:0:0:0:
365,57,155686,1,12,0:0:0:0:
224,168,155845,1,2,0:0:0:0:
387,235,156005,1,2,0:0:0:0:
294,112,156165,1,2,0:0:0:0:
376,146,156324,1,2,0:0:0:0:
154,223,156484,6,0,B|134:184|134:184|142:139,1,90,12|2,0:0|0:0,0:0:0:0:
185,13,156803,1,2,0:0:0:0:
307,143,156963,2,0,B|265:121|265:121|183:153|183:153|141:137,1,180,12|2,0:0|0:0,0:0:0:0:
364,284,157441,1,0,0:0:0:0:
364,284,157760,5,12,0:0:0:0:
194,294,157920,1,2,0:0:0:0:
307,143,158080,1,2,0:0:0:0:
177,315,158239,2,8,L|90:288,1,90,12|8,0:0|0:0,0:0:0:0:
25,127,158558,1,2,0:0:0:0:
25,127,158638,1,2,0:0:0:0:
24,127,158718,2,0,P|65:74|130:63,1,135,12|0,0:0|0:0,0:0:0:0:
175,79,159037,6,0,L|189:167,1,90,12|0,0:0|0:0,0:0:0:0:
337,305,159356,2,0,L|322:216,1,90,8|0,0:0|0:0,0:0:0:0:
143,273,159675,2,0,L|231:258,1,90,12|0,0:0|0:0,0:0:0:0:
369,111,159994,2,0,L|280:125,1,90,8|0,0:0|0:0,0:0:0:0:
411,201,160314,6,0,L|322:215,1,90,12|0,0:0|0:0,0:0:0:0:
101,183,160633,2,0,L|189:168,1,90,8|0,0:0|0:0,0:0:0:0:
246,347,160952,2,0,L|231:258,1,90,12|0,0:0|0:0,0:0:0:0:
265,36,161271,2,0,L|279:124,1,90,8|0,0:0|0:0,0:0:0:0:
337,305,161590,5,12,0:0:0:0:
337,305,161750,1,0,0:0:0:0:
369,111,161909,5,8,0:0:0:0:
369,111,162069,1,0,0:0:0:0:
175,79,162228,5,12,0:0:0:0:
175,79,162388,1,0,0:0:0:0:
143,273,162548,5,8,0:0:0:0:
143,273,162707,1,0,0:0:0:0:
246,347,162867,5,12,0:0:0:0:
246,347,163026,1,0,0:0:0:0:
411,201,163186,5,8,0:0:0:0:
411,201,163345,1,0,0:0:0:0:
266,37,163505,5,12,0:0:0:0:
266,37,163665,1,0,0:0:0:0:
101,182,163824,5,8,0:0:0:0:
256,192,163984,1,0,0:0:0:0:
93,342,164143,6,0,P|62:261|100:182,1,180,6|8,0:0|0:0,0:0:0:0:
256,192,164622,1,8,0:0:0:0:
203,102,164782,1,8,0:0:0:0:
269,214,164941,1,8,0:0:0:0:
334,101,165101,1,8,0:0:0:0:
176,102,165260,1,8,0:0:0:0:
373,214,165420,5,8,0:0:0:0:
385,11,165580,1,8,0:0:0:0:
149,102,165739,1,8,0:0:0:0:
321,304,165899,1,8,0:0:0:0:
281,11,166058,1,8,0:0:0:0:
48,193,166218,1,8,0:0:0:0:
373,214,166377,1,8,0:0:0:0:
149,102,166537,1,2,0:0:0:0:
149,102,166617,1,2,0:0:0:0:
149,102,166697,6,0,P|145:146|149:191,1,90,12|0,0:0|0:0,0:0:0:0:
316,112,167016,1,2,0:0:0:0:
73,221,167175,6,0,P|106:262|158:273,1,107.999996704102,12|0,0:0|0:0,0:0:0:0:
192,30,167494,1,2,0:0:0:0:
124,345,167654,6,0,P|186:348|229:305,1,125.999996154785,12|2,0:0|0:0,0:0:0:0:
51,61,167973,1,2,0:0:0:0:
327,85,168133,1,8,0:0:0:0:
158,272,168292,6,0,B|85:277|85:277|25:238,1,144,12|0,0:0|0:0,0:0:0:0:
330,7,168611,1,8,0:0:0:0:
374,22,168691,1,8,0:0:0:0:
402,60,168771,1,8,0:0:0:0:
402,108,168851,1,8,0:0:0:0:
375,146,168931,1,2,0:0:0:0:
331,163,169010,1,2,0:0:0:0:
285,150,169090,2,0,P|274:116|276:81,1,72,2|2,0:0|0:0,0:0:0:0:
455,205,169250,6,0,P|464:258|457:311,1,107.999996704102,12|2,0:0|0:0,0:0:0:0:
266,374,169569,1,2,0:0:0:0:
122,212,169728,2,0,L|229:216,1,107.999996704102,12|0,0:0|0:0,0:0:0:0:
445,79,170048,1,0,0:0:0:0:
440,69,170127,1,0,0:0:0:0:
435,59,170207,2,0,P|382:47|330:60,1,107.999996704102,12|0,0:0|0:0,0:0:0:0:
345,260,170526,5,2,0:0:0:0:
345,260,170686,1,2,0:0:0:0:
192,124,170845,1,8,0:0:0:0:
168,336,171005,5,2,0:0:0:0:
168,336,171165,1,2,0:0:0:0:
305,145,171324,1,8,0:0:0:0:
345,260,171484,1,2,0:0:0:0:
266,31,171643,1,2,0:0:0:0:
88,237,171803,6,0,P|141:240|185:211,1,107.999996704102,12|2,0:0|0:0,0:0:0:0:
107,109,172122,1,2,0:0:0:0:
257,282,172282,6,0,P|233:235|186:211,1,107.999996704102,12|2,0:0|0:0,0:0:0:0:
135,329,172601,1,2,0:0:0:0:
211,113,172760,6,0,P|182:157|185:211,1,107.999996704102,12|2,0:0|0:0,0:0:0:0:
311,193,173080,1,2,0:0:0:0:
107,109,173239,1,8,0:0:0:0:
28,344,173399,6,0,L|134:328,1,107.999996704102,8|0,0:0|0:0,0:0:0:0:
371,339,173718,1,8,0:0:0:0:
185,211,173877,1,8,0:0:0:0:
172,168,173957,1,8,0:0:0:0:
180,124,174037,1,8,0:0:0:0:
208,89,174117,1,8,0:0:0:0:
249,72,174197,1,8,0:0:0:0:
293,75,174276,1,8,0:0:0:0:
331,99,174356,6,0,L|350:267,1,161.999995056153,6|0,0:0|0:0,0:0:0:0:
374,266,174675,2,0,L|352:371,1,107.999996704102,12|0,0:0|0:0,0:0:0:0:
78,224,174994,2,0,P|131:223|184:210,1,107.999996704102,2|2,0:0|0:0,0:0:0:0:
331,99,175314,2,0,P|277:98|224:85,1,107.999996704102,8|0,0:0|0:0,0:0:0:0:
156,0,175633,5,2,0:0:0:0:
184,210,175792,1,2,0:0:0:0:
19,124,175952,2,0,B|8:71|8:71|28:21,1,107.999996704102,8|0,0:0|0:0,0:0:0:0:
272,143,176271,1,2,0:0:0:0:
132,268,176431,1,2,0:0:0:0:
94,83,176590,1,8,0:0:0:0:
165,164,176750,1,2,0:0:0:0:
379,122,176909,5,6,0:0:0:0:
253,348,177069,2,0,P|236:298|235:244,1,107.999996704102,0|8,0:0|0:0,0:0:0:0:
402,44,177388,2,0,P|456:99|439:175,1,161.999995056153,6|0,0:0|0:0,0:0:0:0:
415,197,177707,1,2,0:0:0:0:
272,143,177867,1,8,0:0:0:0:
358,348,178026,2,0,L|376:297,1,53.9999983520508,8|8,0:0|0:0,0:0:0:0:
415,197,178186,5,6,0:0:0:0:
235,244,178345,1,2,0:0:0:0:
402,44,178505,1,8,0:0:0:0:
467,271,178665,2,0,P|415:287|364:273,1,107.999996704102,6|0,0:0|0:0,0:0:0:0:
237,84,178984,1,8,0:0:0:0:
231,57,179064,1,8,0:0:0:0:
226,31,179143,1,8,0:0:0:0:
153,136,179303,5,2,3:0:0:0:
343,364,186963,6,0,P|278:347|231:300,1,135.000005149842,2|0,3:0|0:0,0:0:0:0:
280,83,187441,5,8,0:0:0:0:
362,159,187601,1,8,0:0:0:0:
174,116,187760,5,8,0:0:0:0:
362,159,187920,1,8,0:0:0:0:
150,225,188080,5,8,0:0:0:0:
362,159,188239,1,8,0:0:0:0:
231,300,188399,5,8,0:0:0:0:
174,116,188558,1,4,0:3:0:0:
174,116,188638,1,4,0:3:0:0:
174,116,188718,1,4,0:3:0:0:
337,267,188877,5,8,0:0:0:0:
150,225,189037,1,4,0:3:0:0:
150,225,189117,1,4,0:3:0:0:
150,225,189197,1,4,0:3:0:0:
362,159,189356,5,8,0:0:0:0:
231,300,189516,1,4,0:3:0:0:
280,83,189675,5,8,0:0:0:0:
337,267,189835,1,8,0:0:0:0:
359,292,189915,1,8,0:0:0:0:
390,305,189994,1,8,0:0:0:0:
423,304,190074,1,8,0:0:0:0:
453,289,190154,1,8,0:0:0:0:
473,263,190234,1,8,0:0:0:0:
481,230,190314,6,0,P|452:222|428:206,1,58.4999973220826,8|0,0:0|0:0,0:0:0:0:
316,132,190473,6,0,P|349:125|377:105,1,67.5,0|0,3:0|0:0,0:0:0:0:
449,20,190792,6,0,L|404:231,1,215.999993408203,6|2,0:0|0:0,0:0:0:0:
240,349,191271,2,0,P|214:302|212:248,1,107.999996704102,8|0,0:0|0:0,0:0:0:0:
316,132,191590,1,2,0:0:0:0:
165,45,191750,1,2,0:0:0:0:
105,266,191909,2,0,L|211:247,1,107.999996704102,8|0,0:0|0:0,0:0:0:0:
288,19,192228,5,2,0:0:0:0:
422,150,192388,2,0,L|315:131,1,107.999996704102,2|8,0:0|0:0,0:0:0:0:
80,142,192707,1,0,0:0:0:0:
80,142,192787,1,8,0:0:0:0:
80,142,192867,1,2,0:0:0:0:
244,245,193026,1,2,0:0:0:0:
97,304,193186,1,8,0:0:0:0:
247,151,193345,6,0,P|331:208|314:308,1,215.999993408203,6|2,0:0|0:0,0:0:0:0:
375,116,193824,2,0,L|386:8,1,107.999996704102,8|0,0:0|0:0,0:0:0:0:
244,245,194143,1,2,0:0:0:0:
441,203,194303,1,2,0:0:0:0:
284,72,194463,2,0,P|230:74|176:81,1,107.999996704102,8|0,0:0|0:0,0:0:0:0:
284,72,194782,5,2,0:0:0:0:
80,126,194941,2,0,B|63:76|63:76|83:24,1,107.999996704102,2|8,0:0|0:0,0:0:0:0:
244,245,195260,2,0,B|261:295|261:295|240:346,1,107.999996704102,2|8,0:0|0:0,0:0:0:0:
217,75,195580,1,8,0:0:0:0:
48,223,195739,1,8,0:0:0:0:
232,70,195899,6,0,L|444:106,1,215.999993408203,6|0,0:0|0:0,0:0:0:0:
412,347,196377,1,8,0:0:0:0:
353,209,196537,1,0,0:0:0:0:
422,357,196697,1,2,0:0:0:0:
260,342,196856,2,0,L|152:332,1,107.999996704102,2|8,0:0|0:0,0:0:0:0:
80,126,197175,6,0,L|187:135,1,107.999996704102,0|2,0:0|0:0,0:0:0:0:
353,175,197494,1,0,0:0:0:0:
260,42,197654,1,8,0:0:0:0:
422,27,197814,1,0,0:0:0:0:
435,26,197893,1,8,0:0:0:0:
449,24,197973,1,2,0:0:0:0:
342,199,198133,1,2,0:0:0:0:
243,18,198292,1,8,0:0:0:0:
331,223,198452,6,0,L|292:323,1,107.999996704102,6|0,0:0|0:0,0:0:0:0:
71,174,198771,1,2,0:0:0:0:
71,174,198851,1,2,0:0:0:0:
71,174,198931,6,0,P|97:169|124:170,1,53.9999983520508,8|0,0:0|0:0,0:0:0:0:
164,285,199090,1,2,0:0:0:0:
133,94,199250,6,0,P|158:103|181:117,1,53.9999983520508,8|0,0:0|0:0,0:0:0:0:
45,288,199409,1,2,0:0:0:0:
226,55,199569,6,0,P|243:75|255:99,1,53.9999983520508,8|0,0:0|0:0,0:0:0:0:
214,230,199728,6,0,P|303:246|365:181,1,188.999994232178,8|0,1:2|0:0,0:0:0:0:
293,322,200048,2,0,P|367:271|365:180,1,188.999994232178,8|0,1:2|0:0,0:0:0:0:
414,331,200367,2,0,P|430:241|365:179,1,188.999994232178,8|0,1:2|0:0,0:0:0:0:
275,223,200686,6,0,L|213:229,1,62.9999980773926,8|0,1:2|0:0,0:0:0:0:
128,338,200845,2,0,L|91:287,1,62.9999980773926,8|0,1:2|0:0,0:0:0:0:
4,174,201005,6,0,P|77:105|163:157,1,215.999993408203,6|2,0:0|0:0,0:0:0:0:
293,322,201484,2,0,B|280:272|280:272|307:162|307:162|294:112,1,215.999993408203,8|2,0:0|0:0,0:0:0:0:
163,157,201963,1,2,0:0:0:0:
391,271,202122,2,0,L|506:256,1,107.999996704102,8|0,0:0|0:0,0:0:0:0:
293,322,202441,5,2,0:0:0:0:
294,112,202601,2,0,B|273:163|273:163|280:216,1,107.999996704102,2|8,0:0|0:0,0:0:0:0:
444,109,202920,1,0,0:0:0:0:
444,109,203000,1,8,0:0:0:0:
444,109,203080,1,2,0:0:0:0:
391,271,203239,1,2,0:0:0:0:
163,157,203399,1,8,0:0:0:0:
377,179,203558,6,0,L|162:156,1,215.999993408203,6|2,0:0|0:0,0:0:0:0:
0,352,204037,2,0,B|52:300|52:300|193:316,1,215.999993408203,8|2,0:0|0:0,0:0:0:0:
443,279,204516,1,2,0:0:0:0:
299,381,204675,2,0,B|283:339|283:339|291:276,1,107.999996704102,8|0,0:0|0:0,0:0:0:0:
315,61,204994,5,2,0:0:0:0:
162,156,205154,2,0,L|269:170,1,107.999996704102,2|8,0:0|0:0,0:0:0:0:
422,75,205473,2,0,L|314:60,1,107.999996704102,0|2,0:0|0:0,0:0:0:0:
100,26,205792,1,8,0:0:0:0:
96,52,205872,1,8,0:0:0:0:
92,79,205952,1,8,0:0:0:0:
141,299,206111,6,0,P|216:236|161:155,1,215.999993408203,6|0,0:0|0:0,0:0:0:0:
15,216,206590,2,0,P|24:269|32:322,1,107.999996704102,8|0,0:0|0:0,0:0:0:0:
245,285,206909,1,2,0:0:0:0:
161,155,207069,2,0,P|168:101|178:48,1,107.999996704102,2|8,0:0|0:0,0:0:0:0:
15,216,207388,6,0,P|59:246|109:267,1,107.999996704102,0|2,0:0|0:0,0:0:0:0:
282,131,207707,1,0,0:0:0:0:
282,131,207787,1,2,0:0:0:0:
282,131,207867,1,8,0:0:0:0:
161,155,208026,1,0,0:0:0:0:
361,226,208186,1,2,0:0:0:0:
325,15,208345,1,2,0:0:0:0:
361,226,208505,1,8,0:0:0:0:
161,155,208665,6,0,B|85:177|87:268|87:268|125:323,1,215.999993408203,6|0,0:0|0:0,0:0:0:0:
468,165,209143,1,8,0:0:0:0:
263,239,209303,1,2,0:0:0:0:
199,61,209463,1,8,0:0:0:0:
365,201,209622,1,2,0:0:0:0:
244,346,209782,1,8,0:0:0:0:
282,132,209941,6,0,B|331:14|331:14|365:64,1,188.999994232178,8|0,1:2|0:0,0:0:0:0:
282,132,210260,2,0,B|155:148|155:148|181:93,1,188.999994232178,8|0,1:2|0:0,0:0:0:0:
282,132,210580,2,0,B|359:233|359:233|298:238,1,188.999994232178,8|0,1:2|0:0,0:0:0:0:
282,132,210899,6,0,B|321:86|331:14|331:14|349:87|387:115,1,247.500007553101,12|0,1:2|0:0,0:0:0:0:
470,176,211377,6,0,P|379:139|281:131,1,198.000006042481,6|0,0:0|0:0,0:0:0:0:
92,201,211856,1,2,0:0:0:0:
41,24,212016,2,0,P|134:35|168:123,1,198.000006042481,12|0,0:0|0:0,0:0:0:0:
296,214,212494,2,0,P|269:256|252:303,1,99.0000030212403,0|6,0:0|0:0,0:0:0:0:
3,242,212814,6,0,L|198:212,1,198.000006042481,8|0,0:0|0:0,0:0:0:0:
377,166,213292,2,0,B|413:275|338:248|371:358,1,198.000006042481,12|2,0:0|0:0,0:0:0:0:
459,309,213771,1,0,0:0:0:0:
290,153,213931,6,0,P|310:109|351:82,1,99.0000030212403,6|0,0:0|0:0,0:0:0:0:
71,103,214250,2,0,L|168:122,1,99.0000030212403,0|2,0:0|0:0,0:0:0:0:
260,278,214569,2,0,L|162:297,1,99.0000030212403,12|0,0:0|0:0,0:0:0:0:
371,357,214888,1,2,0:0:0:0:
99,352,215048,6,0,P|78:307|87:259,1,99.0000030212403,8|0,0:0|0:0,0:0:0:0:
232,68,215367,2,0,P|252:112|243:160,1,99.0000030212403,8|0,0:0|0:0,0:0:0:0:
71,103,215686,1,2,0:0:0:0:
71,103,215766,1,2,0:0:0:0:
71,103,215845,6,0,L|168:122,1,99.0000030212403,8|0,0:0|0:0,0:0:0:0:
289,227,216165,1,4,0:3:0:0:
415,39,216324,2,0,L|427:86,1,49.5000015106202,4|4,0:3|0:3,0:0:0:0:
484,186,216484,6,0,L|325:153,1,161.999995056153,12|0,0:0|0:0,0:0:0:0:
272,142,216803,1,8,0:0:0:0:
360,304,216963,1,0,0:0:0:0:
218,130,217122,1,8,0:0:0:0:
415,39,217282,1,0,0:0:0:0:
164,118,217441,1,8,0:0:0:0:
360,304,217601,1,0,0:0:0:0:
109,105,217760,6,0,L|4:83,1,107.999996704102,12|0,0:0|0:0,0:0:0:0:
255,4,218080,1,2,0:0:0:0:
140,248,218239,1,2,0:0:0:0:
187,272,218319,1,2,0:0:0:0:
240,269,218399,1,8,0:0:0:0:
283,240,218478,1,2,0:0:0:0:
327,210,218558,1,2,0:0:0:0:
380,207,218638,1,2,0:0:0:0:
427,232,218718,1,12,0:0:0:0:
207,176,218877,1,0,0:0:0:0:
360,304,219037,6,0,L|347:124,1,180,12|2,0:0|0:0,0:0:0:0:
112,49,219516,5,12,0:0:0:0:
207,176,219675,1,0,0:0:0:0:
270,31,219835,1,2,0:0:0:0:
207,188,219994,6,0,P|197:231|192:276,1,90,12|0,0:0|0:0,0:0:0:0:
347,124,220314,1,2,0:0:0:0:
90,212,220473,5,12,0:0:0:0:
284,342,220633,2,0,P|294:299|299:254,1,90,0|2,0:0|0:0,0:0:0:0:
201,55,220952,6,0,L|111:48,1,90,12|2,0:0|0:0,0:0:0:0:
347,124,221271,2,0,L|436:130,1,90,12|2,0:0|0:0,0:0:0:0:
459,131,221510,1,2,0:0:0:0:
481,133,221590,5,12,0:0:0:0:
299,253,221750,1,0,0:0:0:0:
405,346,221909,1,2,0:0:0:0:
240,176,222069,6,0,P|213:210|204:254,1,90,12|0,0:0|0:0,0:0:0:0:
433,208,222388,1,2,0:0:0:0:
239,38,222548,5,12,0:0:0:0:
299,253,222707,1,2,0:0:0:0:
347,124,222867,1,2,0:0:0:0:
124,114,223026,5,12,0:0:0:0:
299,253,223186,1,2,0:0:0:0:
161,246,223345,1,2,0:0:0:0:
239,38,223505,6,0,L|245:82,1,45,10|2,0:0|0:0,0:0:0:0:
347,124,223665,2,0,L|340:168,1,45,2|2,0:0|0:0,0:0:0:0:
239,210,223824,2,0,L|245:254,1,45,2|2,0:0|0:0,0:0:0:0:
347,296,223984,2,0,L|340:340,1,45,2|2,0:0|0:0,0:0:0:0:
115,350,224143,6,0,P|84:274|160:245,1,180,12|2,0:0|0:0,0:0:0:0:
340,168,224622,5,12,0:0:0:0:
228,341,224782,1,0,0:0:0:0:
134,157,224941,1,2,0:0:0:0:
339,168,225101,6,0,P|384:163|428:153,1,90,12|0,0:0|0:0,0:0:0:0:
286,44,225420,1,2,0:0:0:0:
245,254,225580,5,12,0:0:0:0:
191,129,225739,2,0,P|146:133|102:143,1,90,8|2,0:0|0:0,0:0:0:0:
348,316,226058,6,0,P|392:311|436:301,1,90,12|0,0:0|0:0,0:0:0:0:
344,60,226377,1,8,0:0:0:0:
312,91,226457,1,8,0:0:0:0:
297,133,226537,1,8,0:0:0:0:
302,177,226617,1,8,0:0:0:0:
326,215,226697,5,12,0:0:0:0:
102,143,226856,1,2,0:0:0:0:
241,35,227016,1,2,0:0:0:0:
86,155,227175,6,0,L|93:245,1,90,12|2,0:0|0:0,0:0:0:0:
273,185,227494,1,2,0:0:0:0:
55,342,227654,6,0,L|145:335,1,90,12|2,0:0|0:0,0:0:0:0:
86,155,227973,1,2,0:0:0:0:
242,373,228133,1,8,0:0:0:0:
293,371,228213,1,8,0:0:0:0:
337,342,228292,1,8,0:0:0:0:
359,295,228372,1,8,0:0:0:0:
353,244,228452,1,8,0:0:0:0:
321,203,228532,1,2,0:0:0:0:
273,185,228611,5,8,0:0:0:0:
234,218,228691,1,8,0:0:0:0:
184,229,228771,1,8,0:0:0:0:
135,214,228851,1,8,0:0:0:0:
100,176,228931,1,8,0:0:0:0:
87,127,229010,1,8,0:0:0:0:
100,77,229090,1,8,0:0:0:0:
135,40,229170,1,8,0:0:0:0:
185,26,229250,6,0,L|274:38,1,90,6|0,0:0|0:0,0:0:0:0:
469,126,229569,2,0,L|379:138,1,90,12|0,0:0|0:0,0:0:0:0:
188,126,229888,1,2,0:0:0:0:
382,32,230048,1,2,0:0:0:0:
442,231,230207,2,0,L|352:243,1,90,8|0,0:0|0:0,0:0:0:0:
176,374,230526,6,0,P|135:298|183:228,1,180,2|8,0:0|0:0,0:0:0:0:
378,355,231005,1,0,0:0:0:0:
321,160,231165,2,0,L|304:271,1,90,2|2,0:0|0:0,0:0:0:0:
307,249,231404,1,8,0:0:0:0:
307,249,231484,1,8,0:0:0:0:
456,149,231643,1,2,0:0:0:0:
319,27,231803,6,0,L|230:36,1,90,2|0,0:0|0:0,0:0:0:0:
112,146,232122,2,0,L|102:57,1,90,8|0,0:0|0:0,0:0:0:0:
121,235,232441,1,2,0:0:0:0:
228,140,232601,1,2,0:0:0:0:
3,124,232760,2,0,L|12:212,1,90,8|0,0:0|0:0,0:0:0:0:
176,362,233080,6,0,P|109:310|30:346,2,180,2|8|2,0:0|0:0|0:0,0:0:0:0:
349,346,233877,1,8,0:0:0:0:
349,346,233957,1,8,0:0:0:0:
349,346,234037,1,8,0:0:0:0:
231,188,234197,2,0,L|275:191,1,45,8|8,0:0|0:0,0:0:0:0:
376,248,234356,6,0,P|387:205|388:160,1,90,6|0,0:0|0:0,0:0:0:0:
211,62,234675,2,0,P|242:93|281:116,1,90,8|0,0:0|0:0,0:0:0:0:
455,12,234994,2,0,P|411:23|372:45,1,90,6|2,0:0|0:0,0:0:0:0:
275,191,235314,1,8,0:0:0:0:
477,305,235473,1,2,0:0:0:0:
449,101,235633,5,6,0:0:0:0:
376,248,235792,1,0,0:0:0:0:
449,102,235952,2,0,L|454:11,1,90,8|0,0:0|0:0,0:0:0:0:
281,116,236271,1,12,0:0:0:0:
376,248,236431,1,2,0:0:0:0:
376,248,236510,1,2,0:0:0:0:
376,248,236590,1,8,0:0:0:0:
281,336,236750,1,2,0:0:0:0:
193,138,236909,5,6,0:0:0:0:
376,248,237069,2,0,L|482:232,1,107.999996704102,2|8,0:3|0:0,0:0:0:0:
376,28,237388,5,2,0:0:0:0:
193,138,237548,2,0,L|86:122,1,107.999996704102,2|0,0:0|0:0,0:0:0:0:
266,375,237867,2,0,P|277:322|271:268,1,107.999996704102,12|0,0:0|0:0,0:0:0:0:
258,246,238106,1,0,0:0:0:0:
236,227,238186,6,0,P|204:235|170:239,1,67.5000025749208,10|2,0:0|0:0,0:0:0:0:
51,234,238345,2,0,P|60:202|73:170,1,67.5000025749208,2|2,0:0|0:0,0:0:0:0:
137,71,238505,2,0,P|159:94|180:122,1,67.5000025749208,2|2,0:0|0:0,0:0:0:0:
300,115,238665,2,0,P|333:111|366:102,1,67.5000025749208,2|2,0:0|0:0,0:0:0:0:
467,41,238824,6,0,L|475:107,1,67.5000025749208,2|2,0:0|0:0,0:0:0:0:
425,278,238984,2,0,L|417:212,1,67.5000025749208,2|2,0:0|0:0,0:0:0:0:
296,32,239143,2,0,P|221:91|251:182,1,202.500007724762,12|0,0:0|0:0,0:0:0:0:
279,207,239463,6,0,P|225:198|172:195,1,107.999996704102,6|0,0:0|0:0,0:0:0:0:
67,342,239782,2,0,P|120:351|174:354,1,107.999996704102,8|0,0:0|0:0,0:0:0:0:
425,278,240101,1,8,0:0:0:0:
425,278,240260,1,8,0:0:0:0:
366,102,240420,1,8,0:0:0:0:
366,102,240580,1,8,0:0:0:0:
172,195,240739,5,8,0:0:0:0:
325,213,240899,1,8,0:0:0:0:
174,354,241058,1,8,0:0:0:0:
220,73,241218,1,8,0:0:0:0:
270,266,241377,5,8,0:0:0:0:
102,187,241537,1,8,0:0:0:0:
261,282,241697,1,8,0:0:0:0:
359,71,241856,1,8,0:0:0:0:
417,321,242016,6,0,B|407:336|407:336|386:307|386:307|375:342|375:342|354:313|354:313|344:347|344:347|323:318|323:318|310:337|310:337|272:374|195:351|189:291,1,377.999988464356,12|0,0:0|0:0,0:0:0:0:
