osu file format v14

[General]
AudioFilename: audio.mp3
AudioLeadIn: 0
PreviewTime: 68116
Countdown: 0
SampleSet: Soft
StackLeniency: 0.6
Mode: 0
LetterboxInBreaks: 0
WidescreenStoryboard: 0

[Editor]
Bookmarks: 14352,15195,17386,17891,20588,23285,34071,42835,43341,44183,44858,52948,53453,53622,54127,54296,54801,54970,55644,62723,63734,66262,67610,68116,69127,77217,79914,88004,90700,94577,96094,101318
DistanceSpacing: 1
BeatDivisor: 4
GridSize: 4
TimelineZoom: 1.1

[Metadata]
Title:TriColour Heartbeat
TitleUnicode:三色绘恋
Artist:Yun Yi Xing Chen
ArtistUnicode:云翼星辰
Creator:Log Off Now
Version:Nao's Normal
Source:三色△绘恋 -Tricolour Lovestory-
Tags:chinese eroge visual novel vn opening sakuragame yamayuri hl-galgame maru project lights tricolour lovestory left proezreal naotoshi
BeatmapID:1457381
BeatmapSetID:675957

[Difficulty]
HPDrainRate:4
CircleSize:3.5
OverallDifficulty:4
ApproachRate:5
SliderMultiplier:1
SliderTickRate:1

[Events]
//Background and Video events
0,0,"nao-tric-bg.jpg",0,0
Video,0,"movie_max.avi"
//Break Periods
2,23485,32534
//Storyboard Layer 0 (Background)
//Storyboard Layer 1 (Fail)
//Storyboard Layer 2 (Pass)
//Storyboard Layer 3 (Foreground)
//Storyboard Sound Samples

[TimingPoints]
5757,337.078651685393,4,2,1,25,1,0
5757,-125,4,2,1,25,0,0
17386,-100,4,3,1,60,0,0
17891,-100,4,2,1,50,0,0
23285,-125,4,2,1,40,0,0
33734,-100,4,2,1,40,0,0
34071,-100,4,2,1,45,0,0
44858,-125,4,2,1,40,0,0
53622,-125,4,2,1,40,0,0
54296,-125,4,2,1,45,0,0
55644,-100,4,2,1,45,0,0
69127,-90.9090909090909,4,2,1,60,0,1
90700,-100,4,2,1,50,0,0

[Colours]
Combo1 : 255,224,130
Combo2 : 151,151,255
Combo3 : 255,185,220
Combo4 : 140,255,140

[HitObjects]
200,208,5756,6,0,P|248:192|344:240,1,150,2|0,0:0|0:0,0:0:0:0:
356,316,6599,1,2,0:0:0:0:
225,296,7105,6,0,L|98:299,2,120,2|0|0,0:0|0:0|0:0,0:0:0:0:
304,256,8453,2,0,P|312:200|280:144,1,120,2|0,0:0|0:0,0:0:0:0:
200,116,9296,1,2,0:0:0:0:
72,148,9801,6,0,P|52:88|124:32,1,160,2|0,0:0|0:0,0:0:0:0:
196,72,10813,1,0,0:0:0:0:
265,125,11150,2,0,P|324:129|381:111,1,120,2|0,0:0|0:0,0:0:0:0:
446,52,11992,1,2,0:0:0:0:
452,183,12498,6,0,P|475:246|507:299,2,120,2|0|0,0:0|0:0|0:0,0:0:0:0:
364,186,13846,1,2,0:0:0:0:
402,312,14352,2,0,B|379:328|358:339|320:334|320:334|283:373|227:385|207:355,1,200,2|2,0:0|0:0,0:0:0:0:
320,290,17386,5,0,0:2:0:0:
320,290,17554,1,0,0:2:0:0:
232,228,17891,2,0,P|176:212|88:264,1,150,6|0,0:0|0:0,0:0:0:0:
177,309,18734,1,0,0:0:0:0:
262,257,19071,6,0,P|254:201|290:113,1,150,2|0,0:0|3:0,0:0:0:0:
337,109,19745,2,0,P|389:123|444:110,1,100,2|10,0:0|0:0,0:0:0:0:
506,46,20419,1,12,0:0:0:0:
506,46,20588,2,0,P|488:137|512:251,1,200,2|0,0:0|3:0,0:0:0:0:
464,331,21599,1,0,3:0:0:0:
464,331,21768,6,0,B|399:305|382:366|319:346,1,150,10|8,0:0|0:0,0:0:0:0:
257,269,22610,2,0,P|206:295|112:273,1,150,8|8,0:3|0:0,0:0:0:0:
95,244,23285,1,0,0:0:0:0:
187,347,33734,5,0,0:0:0:0:
237,261,34071,2,0,P|291:268|345:265,1,100,4|0,3:2|3:0,0:0:0:0:
435,250,34745,1,0,3:0:0:0:
449,151,35082,1,0,3:0:0:0:
370,90,35419,2,0,P|336:129|308:171,1,100,0|0,3:0|3:0,0:0:0:0:
214,203,36094,1,0,3:0:0:0:
131,146,36431,1,8,3:2:0:0:
169,53,36768,6,0,P|214:32|263:20,1,100,12|0,0:0|3:0,0:0:0:0:
303,48,37273,2,0,P|289:103|297:158,1,100,8|0,0:0|0:0,0:0:0:0:
378,215,37948,2,0,P|349:262|303:293,1,100,12|8,0:0|0:0,0:0:0:0:
264,268,38453,2,0,P|212:259|154:282,1,100,8|0,3:2|3:0,0:0:0:0:
69,252,39127,2,0,L|44:195,1,50,8|12,0:0|0:0,0:0:0:0:
67,159,39464,6,0,P|143:143|173:151,2,100,0|0|0,3:0|3:0|3:0,0:0:0:0:
14,73,40476,1,0,3:0:0:0:
104,32,40813,2,0,P|146:45|213:25,1,100,0|0,3:0|3:0,0:0:0:0:
248,20,41318,1,0,0:0:0:0:
272,64,41487,2,0,P|285:100|272:173,1,100,0|8,3:0|0:0,0:0:0:0:
188,204,42161,5,12,0:0:0:0:
256,192,42498,12,4,44858,3:2:0:0:
94,207,46206,5,0,0:0:0:0:
94,207,46374,1,0,0:0:0:0:
175,239,46712,2,0,P|204:288|189:348,1,120,0|2,0:0|0:0,0:0:0:0:
277,359,47554,2,0,P|321:333|433:360,2,160,2|0|0,0:0|2:0|0:0,0:0:0:0:
233,349,49071,1,0,0:0:0:0:
262,266,49408,1,0,0:0:0:0:
262,266,49577,6,0,P|302:244|346:238,2,80,0|2|2,0:0|0:0|0:0,0:0:0:0:
180,231,50588,1,0,0:0:0:0:
166,319,50925,2,0,B|199:366|238:375|238:375|285:371|309:346|311:344,1,160
333,323,51768,1,0,0:0:0:0:
362,240,52105,1,0,0:0:0:0:
303,121,52610,1,0,2:0:0:0:
387,94,52948,6,0,P|420:120|449:247,2,160,2|2|2,0:0|0:0|0:0,0:0:0:0:
335,166,54633,2,0,L|296:191,1,40,0|0,0:0|3:0,0:0:0:0:
259,202,54970,2,0,P|249:137|258:78,1,120,14|0,0:0|0:0,0:0:0:0:
249,36,55644,6,0,P|209:48|140:38,1,100,4|0,0:0|3:0,0:0:0:0:
105,23,56150,1,8,0:0:0:0:
55,109,56487,1,0,3:0:0:0:
55,109,56655,1,12,0:0:0:0:
130,174,56992,5,0,3:0:0:0:
130,174,57161,1,8,0:0:0:0:
229,161,57498,1,0,3:0:0:0:
229,161,57667,2,0,L|339:160,1,100,12|8,0:0|0:3,0:0:0:0:
418,204,58341,6,0,P|432:270|416:308,1,100,12|0,0:0|3:0,0:0:0:0:
378,323,58846,2,0,P|322:313|271:329,1,100,8|0,0:0|3:0,0:0:0:0:
243,356,59352,1,12,0:0:0:0:
148,324,59689,5,0,3:0:0:0:
148,324,59858,2,0,L|152:214,1,100,8|0,0:0|3:0,0:0:0:0:
181,184,60363,2,0,P|223:194|292:171,1,100,12|8,0:0|0:3,0:0:0:0:
328,94,61037,6,0,P|384:72|436:87,1,100,12|0,0:0|0:0,0:0:0:0:
459,112,61543,2,0,P|439:164|452:228,1,100,8|0,0:0|3:0,0:0:0:0:
472,247,62049,1,12,0:0:0:0:
399,316,62386,5,0,3:0:0:0:
399,316,62554,1,8,0:0:0:0:
317,257,62891,1,4,0:3:0:0:
317,257,63060,2,0,P|276:246|167:345,1,200,12|4,0:0|3:0,0:0:0:0:
77,294,64071,5,0,3:0:0:0:
102,197,64408,1,8,0:0:0:0:
200,180,64745,2,0,P|248:216|272:264,1,100,0|0,3:0|3:0,0:0:0:0:
365,237,65419,1,0,3:0:0:0:
392,144,65756,1,0,3:0:0:0:
359,51,66094,1,8,0:0:0:0:
359,51,66262,6,0,P|314:29|221:79,1,150,4|8,3:2|0:0,0:0:0:0:
195,161,67105,2,0,P|138:174|85:160,1,100,10|2,0:0|0:0,0:0:0:0:
66,127,67610,1,10,0:0:0:0:
66,127,69127,6,0,P|48:173|56:246,1,110.000003356934,6|10,3:2|0:0,0:0:0:0:
72,283,69633,1,2,0:0:0:0:
155,354,69970,1,2,3:2:0:0:
216,262,70307,2,0,P|293:240|327:245,1,110.000003356934,2|0,3:2|3:0,0:0:0:0:
354,287,70813,5,10,0:0:0:0:
424,202,71150,1,2,3:2:0:0:
361,112,71487,1,10,0:2:0:0:
264,164,71824,2,0,P|220:176|154:165,1,110.000003356934,2|8,3:2|0:0,0:0:0:0:
117,128,72330,1,2,0:0:0:0:
207,64,72667,1,2,0:0:0:0:
299,124,73004,6,0,P|292:186|316:243,1,110.000003356934,2|0,3:2|3:0,0:0:0:0:
341,272,73509,1,8,0:0:0:0:
341,272,73678,1,0,0:0:0:0:
442,206,74015,1,2,3:2:0:0:
442,206,74183,2,0,P|431:180|420:154,1,55.0000016784668,10|2,0:0|0:0,0:0:0:0:
370,122,74521,6,0,B|289:113|307:174|201:165,1,165.000005035401,2|2,3:2|0:0,0:0:0:0:
117,114,75363,1,2,3:2:0:0:
32,184,75700,2,0,P|23:222|49:298,1,110.000003356934,2|0,3:2|3:0,0:0:0:0:
88,318,76206,1,10,0:0:0:0:
178,255,76543,1,2,3:2:0:0:
219,248,76712,1,0,3:0:0:0:
260,252,76880,1,10,0:0:0:0:
344,322,77217,6,0,P|367:272|362:215,1,110.000003356934,14|0,0:0|3:0,0:0:0:0:
329,174,77723,2,0,L|325:53,1,110.000003356934,8|2,0:0|3:2,0:0:0:0:
224,21,78397,2,0,L|222:154,1,110.000003356934,6|0,3:2|3:0,0:0:0:0:
190,176,78903,1,10,0:0:0:0:
258,261,79240,1,2,3:2:0:0:
162,315,79577,2,0,L|104:306,1,55.0000016784668,10|8,0:0|0:0,0:0:0:0:
106,251,79914,6,0,P|51:262|-6:229,1,110.000003356934,4|0,3:2|3:0,0:0:0:0:
6,185,80419,1,2,0:0:0:0:
104,136,80756,1,2,0:0:0:0:
209,176,81094,1,2,0:0:0:0:
209,176,81262,5,0,3:0:0:0:
299,113,81599,2,0,P|318:165|306:223,1,110.000003356934,2|2,3:2|3:2,0:0:0:0:
233,296,82273,1,10,0:0:0:0:
308,375,82610,2,0,P|362:377|414:333,1,110.000003356934,2|8,3:2|3:2,0:0:0:0:
429,295,83116,2,0,P|403:254|414:175,1,110.000003356934,2|2,0:0|0:0,0:0:0:0:
480,114,83790,6,0,B|437:90|397:88|397:88|363:119|319:133,1,165.000005035401,2|10,0:0|0:0,0:0:0:0:
280,223,84633,1,2,3:2:0:0:
212,135,84970,2,0,L|181:75,1,55.0000016784668,10|0,0:0|0:3,0:0:0:0:
133,75,85307,6,0,P|110:131|110:193,1,110.000003356934,6|8,3:2|0:0,0:0:0:0:
151,213,85813,2,0,L|132:332,1,110.000003356934,2|2,0:0|0:0,0:0:0:0:
240,349,86487,1,10,0:0:0:0:
240,349,86655,2,0,L|257:240,1,110.000003356934,2|10,3:2|0:0,0:0:0:0:
346,304,87330,2,0,P|404:311|463:297,1,110.000003356934,2|2,3:2|3:2,0:0:0:0:
486,256,87835,1,2,0:0:0:0:
489,200,88004,5,2,3:2:0:0:
392,146,88341,1,12,0:0:0:0:
392,146,88509,2,0,P|346:167|277:159,1,110.000003356934,8|8,3:3|0:3,0:0:0:0:
183,127,89183,2,0,P|130:205|154:288,1,165.000005035401,12|4,0:0|0:0,0:0:0:0:
244,313,90026,1,8,0:3:0:0:
333,249,90363,1,4,0:3:0:0:
426,287,90700,6,0,P|430:240|439:188,1,100,4|0,3:2|3:0,0:0:0:0:
458,141,91206,1,0,3:0:0:0:
458,141,91374,1,8,0:0:0:0:
270,83,92049,5,0,3:0:0:0:
270,83,92217,1,8,0:0:0:0:
205,159,92554,1,0,3:0:0:0:
205,159,92723,2,0,P|162:168|103:153,2,100,8|0|0,0:0|0:0|3:0,0:0:0:0:
158,70,93734,1,0,3:0:0:0:
73,123,94071,2,0,P|58:182|56:234,1,100,8|8,0:0|0:0,0:0:0:0:
118,298,94745,1,4,3:2:0:0:
118,298,94914,2,0,P|186:280|265:330,1,150,0|2,0:0|0:0,0:0:0:0:
305,229,95756,1,2,0:0:0:0:
244,148,96094,5,6,3:2:0:0:
325,90,96431,1,0,3:0:0:0:
325,90,96599,1,2,3:2:0:0:
408,145,96936,1,2,3:2:0:0:
408,145,97105,1,0,0:0:0:0:
319,191,97442,1,0,3:0:0:0:
319,191,97610,2,0,P|267:183|212:209,1,100,8|2,0:0|3:2,0:0:0:0:
198,243,98116,2,0,P|138:246|90:219,1,100,14|0,0:0|0:0,0:0:0:0:
99,129,98790,6,0,L|211:118,1,100,6|8,3:2|0:0,0:0:0:0:
291,83,99464,1,8,0:0:0:0:
374,138,99801,1,4,3:0:0:0:
374,138,99970,2,0,B|380:195|437:226|437:226|437:299|411:330|343:336|324:333|324:333|283:370|252:378|217:366,1,400,14|8,0:0|3:2,0:0:0:0:
