osu file format v14

[General]
AudioFilename: audio.mp3
AudioLeadIn: 0
PreviewTime: 68116
Countdown: 0
SampleSet: None
StackLeniency: 0.4
Mode: 0
LetterboxInBreaks: 0
WidescreenStoryboard: 0

[Editor]
Bookmarks: 14352,15195,17386,17891,20588,23285,34071,42835,43341,44183,44858,52948,53453,53622,54127,54296,54801,54970,55644,62723,63734,66262,67610,68116,69127,77217,79914,88004,90700,94577,96094,101318
DistanceSpacing: 1.1
BeatDivisor: 4
GridSize: 4
TimelineZoom: 1.1

[Metadata]
Title:TriColour Heartbeat
TitleUnicode:三色绘恋
Artist:Yun Yi Xing Chen
ArtistUnicode:云翼星辰
Creator:Log Off Now
Version:Left's Insane
Source:三色△绘恋 -Tricolour Lovestory-
Tags:chinese eroge visual novel vn opening sakuragame yamayuri hl-galgame maru project lights tricolour lovestory left proezreal naotoshi
BeatmapID:1432607
BeatmapSetID:675957

[Difficulty]
HPDrainRate:5
CircleSize:3.8
OverallDifficulty:7.8
ApproachRate:9
SliderMultiplier:1.6
SliderTickRate:1

[Events]
//Background and Video events
0,0,"left.jpg",0,0
Video,0,"movie_max.avi"
//Break Periods
2,23485,33105
//Storyboard Layer 0 (Background)
//Storyboard Layer 1 (Fail)
//Storyboard Layer 2 (Pass)
//Storyboard Layer 3 (Foreground)
//Storyboard Sound Samples

[TimingPoints]
5757,337.078651685393,4,2,1,25,1,0
12835,-200,4,2,1,25,0,0
17217,-200,4,2,1,5,0,0
17386,-83.3333333333333,4,3,1,60,0,0
17723,-83.3333333333333,4,3,1,5,0,0
17891,-83.3333333333333,4,2,1,50,0,0
18144,-83.3333333333333,4,2,1,5,0,0
18228,-100,4,2,1,50,0,0
20588,-83.3333333333333,4,2,1,50,0,0
20841,-83.3333333333333,4,2,1,5,0,0
20925,-100,4,2,1,50,0,0
23285,-100,4,2,1,40,0,0
33734,-166.666666666667,4,2,1,40,0,0
33987,-166.666666666667,4,2,1,5,0,0
34071,-90.9090909090909,4,2,1,45,0,0
34577,-105.263157894737,4,2,1,45,0,0
35756,-166.666666666667,4,2,1,45,0,0
36094,-105.263157894737,4,2,1,45,0,0
36431,-166.666666666667,4,2,1,45,0,0
36768,-105.263157894737,4,2,1,45,0,0
37273,-76.9230769230769,4,2,1,45,0,0
37779,-60.6060606060606,4,2,1,45,0,0
38453,-105.263157894737,4,2,1,45,0,0
44521,-100,4,2,1,45,0,0
44858,-166.666666666667,4,2,1,30,0,0
52948,-100,4,2,1,30,0,0
53622,-100,4,2,1,35,0,0
54296,-100,4,2,1,40,0,0
54970,-100,4,2,1,40,0,0
55644,-83.3333333333333,4,2,1,40,0,1
55728,-100,4,2,1,40,0,0
58341,-100,4,2,1,40,0,1
58425,-100,4,2,1,40,0,0
61037,-100,4,2,1,40,0,1
61122,-100,4,2,1,40,0,0
63060,-83.3333333333333,4,2,1,40,0,0
63734,-100,4,2,1,40,0,0
68116,-200,4,2,1,40,0,0
68959,-200,4,2,1,5,0,0
69127,-76.9230769230769,4,2,1,60,0,1
69464,-90.9090909090909,4,2,1,60,0,1
71824,-76.9230769230769,4,2,1,60,0,1
72330,-90.9090909090909,4,2,1,60,0,1
74521,-76.9230769230769,4,2,1,60,0,1
75363,-90.9090909090909,4,2,1,60,0,1
75700,-76.9230769230769,4,2,1,60,0,1
76206,-90.9090909090909,4,2,1,60,0,1
79914,-100,4,2,1,60,0,1
89183,-90.9090909090909,4,2,1,60,0,1
90700,-100,4,2,1,50,0,0
95082,-125,4,2,1,50,0,0

[Colours]
Combo1 : 255,224,130
Combo2 : 151,151,255
Combo3 : 255,185,220
Combo4 : 140,255,140

[HitObjects]
59,341,5756,5,2,0:0:0:0:
133,321,6262,1,0,0:0:0:0:
113,248,6599,1,0,0:0:0:0:
39,267,6768,1,0,0:0:0:0:
133,321,7105,5,2,0:0:0:0:
138,337,7610,1,0,0:0:0:0:
124,333,8116,1,0,0:0:0:0:
87,141,8453,69,2,0:0:0:0:
164,159,8959,1,0,0:0:0:0:
222,109,9296,1,0,0:0:0:0:
296,129,9464,1,0,0:0:0:0:
169,186,9801,5,2,0:0:0:0:
166,172,10307,1,0,0:0:0:0:
164,159,10813,1,0,0:0:0:0:
333,56,11150,69,2,0:0:0:0:
407,76,11656,1,0,0:0:0:0:
387,149,11993,1,0,0:0:0:0:
313,130,12162,1,0,0:0:0:0:
283,318,12498,5,2,0:0:0:0:
355,285,12835,1,0,0:0:0:0:
355,285,13004,2,0,B|382:278|414:296|414:296|448:315|487:298,1,120,0|0,0:0|0:0,0:0:0:0:
453,224,13846,69,2,0:0:0:0:
453,224,14352,5,2,0:0:0:0:
439,232,14521,1,2,0:0:0:0:
413,241,14689,1,0,0:0:0:0:
370,233,14858,1,2,0:0:0:0:
316,174,15026,1,0,0:0:0:0:
335,85,15195,1,2,0:0:0:0:
79,49,16543,70,0,L|58:220,1,160,0|0,0:0|0:0,0:0:0:0:
160,89,17386,21,0,0:0:0:0:
160,89,17554,2,0,L|170:184,1,95.9999970703126,0|0,0:0|0:0,0:0:0:0:
51,246,17891,6,0,B|89:237|123:258|123:258|161:281|205:261,1,143.999995605469,6|0,0:0|0:0,0:0:0:0:
204,252,18228,2,0,B|226:237|226:237|297:251,1,80,0|0,3:0|0:0,0:0:0:0:
340,310,18565,5,0,3:0:0:0:
400,166,18734,1,2,0:0:0:0:
422,299,18903,5,0,3:0:0:0:
320,174,19071,2,0,L|325:81,1,80,2|0,0:0|0:0,0:0:0:0:
386,36,19408,2,0,P|421:39|451:98,1,80,2|0,0:0|3:0,0:0:0:0:
320,174,19745,2,0,P|227:165|203:86,1,160,2|10,0:0|0:0,0:0:0:0:
75,350,20419,1,12,0:0:0:0:
143,301,20588,6,0,B|181:292|215:313|215:313|253:336|297:316,1,143.999995605469,2|0,0:0|0:0,0:0:0:0:
295,308,20925,2,0,P|348:317|366:363,1,80,0|0,3:0|0:0,0:0:0:0:
233,367,21262,1,0,3:0:0:0:
233,367,21431,2,0,P|209:318|224:271,1,80,2|0,0:0|3:0,0:0:0:0:
414,228,21768,69,10,0:0:0:0:
414,228,22105,1,12,0:0:0:0:
295,308,22273,1,8,0:0:0:0:
439,348,22442,1,8,0:3:0:0:
353,371,22610,5,8,0:3:0:0:
377,298,22779,1,4,0:3:0:0:
333,231,22948,1,4,0:3:0:0:
368,158,23116,1,8,0:0:0:0:
368,158,23285,1,0,0:0:0:0:
67,180,33734,6,0,P|112:181|145:153,1,71.9999978027344,0|0,0:0|0:0,0:0:0:0:
87,92,34071,6,0,B|40:63|40:63|71:197,1,176.000005371094,4|0,3:2|3:0,0:0:0:0:
155,311,34577,1,0,0:0:0:0:
224,258,34745,2,0,L|233:171,1,75.9999979705811,2|0,3:2|0:0,0:0:0:0:
234,339,35082,5,0,3:0:0:0:
149,193,35251,1,2,0:0:0:0:
181,112,35419,2,0,L|172:25,1,75.9999979705811,0|0,3:0|0:0,0:0:0:0:
231,182,35756,6,0,L|221:231,1,47.9999985351563,2|0,3:2|0:0,0:0:0:0:
264,106,36094,6,0,L|255:19,1,75.9999979705811,0|0,3:0|0:0,0:0:0:0:
317,177,36431,6,0,L|307:226,1,47.9999985351563,10|0,3:2|0:0,0:0:0:0:
400,93,36768,70,0,P|365:56|390:105,1,151.999995941162,12|0,0:0|3:0,0:0:0:0:
221,178,37273,6,0,P|267:128|231:190,1,207.999990478516,8|0,0:0|0:0,0:0:0:0:
434,261,37779,69,8,3:2:0:0:
434,261,37948,2,0,P|373:199|424:273,1,264.0000025177,12|8,0:0|0:0,0:0:0:0:
512,279,38453,1,8,3:2:0:0:
444,124,38622,1,0,0:0:0:0:
323,224,38790,1,0,3:0:0:0:
323,224,39127,1,10,0:0:0:0:
404,205,39296,1,14,0:0:0:0:
263,164,39464,70,0,B|226:154|192:176|192:176|148:203|109:179,1,151.999995941162,0|0,3:0|3:0,0:0:0:0:
69,119,39970,2,0,P|32:120|-2:167,1,75.9999979705811,0|0,0:0|3:0,0:0:0:0:
183,294,40307,2,0,L|199:193,1,75.9999979705811,0|0,0:0|3:0,0:0:0:0:
218,85,40644,1,0,0:0:0:0:
290,134,40813,6,0,L|264:299,1,151.999995941162,0|0,0:0|3:0,0:0:0:0:
194,218,41318,1,0,0:0:0:0:
199,335,41487,6,0,P|187:312|184:276,1,37.9999989852906,0|0,1:0|0:0,0:0:0:0:
117,253,41655,2,0,P|105:275|102:311,1,37.9999989852906,0|0,1:0|0:0,0:0:0:0:
35,332,41824,1,8,0:0:0:0:
109,169,41992,1,0,3:0:0:0:
232,288,42161,69,4,0:0:0:0:
232,288,42498,1,0,0:0:0:0:
210,205,42667,1,0,0:0:0:0:
173,350,42835,5,8,0:0:0:0:
288,228,43004,1,8,0:0:0:0:
132,180,43172,1,8,0:0:0:0:
288,228,43341,70,0,B|325:238|359:216|359:216|403:189|442:213,1,151.999995941162,12|0,0:0|3:0,0:0:0:0:
230,289,43846,2,0,P|205:247|222:195,1,75.9999979705811,8|0,0:0|0:0,0:0:0:0:
416,160,44183,5,8,0:0:0:0:
416,160,44296,2,0,P|430:198|431:241,1,50.6666653137207,8|8,0:0|0:0,0:0:0:0:
280,173,44521,1,8,0:3:0:0:
280,173,44633,2,0,P|295:151|315:134,1,53.3333333333333,8|8,0:3|0:3,0:0:0:0:
350,211,44858,6,0,B|308:175|252:195|252:195|169:214|100:148|144:60|214:51|270:81|271:163|271:163|269:247|284:300|386:314|420:246,1,671.999979492188,4|2,3:2|0:0,0:0:0:0:
274,358,47554,6,0,B|236:307|170:327|170:327|84:430|-40:393|-94:344|-47:154|56:138|186:185|133:313|57:299,1,671.999979492188,2|2,0:0|0:0,0:0:0:0:
81,25,50251,70,0,B|193:19|288:101|408:312|161:312|26:210|199:64|366:30,1,671.999979492188,2|0,0:0|2:0,0:0:0:0:
366,29,52948,5,2,0:0:0:0:
350,113,53622,69,0,0:0:0:0:
366,29,54296,5,2,0:0:0:0:
350,115,54970,69,14,0:0:0:0:
89,235,55476,53,0,0:0:0:0:
89,235,55560,1,0,0:0:0:0:
89,235,55644,2,0,B|68:107|68:107|88:139|138:145,1,191.999994140625,4|0,0:0|3:0,0:0:0:0:
153,350,56150,2,0,L|166:262,1,80,8|0,0:0|0:0,0:0:0:0:
89,235,56487,1,0,3:0:0:0:
226,148,56655,6,0,L|237:227,1,80,12|0,0:0|0:0,0:0:0:0:
237,227,56908,1,0,0:0:0:0:
237,227,56992,1,0,3:0:0:0:
71,154,57161,1,8,0:0:0:0:
71,154,57498,1,0,3:0:0:0:
215,61,57667,5,14,0:0:0:0:
151,188,57835,1,0,3:0:0:0:
141,105,58004,5,8,0:3:0:0:
298,177,58172,1,0,3:0:0:0:
168,268,58341,70,0,B|125:282|87:257|87:257|36:229|-4:259,1,160,12|0,0:0|3:0,0:0:0:0:
229,350,58846,2,0,L|253:265,1,80,8|0,0:0|0:0,0:0:0:0:
214,198,59183,1,0,3:0:0:0:
93,246,59352,6,0,P|147:269|192:260,1,80,12|0,0:0|0:0,0:0:0:0:
167,267,59689,1,0,3:0:0:0:
214,89,59858,1,8,0:0:0:0:
214,89,60195,1,0,3:0:0:0:
273,151,60363,5,14,0:0:0:0:
133,179,60532,1,0,0:0:0:0:
113,260,60700,5,8,0:3:0:0:
290,287,60869,1,0,3:0:0:0:
219,333,61037,69,14,0:0:0:0:
205,299,61206,1,0,3:0:0:0:
210,266,61374,1,0,0:0:0:0:
227,274,61543,5,10,0:0:0:0:
152,315,61712,1,0,3:0:0:0:
78,292,61880,1,0,3:0:0:0:
85,312,62049,69,14,0:0:0:0:
125,212,62218,1,0,0:0:0:0:
101,112,62386,1,0,3:0:0:0:
99,131,62554,5,10,0:0:0:0:
235,154,62723,1,8,0:3:0:0:
338,75,62891,1,4,0:3:0:0:
327,86,63060,70,0,B|307:215|307:215|323:186|353:175,1,191.999994140625,12|8,0:0|0:0,0:0:0:0:
427,237,63565,2,0,P|402:242|371:257,1,47.9999985351563
262,313,63734,21,4,3:0:0:0:
262,313,64071,1,0,3:0:0:0:
242,232,64240,1,0,0:0:0:0:
164,215,64408,1,8,0:0:0:0:
97,258,64577,1,0,0:0:0:0:
108,336,64745,6,0,P|165:300|162:212,1,160,0|0,3:0|3:0,0:0:0:0:
126,143,65251,1,0,0:0:0:0:
208,148,65419,6,0,L|226:52,1,80,2|0,3:2|0:0,0:0:0:0:
163,214,65756,2,0,L|198:386,1,160,2|8,3:2|0:0,0:0:0:0:
419,254,66262,5,4,3:2:0:0:
419,254,66599,1,0,3:0:0:0:
346,223,66768,1,8,0:0:0:0:
302,292,66936,5,2,0:0:0:0:
270,324,67020,1,0,0:0:0:0:
225,326,67104,1,10,0:0:0:0:
191,294,67188,1,0,0:0:0:0:
190,249,67273,1,2,0:0:0:0:
221,216,67357,1,0,0:0:0:0:
266,214,67441,1,2,0:0:0:0:
266,214,67610,1,10,0:0:0:0:
289,296,68116,38,0,P|206:288|255:221,1,200,0|0,0:0|0:0,0:0:0:0:
313,89,69127,22,0,B|288:297,1,207.999990478516,4|8,3:2|0:0,0:0:0:0:
216,182,69633,5,0,0:0:0:0:
216,182,69717,1,0,0:0:0:0:
216,182,69801,1,0,3:0:0:0:
335,296,69970,1,2,3:2:0:0:
297,148,70139,5,8,0:0:0:0:
253,314,70307,2,0,P|197:308|175:265,1,88.000002685547,2|0,3:2|0:0,0:0:0:0:
105,253,70644,1,0,3:0:0:0:
105,253,70813,2,0,L|285:228,2,176.000005371094,8|0|8,0:0|3:0|0:0,0:0:0:0:
53,98,71655,1,0,0:0:0:0:
53,98,71740,1,0,0:0:0:0:
53,98,71824,70,0,P|148:126|183:33,1,207.999990478516,2|8,3:2|0:0,0:0:0:0:
329,156,72330,1,0,0:0:0:0:
329,156,72414,1,0,0:0:0:0:
329,156,72498,1,0,3:0:0:0:
210,272,72667,1,2,0:0:0:0:
249,127,72835,5,8,0:0:0:0:
284,306,73004,2,0,B|327:326|368:299|368:299|417:270|462:295,1,176.000005371094,2|0,3:2|3:0,0:0:0:0:
317,228,73509,1,8,0:0:0:0:
342,150,73678,1,0,0:0:0:0:
342,150,73762,1,0,0:0:0:0:
342,150,73846,69,0,3:0:0:0:
317,228,74015,1,0,3:0:0:0:
350,301,74183,1,8,0:0:0:0:
424,329,74352,1,0,0:0:0:0:
473,178,74521,6,0,B|516:162|516:162|495:282|495:282|453:246,1,207.999990478516,6|8,3:2|0:0,0:0:0:0:
342,150,75026,1,0,0:0:0:0:
342,150,75110,1,0,0:0:0:0:
342,150,75195,1,0,3:0:0:0:
445,33,75363,1,2,3:2:0:0:
428,175,75532,5,8,0:0:0:0:
363,18,75700,2,0,B|340:78|341:152|341:152|326:114|280:102,1,207.999990478516,2|0,3:2|3:0,0:0:0:0:
215,155,76206,2,0,L|234:246,1,88.000002685547,8|0,0:0|0:0,0:0:0:0:
336,341,76543,6,0,P|294:318|222:334,1,88.000002685547,2|0,3:2|3:0,0:0:0:0:
134,179,76880,2,0,P|172:156|249:171,1,88.000002685547,8|0,0:0|3:0,0:0:0:0:
326,22,77217,69,14,0:0:0:0:
303,141,77386,1,0,0:0:0:0:
280,257,77554,1,0,3:0:0:0:
261,70,77723,5,10,0:0:0:0:
303,141,77891,1,0,0:0:0:0:
349,208,78060,1,0,3:2:0:0:
194,119,78228,5,10,0:0:0:0:
408,153,78397,1,6,3:2:0:0:
408,153,78734,69,0,3:0:0:0:
400,130,78903,1,10,0:0:0:0:
423,139,79071,1,0,0:0:0:0:
374,230,79240,5,0,3:0:0:0:
340,69,79408,1,2,0:0:0:0:
507,130,79577,2,0,L|491:222,1,88.000002685547,10|8,0:0|0:0,0:0:0:0:
396,333,79830,1,8,0:0:0:0:
396,333,79914,6,0,L|366:152,1,160,4|0,3:2|3:0,0:0:0:0:
344,44,80419,1,0,0:0:0:0:
344,44,80588,1,0,3:0:0:0:
268,77,80925,1,0,3:0:0:0:
332,129,81262,1,2,3:2:0:0:
409,99,81599,1,0,3:0:0:0:
399,180,81936,1,2,3:2:0:0:
125,121,82273,1,8,0:0:0:0:
125,121,82442,1,0,0:0:0:0:
194,177,82610,6,0,L|178:357,1,160,2|8,3:2|3:2,0:0:0:0:
11,263,83116,1,0,0:0:0:0:
11,263,83285,1,2,3:2:0:0:
87,225,83622,1,8,0:0:0:0:
162,257,83959,1,0,0:0:0:0:
179,336,84296,1,10,0:0:0:0:
101,308,84633,1,2,3:2:0:0:
351,100,84970,1,10,0:0:0:0:
277,134,85139,1,0,0:3:0:0:
222,74,85307,70,0,B|179:61|149:86|149:86|106:114|58:89,1,160,4|8,3:2|0:0,0:0:0:0:
177,227,85813,1,0,0:0:0:0:
177,227,85897,1,0,0:0:0:0:
177,227,85981,1,0,3:0:0:0:
202,150,86150,5,0,0:0:0:0:
52,201,86318,1,0,3:0:0:0:
152,302,86487,6,0,L|115:119,1,160,8|0,0:0|0:0,0:0:0:0:
280,99,86992,2,0,L|297:20,1,80,10|0,0:0|0:0,0:0:0:0:
100,63,87330,69,2,3:2:0:0:
200,123,87498,1,0,0:0:0:0:
120,145,87667,1,2,3:2:0:0:
182,42,87835,1,0,0:0:0:0:
38,121,88004,5,2,3:2:0:0:
182,206,88172,1,0,3:0:0:0:
53,203,88341,1,12,0:0:0:0:
200,123,88509,1,8,3:3:0:0:
200,123,88594,1,8,3:3:0:0:
327,301,88846,69,8,0:3:0:0:
398,271,89015,1,4,0:3:0:0:
470,242,89183,2,0,L|283:220,1,176.000005371094,12|8,0:0|0:3,0:0:0:0:
295,221,89605,1,8,0:3:0:0:
295,221,89689,5,4,0:0:0:0:
394,95,89858,1,8,0:3:0:0:
264,146,90026,1,10,0:3:0:0:
285,141,90110,1,0,0:0:0:0:
307,141,90194,1,8,0:3:0:0:
328,147,90278,1,0,0:0:0:0:
347,159,90363,1,4,0:3:0:0:
366,170,90447,1,0,0:0:0:0:
387,176,90531,1,4,0:3:0:0:
409,176,90615,1,0,0:0:0:0:
430,169,90700,1,4,3:2:0:0:
167,337,91037,5,0,3:0:0:0:
167,337,91206,1,0,3:0:0:0:
152,254,91374,1,8,0:0:0:0:
152,254,91712,5,0,0:0:0:0:
228,285,91880,1,0,0:0:0:0:
164,338,92049,1,0,3:0:0:0:
85,306,92217,1,8,0:0:0:0:
75,222,92386,1,0,3:0:0:0:
141,173,92554,1,0,3:0:0:0:
218,200,92723,69,8,0:0:0:0:
219,186,92891,1,0,3:0:0:0:
220,173,93060,1,0,0:0:0:0:
221,160,93228,1,0,3:0:0:0:
73,98,93397,5,0,3:0:0:0:
73,98,93734,1,0,3:0:0:0:
96,177,93903,1,0,3:0:0:0:
198,81,94071,1,8,0:0:0:0:
221,160,94240,1,0,3:0:0:0:
320,59,94408,1,8,0:0:0:0:
343,138,94577,1,0,0:0:0:0:
343,138,94661,1,0,0:0:0:0:
343,138,94745,1,4,3:2:0:0:
239,202,94914,69,0,0:0:0:0:
239,202,95082,2,0,B|275:191|304:211|304:211|336:230|379:212,2,128,8|2|2,0:0|0:0|0:0,0:0:0:0:
80,301,95925,5,0,0:0:0:0:
80,301,96009,1,0,0:0:0:0:
80,301,96094,1,6,3:2:0:0:
80,301,96431,1,0,3:0:0:0:
97,222,96599,1,2,3:2:0:0:
157,276,96768,69,8,0:0:0:0:
21,244,96936,1,2,3:2:0:0:
111,142,97105,1,0,0:0:0:0:
97,222,97273,1,2,0:0:0:0:
37,167,97442,5,0,3:0:0:0:
184,110,97610,1,8,0:0:0:0:
157,276,97779,1,0,3:0:0:0:
97,222,97948,69,2,3:2:0:0:
229,238,98116,1,14,0:0:0:0:
239,256,98285,1,0,3:0:0:0:
243,277,98453,1,0,0:0:0:0:
241,300,98622,2,0,L|293:292,1,32,8|8,0:3|0:3,0:0:0:0:
352,282,98790,53,6,3:2:0:0:
165,257,98959,1,0,3:0:0:0:
319,362,99127,5,8,0:0:0:0:
210,186,99296,1,0,3:0:0:0:
234,365,99464,69,8,0:0:0:0:
289,178,99633,1,8,0:3:0:0:
259,270,99801,1,4,3:0:0:0:
211,64,99970,5,14,0:0:0:0:
211,64,100307,1,0,0:0:0:0:
259,270,100476,1,0,0:0:0:0:
70,201,100644,1,8,3:2:0:0:
185,173,100813,69,8,3:2:0:0:
190,190,100981,1,8,3:2:0:0:
174,193,101150,1,8,3:2:0:0:
170,178,101318,1,8,3:2:0:0:
