osu file format v14

[General]
AudioFilename: audio.mp3
AudioLeadIn: 0
PreviewTime: 68116
Countdown: 0
SampleSet: Soft
StackLeniency: 0.6
Mode: 0
LetterboxInBreaks: 0
WidescreenStoryboard: 0

[Editor]
Bookmarks: 14352,15195,17386,17891,20588,23285,34071,42835,43341,44183,44858,52948,53453,53622,54127,54296,54801,54970,55644,62723,63734,66262,67610,68116,69127,77217,79914,88004,90700,94577,96094,101318
DistanceSpacing: 0.9
BeatDivisor: 4
GridSize: 4
TimelineZoom: 1.1

[Metadata]
Title:TriColour Heartbeat
TitleUnicode:三色绘恋
Artist:Yun Yi Xing Chen
ArtistUnicode:云翼星辰
Creator:Log Off Now
Version:Fine Art
Source:三色△绘恋 -Tricolour Lovestory-
Tags:chinese eroge visual novel vn opening sakuragame yamayuri hl-galgame maru project lights tricolour lovestory left proezreal naotoshi
BeatmapID:1429798
BeatmapSetID:675957

[Difficulty]
HPDrainRate:6
CircleSize:4
OverallDifficulty:8.5
ApproachRate:9
SliderMultiplier:1
SliderTickRate:1

[Events]
//Background and Video events
Video,0,"movie_max.avi"
0,0,"tricolourbg.jpg",0,0
//Break Periods
2,23485,32761
//Storyboard Layer 0 (Background)
//Storyboard Layer 1 (Fail)
//Storyboard Layer 2 (Pass)
//Storyboard Layer 3 (Foreground)
//Storyboard Sound Samples

[TimingPoints]
5757,337.078651685393,4,2,1,25,1,0
16880,-100,4,2,1,5,0,0
17386,-100,4,3,1,60,0,0
17891,-58.8235294117647,4,2,1,50,0,0
23285,-76.9230769230769,4,2,1,40,0,0
34071,-66.6666666666667,4,2,1,45,0,0
44521,-90.9090909090909,4,2,1,45,0,0
44858,-100,4,2,1,30,0,0
52948,-133.333333333333,4,2,1,30,0,0
53622,-117.647058823529,4,2,1,35,0,0
54296,-105.263157894737,4,2,1,40,0,0
54970,-100,4,2,1,40,0,0
55644,-66.6666666666667,4,2,1,40,0,1
55728,-66.6666666666667,4,2,1,40,0,0
58341,-66.6666666666667,4,2,1,40,0,1
58425,-66.6666666666667,4,2,1,40,0,0
61037,-66.6666666666667,4,2,1,40,0,1
61122,-66.6666666666667,4,2,1,40,0,0
69127,-52.6315789473684,4,2,1,60,0,1
90700,-66.6666666666667,4,2,1,50,0,0
94633,-66.6666666666667,4,2,1,35,0,0
94745,-66.6666666666667,4,2,1,50,0,0

[Colours]
Combo1 : 255,224,130
Combo2 : 151,151,255
Combo3 : 255,185,220
Combo4 : 140,255,140

[HitObjects]
123,14,5756,6,0,L|131:118,1,100,2|0,0:0|0:0,0:0:0:0:
197,174,6262,2,0,P|226:153|299:150,1,100
257,235,6768,2,0,P|220:257|202:258,1,50
120,208,7105,6,0,B|115:241|115:241|128:312,1,100,2|0,0:0|0:0,0:0:0:0:
201,353,7610,2,0,P|256:370|309:351,2,100
254,280,8453,6,0,P|302:269|348:286,1,100,2|0,0:0|0:0,0:0:0:0:
443,255,8959,2,0,L|450:155,1,100
361,122,9464,2,0,L|365:187,1,50
295,237,9801,6,0,P|248:254|200:243,1,100,2|0,0:0|0:0,0:0:0:0:
119,198,10307,2,0,L|126:298,1,100
44,334,10812,2,0,L|48:269,1,50
142,379,11150,6,0,P|190:389|236:372,1,100,2|0,0:0|0:0,0:0:0:0:
270,291,11655,2,0,B|244:257|244:257|251:180,1,100
333,231,12161,2,0,P|351:258|357:281,1,50
412,158,12498,6,0,L|419:58,1,100,2|0,0:0|0:0,0:0:0:0:
321,114,13004,2,0,P|272:123|226:106,1,100
138,50,13509,1,0,0:0:0:0:
138,50,13678,1,0,0:0:0:0:
143,143,13846,6,0,P|144:178|138:253,1,100,2|0,0:0|0:0,0:0:0:0:
131,335,14352,5,2,0:0:0:0:
168,379,14521,1,2,0:0:0:0:
226,381,14689,5,0,0:0:0:0:
266,339,14858,1,2,0:0:0:0:
260,281,15026,5,0,0:0:0:0:
175,238,15195,1,2,0:0:0:0:
256,192,15363,12,0,16880,0:0:0:0:
175,204,17386,5,0,0:0:0:0:
168,345,17554,1,0,0:0:0:0:
174,48,17891,6,0,P|237:4|338:46,1,170.000003242493,6|0,0:0|3:0,0:0:0:0:
265,190,18397,2,0,L|258:102,1,85.0000016212464,0|0,0:0|3:0,0:0:0:0:
361,227,18734,2,0,L|353:315,1,85.0000016212464,0|0,0:0|3:0,0:0:0:0:
176,378,19071,6,0,B|146:336|146:336|160:193,1,170.000003242493,2|0,0:0|0:0,0:0:0:0:
253,56,19577,2,0,L|261:144,1,85.0000016212464,0|2,3:0|0:0,0:0:0:0:
274,278,19914,1,0,3:0:0:0:
167,99,20082,1,10,0:0:0:0:
349,139,20251,1,0,3:0:0:0:
126,217,20419,1,12,0:0:0:0:
267,48,20588,6,0,B|353:72|353:10|441:41,1,170.000003242493,2|0,0:0|3:0,0:0:0:0:
393,217,21094,2,0,L|401:129,1,85.0000016212464,0|0,0:0|3:0,0:0:0:0:
474,270,21431,2,0,L|481:358,1,85.0000016212464,0|0,0:0|3:0,0:0:0:0:
297,274,21768,5,10,0:0:0:0:
469,236,21936,1,0,0:0:0:0:
316,382,22105,5,12,0:0:0:0:
282,177,22273,1,8,0:0:0:0:
384,280,22442,2,0,P|397:323|403:366,1,85.0000016212464,8|8,0:3|0:3,0:0:0:0:
254,180,22779,2,0,P|210:190|168:206,1,85.0000016212464,4|4,0:3|0:3,0:0:0:0:
92,375,23116,1,8,0:0:0:0:
48,264,23285,5,0,0:0:0:0:
100,359,34071,6,0,B|121:318|121:318|108:203,1,150.000005722046,4|0,3:2|3:0,0:0:0:0:
91,86,34577,1,0,0:0:0:0:
197,165,34745,2,0,P|238:175|284:163,1,75.0000028610231,0|0,3:0|0:0,0:0:0:0:
227,5,35082,2,0,L|236:80,1,75.0000028610231,0|0,3:0|0:0,0:0:0:0:
352,237,35419,6,0,B|363:133|363:133|342:92,1,150.000005722046,0|0,3:0|3:0,0:0:0:0:
227,5,35925,1,0,0:0:0:0:
189,171,36094,2,0,B|202:327|202:327,1,150.000005722046,0|8,3:0|3:2,0:0:0:0:
274,190,36599,1,0,0:0:0:0:
115,280,36768,6,0,B|123:378,1,75.0000028610231,12|0,0:0|0:0,0:0:0:0:
19,221,37105,1,0,3:0:0:0:
187,154,37273,2,0,B|261:160,1,75.0000028610231,8|0,0:0|3:0,0:0:0:0:
436,176,37610,1,0,0:0:0:0:
324,66,37779,1,8,3:2:0:0:
342,275,37948,6,0,B|350:373,1,75.0000028610231,12|0,0:0|3:0,0:0:0:0:
226,249,38285,1,8,0:0:0:0:
436,176,38453,1,8,3:2:0:0:
285,163,38622,1,0,0:0:0:0:
430,257,38790,2,0,P|477:246|503:221,1,75.0000028610231,0|0,3:0|0:0,0:0:0:0:
441,95,39127,2,0,P|394:106|368:131,1,75.0000028610231,8|12,0:0|0:0,0:0:0:0:
276,298,39464,6,0,L|264:140,1,150.000005722046,0|0,3:0|3:0,0:0:0:0:
251,5,39970,1,0,0:0:0:0:
147,110,40139,2,0,P|116:131|80:137,1,75.0000028610231,0|0,3:0|0:0,0:0:0:0:
78,36,40476,1,0,3:0:0:0:
191,198,40644,6,0,L|179:356,1,150.000005722046
103,232,41150,1,0,3:0:0:0:
272,267,41318,2,0,P|308:258|335:234,1,75.0000028610231,0|0,0:0|3:0,0:0:0:0:
409,131,41655,1,0,0:0:0:0:
397,316,41824,1,8,0:0:0:0:
249,259,41992,1,0,3:0:0:0:
459,230,42161,6,0,P|501:299|490:367,1,150.000005722046,12|0,0:0|0:0,0:0:0:0:
328,383,42667,1,0,0:0:0:0:
376,221,42835,1,8,0:0:0:0:
221,283,43004,1,8,0:0:0:0:
412,366,43172,1,8,0:0:0:0:
287,146,43341,6,8,L|291:244,1,75.0000028610231,12|0,0:0|0:0,0:0:0:0:
298,384,43678,1,0,3:0:0:0:
194,265,43846,2,0,P|119:247|77:271,1,112.500004291535,8|0,0:0|0:0,0:0:0:0:
69,284,44183,6,8,L|61:367,2,50.0000019073487
132,162,44521,6,8,L|128:120,2,36.6666677856446,8|8|8,0:3|0:3|0:3,0:3:0:0:
159,370,44858,5,4,3:2:0:0:
159,370,45195,2,0,P|165:344|163:313,1,50,0|0,0:0|0:0,0:0:0:0:
130,240,45532,2,0,P|156:234|186:236,1,50,0|0,2:0|2:0,2:0:0:0:
257,278,45869,2,0,P|283:284|313:282,1,50,0|0,2:0|2:0,2:0:0:0:
388,245,46206,1,0,0:0:0:0:
468,283,46374,2,0,P|470:337|461:393,2,100
442,173,47217,1,2,0:0:0:0:
280,280,47554,5,2,0:0:0:0:
280,280,47891,2,0,P|255:279|230:285,1,50,0|0,2:0|2:0,2:0:0:0:
160,340,48228,2,0,P|135:341|110:335,1,50,0|0,2:0|2:0,2:0:0:0:
84,248,48565,2,0,P|89:223|88:198,1,50,0|0,2:0|2:0,2:0:0:0:
48,108,48903,1,0,0:0:0:0:
141,62,49071,2,0,P|202:70|259:64,2,100
52,14,49914,1,2,0:0:0:0:
80,231,50251,5,2,0:0:0:0:
80,231,50588,2,0,P|128:199|188:207,1,100,0|0,0:0|0:0,0:0:0:0:
252,233,51094,1,0,0:0:0:0:
328,186,51262,2,0,P|352:180|377:181,1,50,0|0,2:0|2:0,2:0:0:0:
448,236,51599,1,0,0:0:0:0:
507,168,51768,2,0,P|511:113|502:50,2,100,0|0|0,0:0|0:0|0:0,0:0:0:0:
433,254,52610,2,0,P|431:278|437:303,1,50,0|0,2:0|2:0,2:0:0:0:
356,359,52948,6,0,P|298:339|236:351,1,112.500004291535,2|0,0:0|0:0,0:0:0:0:
149,331,53622,6,0,B|132:268|171:268|149:197,1,127.50000243187,2|0,0:0|0:0,0:0:0:0:
140,93,54296,6,0,P|191:104|246:80,1,94.9999974632264,2|0,0:0|0:0,0:0:0:0:
331,55,54801,1,0,3:0:0:0:
331,55,54886,1,0,3:0:0:0:
331,55,54970,6,0,B|356:139|293:139|326:228,1,166.666666666667,14|8,0:0|0:0,0:0:0:0:
333,256,55644,6,0,L|239:250,1,75.0000028610231,4|0,0:0|3:0,3:0:0:0:
70,241,55981,1,0,3:0:0:0:
181,110,56150,2,0,L|175:204,1,75.0000028610231,8|0,0:0|0:0,0:0:0:0:
164,369,56487,1,0,3:0:0:0:
333,256,56655,2,0,L|327:160,1,75.0000028610231,12|0,0:0|0:0,0:0:0:0:
283,13,56992,1,0,3:0:0:0:
150,132,57161,2,0,L|144:226,1,75.0000028610231,8|0,0:0|0:0,0:0:0:0:
136,384,57498,1,0,3:0:0:0:
256,193,57667,5,12,0:0:0:0:
50,234,57835,1,0,3:0:0:0:
222,349,58004,1,8,0:3:0:0:
77,325,58172,1,0,3:0:0:0:
278,217,58341,6,0,L|364:221,1,75.0000028610231,12|0,0:0|0:0,0:0:0:0:
512,235,58678,1,0,3:0:0:0:
365,83,58846,2,0,L|277:87,1,75.0000028610231,8|0,0:0|0:0,0:0:0:0:
120,94,59183,1,0,3:0:0:0:
247,248,59352,2,0,L|334:252,1,75.0000028610231,12|0,0:0|0:0,0:0:0:0:
502,259,59689,1,0,3:0:0:0:
372,134,59858,1,8,0:0:0:0:
419,365,60026,1,8,0:0:0:0:
437,195,60195,1,0,3:0:0:0:
331,342,60363,5,12,0:0:0:0:
502,384,60532,1,0,0:0:0:0:
406,279,60700,1,8,0:3:0:0:
245,358,60869,1,0,3:0:0:0:
342,144,61037,6,0,L|337:232,1,75.0000028610231,12|0,0:0|3:0,0:0:0:0:
328,382,61374,1,0,0:0:0:0:
230,95,61543,2,0,L|236:183,1,75.0000028610231,8|0,0:0|3:0,0:0:0:0:
244,333,61880,1,0,3:0:0:0:
129,49,62049,2,0,L|124:136,1,75.0000028610231,12|0,0:0|0:0,0:0:0:0:
115,296,62386,1,0,3:0:0:0:
32,160,62554,1,8,0:0:0:0:
240,102,62723,5,8,0:3:0:0:
237,136,62807,1,8,0:3:0:0:
235,169,62891,1,4,0:3:0:0:
234,204,62975,1,4,0:3:0:0:
233,238,63060,2,0,L|229:325,1,75.0000028610231,12|0,0:0|0:0,0:0:0:0:
388,197,63397,2,0,L|382:110,1,75.0000028610231,8|0,0:0|0:0,0:0:0:0:
321,265,63734,6,0,P|359:289|469:246,2,150.000005722046,4|0|8,3:0|3:0|0:0,0:0:0:0:
238,206,64577,1,0,0:0:0:0:
160,268,64745,2,0,L|165:363,1,75.0000028610231,0|0,3:0|0:0,0:0:0:0:
68,261,65082,1,0,3:0:0:0:
238,206,65251,5,0,0:0:0:0:
80,157,65419,1,0,3:0:0:0:
160,268,65588,1,0,0:0:0:0:
172,84,65756,2,0,L|178:-11,1,75.0000028610231,0|0,3:0|0:0,0:0:0:0:
64,170,66094,1,8,0:0:0:0:
263,139,66262,2,0,P|310:134|355:138,1,75.0000028610231,4|0,3:2|0:0,0:0:0:0:
497,201,66599,1,0,3:0:0:0:
454,44,66768,1,8,0:0:0:0:
365,234,66936,6,0,L|369:275,1,37.5000014305115,2|0,0:0|0:0,0:0:0:0:
263,139,67105,2,0,L|267:99,1,37.5000014305115,10|0,0:0|0:0,0:0:0:0:
151,284,67273,5,2,0:0:0:0:
153,321,67358,1,2,0:0:0:0:
155,358,67442,1,2,0:0:0:0:
138,115,67610,1,10,0:0:0:0:
138,115,68116,5,2,0:0:0:0:
150,140,68453,5,2,0:0:0:0:
162,165,68790,5,2,0:0:0:0:
174,190,69127,6,2,P|264:222|350:152,1,189.999994926453,6|10,3:2|0:0,0:0:0:0:
254,17,69633,2,0,L|250:112,1,94.9999974632264,2|0,0:0|3:0,0:0:0:0:
160,305,69970,2,0,L|154:209,1,94.9999974632264,2|8,3:2|0:0,0:0:0:0:
61,27,70307,2,0,L|54:132,1,94.9999974632264,2|0,3:2|0:0,0:0:0:0:
46,281,70644,1,0,3:0:0:0:
174,189,70813,6,0,P|221:180|276:205,1,94.9999974632264,10|0,0:0|0:0,0:0:0:0:
392,273,71150,2,0,P|439:282|497:254,1,94.9999974632264,2|0,3:2|3:0,0:0:0:0:
352,78,71487,2,0,L|357:178,1,94.9999974632264,10|0,0:2|0:0,0:0:0:0:
237,366,71824,6,0,L|251:174,1,189.999994926453,2|8,3:2|0:0,0:0:0:0:
136,76,72330,2,0,P|95:65|33:80,1,94.9999974632264,2|0,0:0|3:0,0:0:0:0:
139,186,72667,1,2,0:0:0:0:
241,57,72835,1,8,0:0:0:0:
351,195,73004,6,0,L|362:385,1,189.999994926453,2|0,3:2|3:0,0:0:0:0:
484,294,73509,2,0,L|491:198,1,94.9999974632264,8|0,0:0|0:0,0:0:0:0:
505,42,73846,1,0,3:0:0:0:
378,174,74015,1,2,3:2:0:0:
351,13,74183,1,10,0:0:0:0:
495,172,74352,1,2,0:0:0:0:
274,166,74521,6,0,B|190:140|183:208|87:172,1,189.999994926453,2|8,3:2|0:0,0:0:0:0:
144,0,75026,2,0,L|139:98,1,94.9999974632264,2|0,0:0|3:0,0:0:0:0:
301,179,75363,2,0,L|294:83,1,94.9999974632264,2|8,3:2|0:0,0:0:0:0:
106,201,75700,2,0,L|99:295,1,94.9999974632264,2|0,3:2|0:0,0:0:0:0:
23,146,76037,1,0,3:0:0:0:
208,219,76206,6,0,P|256:227|313:211,1,94.9999974632264,10|0,0:0|0:0,0:0:0:0:
457,97,76543,2,0,L|452:0,1,94.9999974632264,2|0,3:2|3:0,3:0:0:0:
328,208,76880,2,0,L|322:305,1,94.9999974632264,10|0,0:0|3:0,0:0:0:0:
429,81,77217,6,0,P|342:52|249:74,1,189.999994926453,14|0,0:0|3:0,0:0:0:0:
149,296,77723,1,8,0:0:0:0:
68,55,77891,1,2,0:0:0:0:
281,287,78060,1,2,3:2:0:0:
21,235,78228,1,8,0:0:0:0:
295,183,78397,6,0,B|375:161|375:227|482:189,1,189.999994926453,6|0,3:2|3:0,0:0:0:0:
426,0,78903,2,0,L|422:115,1,94.9999974632264,10|0,0:0|0:0,0:0:0:0:
415,305,79240,1,2,3:2:0:0:
272,174,79408,1,0,0:0:0:0:
506,193,79577,1,10,0:0:0:0:
238,260,79745,1,8,0:0:0:0:
238,260,79830,1,8,0:0:0:0:
238,260,79914,6,0,P|182:205|225:95,1,189.999994926453,4|0,3:2|3:0,0:0:0:0:
348,206,80419,2,0,L|344:321,1,94.9999974632264,2|0,0:0|3:0,0:0:0:0:
150,375,80756,2,0,P|197:384|242:373,1,94.9999974632264,2|0,0:0|3:0,0:0:0:0:
43,223,81094,2,0,L|37:319,1,94.9999974632264,2|0,0:0|3:0,0:0:0:0:
178,199,81431,1,0,0:0:0:0:
114,49,81599,6,0,L|108:145,1,94.9999974632264,2|0,3:2|0:0,0:0:0:0:
186,315,81936,2,2,L|180:219,1,94.9999974632264,2|0,3:2|0:0,0:0:0:0:
265,71,82273,2,0,P|311:59|360:71,1,94.9999974632264,10|0,0:0|0:0,0:0:0:0:
392,216,82610,6,0,B|300:191|300:252|207:225,1,189.999994926453,2|8,3:2|3:2,3:0:0:0:
30,164,83116,1,2,0:0:0:0:
132,295,83285,1,0,3:2:0:0:
145,114,83453,2,0,L|152:18,1,94.9999974632264,2|8,0:0|0:0,0:0:0:0:
285,178,83790,6,0,L|300:372,1,189.999994926453,2|0,0:0|0:0,0:0:0:0:
400,281,84296,2,0,P|447:268|495:285,1,94.9999974632264,10|0,0:0|0:0,0:0:0:0:
272,377,84633,2,0,P|224:389|175:376,1,94.9999974632264,2|0,3:2|0:0,0:0:0:0:
101,225,84970,1,10,0:0:0:0:
51,371,85139,1,0,0:3:0:0:
254,244,85307,6,0,L|247:150,1,94.9999974632264,6|0,3:2|0:0,0:0:0:0:
241,6,85644,1,8,0:0:0:0:
141,122,85813,2,0,L|135:231,1,94.9999974632264,2|0,0:0|3:0,0:0:0:0:
126,361,86150,2,0,P|70:371|32:359,1,94.9999974632264,2|0,0:0|3:0,0:0:0:0:
113,201,86487,1,10,0:0:0:0:
305,285,86655,6,0,P|347:297|400:280,1,94.9999974632264,2|0,3:2|0:0,0:0:0:0:
342,89,86992,2,0,L|346:183,1,94.9999974632264,10|0,0:0|0:0,0:0:0:0:
489,313,87330,6,0,L|481:419,2,63.3333316421509,2|0|0,3:2|0:0|0:0,0:0:0:0:
512,161,87667,2,0,L|506:95,2,63.3333316421509,2|0|0,3:2|0:0|0:0,0:0:0:0:
340,53,88004,5,2,3:2:0:0:
441,226,88172,1,0,3:0:0:0:
499,19,88341,1,12,0:0:0:0:
352,168,88509,1,8,3:3:0:0:
349,197,88593,1,8,3:3:0:0:
347,227,88677,1,8,3:3:0:0:
197,367,88846,5,8,0:3:0:0:
194,338,88930,1,8,0:3:0:0:
192,308,89014,1,4,0:3:0:0:
189,279,89099,1,4,0:3:0:0:
187,249,89183,2,0,P|117:198|65:285,1,189.999994926453,12|8,0:0|0:3,0:0:0:0:
62,296,89605,1,8,0:3:0:0:
63,325,89689,5,4,0:0:0:0:
80,87,89858,1,8,0:3:0:0:
273,211,90026,1,8,0:3:0:0:
220,58,90195,1,8,0:3:0:0:
86,234,90363,1,4,0:3:0:0:
162,152,90532,1,4,0:3:0:0:
6,185,90700,6,0,P|-9:238|45:321,1,150.000005722046,4|0,3:2|3:0,0:0:0:0:
147,292,91206,1,0,3:0:0:0:
255,367,91374,2,0,B|324:384|324:333|417:355,1,150.000005722046,8|0,0:0|0:0,0:0:0:0:
512,383,91880,1,0,0:0:0:0:
497,217,92049,5,0,3:0:0:0:
409,330,92217,1,8,0:0:0:0:
283,260,92386,1,0,3:0:0:0:
427,339,92554,1,0,3:0:0:0:
379,163,92723,1,8,0:0:0:0:
268,278,92891,2,0,P|216:292|187:287,1,75.0000028610231,0|0,3:0|0:0,0:0:0:0:
131,187,93228,1,0,3:0:0:0:
12,235,93397,6,0,L|18:394,1,150.000005722046,0|0,3:0|3:0,0:0:0:0:
115,286,93903,1,0,3:0:0:0:
9,206,94071,1,8,0:0:0:0:
135,301,94240,1,0,3:0:0:0:
168,117,94408,6,0,P|204:88|252:100,1,100.000003814697,8|8,0:0|0:0,0:0:0:0:
264,124,94745,5,4,3:2:0:0:
276,149,95082,5,8,0:0:0:0:
371,61,95419,5,2,0:0:0:0:
383,36,95756,5,2,0:0:0:0:
502,92,96094,6,0,L|496:251,1,150.000005722046,6|0,3:2|3:0,0:0:0:0:
396,354,96599,2,0,L|392:249,1,75.0000028610231,2|8,3:2|0:0,0:0:0:0:
303,183,96936,2,0,L|299:288,1,75.0000028610231,2|0,3:2|0:0,0:0:0:0:
213,378,97273,2,0,L|209:273,1,75.0000028610231,2|0,0:0|3:0,0:0:0:0:
203,146,97610,5,8,0:0:0:0:
118,294,97779,1,0,3:0:0:0:
282,193,97948,1,2,3:2:0:0:
74,206,98116,2,0,L|-31:210,1,75.0000028610231,14|0,0:0|3:0,0:0:0:0:
118,294,98453,1,0,0:0:0:0:
154,123,98622,1,8,0:3:0:0:
154,123,98706,1,8,0:3:0:0:
154,123,98790,5,6,3:2:0:0:
220,283,98959,1,0,3:0:0:0:
230,59,99127,1,8,0:0:0:0:
132,265,99296,1,0,3:0:0:0:
74,42,99464,1,8,0:0:0:0:
243,163,99633,1,8,0:3:0:0:
50,206,99801,1,4,3:0:0:0:
230,59,99970,6,0,B|304:28|304:89|398:52,1,150.000005722046,14|0,0:0|0:0,0:0:0:0:
498,7,100476,1,0,0:0:0:0:
393,179,100644,1,8,3:2:0:0:
230,59,100813,1,8,3:2:0:0:
196,253,100981,1,8,3:2:0:0:
393,179,101150,1,8,3:2:0:0:
123,140,101318,1,8,3:2:0:0:
