osu file format v14

[General]
AudioFilename: audio.mp3
AudioLeadIn: 0
PreviewTime: 68116
Countdown: 0
SampleSet: Soft
StackLeniency: 0.6
Mode: 0
LetterboxInBreaks: 0
WidescreenStoryboard: 0

[Editor]
Bookmarks: 14352,15195,17386,17891,20588,23285,34071,42835,43341,44183,44858,52948,53453,53622,54127,54296,54801,54970,55644,62723,63734,66262,67610,68116,69127,77217,79914,88004,90700,94577,96094,101318
DistanceSpacing: 1.6
BeatDivisor: 4
GridSize: 4
TimelineZoom: 1.1

[Metadata]
Title:TriColour Heartbeat
TitleUnicode:三色绘恋
Artist:Yun Yi Xing Chen
ArtistUnicode:云翼星辰
Creator:Log Off Now
Version:Ezreal's Hard
Source:三色△绘恋 -Tricolour Lovestory-
Tags:chinese eroge visual novel vn opening sakuragame yamayuri hl-galgame maru project lights tricolour lovestory left proezreal naotoshi
BeatmapID:1451267
BeatmapSetID:675957

[Difficulty]
HPDrainRate:5
CircleSize:4
OverallDifficulty:6
ApproachRate:8
SliderMultiplier:1.2
SliderTickRate:1

[Events]
//Background and Video events
0,0,"tricolourbg.jpg",0,0
Video,0,"movie_max.avi"
//Break Periods
//Storyboard Layer 0 (Background)
//Storyboard Layer 1 (Fail)
//Storyboard Layer 2 (Pass)
//Storyboard Layer 3 (Foreground)
//Storyboard Sound Samples

[TimingPoints]
5757,337.078651685393,4,2,1,30,1,0
5757,-125,4,2,1,30,0,0
17891,-100,4,2,1,50,0,0
23285,-125,4,2,1,40,0,0
33734,-100,4,2,1,50,0,0
44858,-125,4,2,1,30,0,0
55644,-100,4,2,1,50,0,0
69127,-90.9090909090909,4,2,1,70,0,1
90700,-100,4,2,1,50,0,0

[Colours]
Combo1 : 255,224,130
Combo2 : 151,151,255
Combo3 : 255,185,220
Combo4 : 140,255,140

[HitObjects]
44,52,5757,6,0,P|84:84|140:68,1,96,2|0,0:0|0:0,0:0:0:0:
172,140,6262,2,0,P|212:108|268:124,1,96,0|0,0:0|0:0,0:0:0:0:
296,48,6768,1,0,0:0:0:0:
416,144,7105,6,0,L|300:156,1,96,2|0,0:0|0:0,0:0:0:0:
264,208,7610,2,0,L|148:196,1,96,0|0,0:0|0:0,0:0:0:0:
112,148,8116,1,0,0:0:0:0:
112,148,8453,6,0,P|152:188|140:244,1,96,2|0,0:0|0:0,0:0:0:0:
208,276,8959,2,0,P|168:316|180:372,1,96,0|0,0:0|0:0,0:0:0:0:
96,380,9464,1,0,0:0:0:0:
12,252,9801,6,0,L|128:240,1,96,2|0,0:0|0:0,0:0:0:0:
160,184,10307,2,0,L|276:196,1,96,0|0,0:0|0:0,0:0:0:0:
320,232,10813,1,0,0:0:0:0:
320,232,11150,6,0,P|356:184|336:136,1,96,2|0,0:0|0:0,0:0:0:0:
415,113,11655,2,0,P|379:65|399:17,1,96,0|0,0:0|0:0,0:0:0:0:
309,25,12161,1,0,0:0:0:0:
152,20,12498,6,0,L|144:128,1,96,2|0,0:0|0:0,0:0:0:0:
208,160,13004,2,0,L|216:268,1,96,0|0,0:0|0:0,0:0:0:0:
160,308,13509,1,0,0:0:0:0:
160,308,13678,1,0,0:0:0:0:
208,368,13846,6,0,L|320:364,1,96,2|0,0:0|0:0,0:0:0:0:
372,324,14352,1,2,0:0:0:0:
416,260,14521,2,0,P|424:224|424:200,1,48,2|0,0:0|0:0,0:0:0:0:
368,164,14858,2,0,P|360:128|360:104,1,48,2|0,0:0|0:0,0:0:0:0:
392,48,15195,1,2,0:0:0:0:
256,192,15363,12,0,16543,0:0:0:0:
144,160,17386,5,8,0:0:0:0:
300,124,17554,1,8,0:0:0:0:
304,128,17891,6,0,L|300:248,1,120,6|0,0:0|3:0,0:0:0:0:
220,224,18397,2,0,L|228:296,1,60,0|0,0:0|3:0,0:0:0:0:
144,268,18734,2,0,L|136:340,1,60,0|0,0:0|3:0,0:0:0:0:
56,340,19071,6,0,P|32:280|68:220,1,120,2|0,0:0|0:0,0:0:0:0:
120,180,19577,1,0,3:0:0:0:
120,180,19745,2,0,P|155:183|184:176,1,60,2|0,0:0|3:0,0:0:0:0:
252,132,20082,2,0,P|288:128|316:136,1,60,10|0,0:0|3:0,0:0:0:0:
436,162,20419,1,12,0:0:0:0:
380,99,20588,6,0,L|387:236,1,120,2|0,0:0|3:0,0:0:0:0:
303,201,21094,2,0,L|311:272,1,60,0|0,0:0|3:0,0:0:0:0:
228,236,21431,2,0,L|224:310,1,60,0|0,0:0|3:0,0:0:0:0:
281,358,21768,6,0,P|344:372|405:326,1,120,10|12,0:0|0:0,0:0:0:0:
440,279,22273,2,0,L|434:210,1,60,8|8,0:0|0:3,0:0:0:0:
458,138,22610,1,8,0:3:0:0:
396,80,22779,1,4,0:3:0:0:
314,101,22948,1,4,0:3:0:0:
295,182,23116,1,8,0:0:0:0:
376,159,23285,6,0,P|372:214|297:264,1,144,0|0,0:0|0:0,0:0:0:0:
232,237,23959,2,0,P|183:224|127:254,1,96,0|0,0:0|0:0,0:0:0:0:
75,277,24464,1,0,0:0:0:0:
18,224,24633,6,0,L|13:126,1,96,0|0,0:0|0:0,0:0:0:0:
132,32,25307,2,0,L|127:130,1,96,0|0,0:0|0:0,0:0:0:0:
232,240,25981,6,0,L|224:92,2,144,0|0|0,0:0|0:0|0:0,0:0:0:0:
324,364,27330,2,0,P|368:364|388:356,1,48,0|0,0:0|0:0,0:0:0:0:
348,288,27667,1,0,0:0:0:0:
348,288,27835,1,0,0:0:0:0:
372,216,28004,2,0,P|348:212|324:215,1,48,0|0,0:0|0:0,0:0:0:0:
268,268,28341,2,0,P|244:271|220:268,1,48,0|0,0:0|0:0,0:0:0:0:
108,224,28678,6,0,P|144:268|100:348,2,144,0|0|0,0:0|0:0|0:0,0:0:0:0:
12,104,30026,2,0,L|124:96,1,96,0|0,0:0|0:0,0:0:0:0:
176,128,30532,2,0,L|284:136,1,96,0|0,0:0|0:0,0:0:0:0:
336,92,31037,1,0,0:0:0:0:
336,92,31206,1,0,0:0:0:0:
420,168,31374,6,0,L|416:280,1,96,0|0,0:0|0:0,0:0:0:0:
460,328,31880,2,0,P|404:312|356:328,1,96,0|0,0:0|0:0,0:0:0:0:
308,368,32386,1,0,0:0:0:0:
308,368,32554,1,0,0:0:0:0:
224,296,32723,6,0,L|232:188,1,96,0|0,0:0|0:0,0:0:0:0:
284,145,33228,2,0,P|240:125|188:137,1,96,0|0,0:0|0:0,0:0:0:0:
130,204,33734,2,0,L|125:258,3,30,0|0|0|0,0:0|0:0|0:0|0:0,0:0:0:0:
103,276,34071,6,0,L|228:269,1,120,4|0,3:2|3:0,0:0:0:0:
412,237,34745,2,0,L|408:317,1,60,0|0,3:0|0:0,0:0:0:0:
349,372,35082,1,0,3:0:0:0:
303,287,35251,2,0,L|308:154,1,120,0|0,0:0|0:0,0:0:0:0:
301,71,35756,2,0,P|262:73|238:61,1,60,0|0,3:0|0:0,0:0:0:0:
149,45,36094,2,0,P|169:76|171:104,1,60,0|0,3:0|0:0,0:0:0:0:
202,189,36431,2,0,P|219:154|241:139,1,60,8|0,3:2|0:0,0:0:0:0:
244,257,36768,6,0,P|187:266|126:216,1,120,12|0,0:0|3:0,0:0:0:0:
59,171,37273,2,0,L|66:312,1,120,8|0,0:0|0:0,0:0:0:0:
41,383,37779,1,8,3:2:0:0:
155,368,37948,2,0,L|289:359,1,120,12|8,0:0|0:0,0:0:0:0:
360,316,38453,2,0,P|396:328|426:326,1,60,8|0,3:2|0:0,0:0:0:0:
482,255,38790,2,0,P|474:217|457:192,1,60,0|0,3:0|0:0,0:0:0:0:
368,180,39127,2,0,P|339:205|326:232,1,60,8|12,0:0|0:0,0:0:0:0:
360,316,39464,6,0,L|221:323,1,120,0|0,3:0|3:0,0:0:0:0:
163,263,39970,2,0,L|157:342,1,60,0|0,0:0|3:0,0:0:0:0:
242,246,40307,2,0,L|236:167,1,60,0|0,0:0|3:0,0:0:0:0:
177,122,40644,2,0,P|246:134|296:96,1,120,0|0,0:0|0:0,0:0:0:0:
336,28,41150,1,0,3:0:0:0:
336,28,41318,1,0,0:0:0:0:
416,80,41487,2,0,L|412:212,1,120,0|8,3:0|0:0,0:0:0:0:
463,280,41992,1,0,3:0:0:0:
365,346,42161,6,0,L|282:343,1,60,12|0,0:0|0:0,0:0:0:0:
232,280,42498,1,0,0:0:0:0:
232,280,42667,1,0,0:0:0:0:
145,321,42835,2,0,L|150:394,2,60,8|8|8,0:0|0:0|0:0,0:0:0:0:
94,238,43341,2,0,L|106:108,1,120,12|0,0:0|3:0,0:0:0:0:
177,55,43846,1,8,0:0:0:0:
177,55,44183,6,0,L|174:5,2,40,8|8|8,0:0|0:0|0:0,0:0:0:0:
181,108,44521,2,0,P|220:131|297:101,1,120,8|4,0:3|3:2,0:0:0:0:
422,34,45195,5,0,0:0:0:0:
422,34,45363,1,0,0:0:0:0:
470,93,45532,2,0,L|466:155,1,48,0|0,2:0|2:0,0:0:0:0:
407,190,45869,2,0,L|411:252,1,48,0|0,2:0|2:0,0:0:0:0:
461,295,46206,2,0,P|402:282|355:310,1,96,0|0,0:0|0:0,0:0:0:0:
304,333,46712,2,0,P|245:346|198:318,1,96,0|0,0:0|0:0,0:0:0:0:
170,269,47217,1,2,0:0:0:0:
307,199,47554,5,2,0:0:0:0:
307,199,47891,2,0,L|371:204,1,48,0|0,2:0|2:0,0:0:0:0:
412,152,48228,1,0,2:0:0:0:
412,152,48397,2,0,P|421:93|405:53,1,96,0|0,2:0|2:0,0:0:0:0:
336,40,48903,1,0,0:0:0:0:
336,40,49071,2,0,P|306:48|272:68,1,48,0|0,0:0|0:0,0:0:0:0:
300,132,49408,2,0,P|260:107|198:114,1,96,0|0,0:0|0:0,0:0:0:0:
164,168,49914,1,2,0:0:0:0:
151,329,50251,5,2,0:0:0:0:
151,329,50588,2,0,L|262:325,1,96,0|0,0:0|0:0,0:0:0:0:
313,287,51094,1,0,0:0:0:0:
313,287,51262,2,0,P|346:301|377:301,1,48,0|0,2:0|2:0,0:0:0:0:
428,270,51599,1,0,0:0:0:0:
428,270,51768,2,0,L|432:370,2,96,0|0|0,0:0|0:0|0:0,0:0:0:0:
451,197,52610,2,0,P|456:156|453:135,1,48,0|0,2:0|2:0,0:0:0:0:
439,73,52948,6,0,B|413:39|413:39|389:101|322:97,1,144,2|0,0:0|0:0,0:0:0:0:
264,72,53622,6,0,P|291:112|213:163,1,144,2|0,0:0|0:0,0:0:0:0:
163,136,54296,6,0,B|140:126|128:105|128:105|137:216,1,144,2|0,0:0|3:0,0:0:0:0:
184,260,54970,6,0,P|154:274|114:274,2,64,14|0|0,0:0|0:0|0:0,0:0:0:0:
302,210,55644,6,0,L|375:212,1,60,4|0,0:0|3:0,0:0:0:0:
432,276,55981,1,0,3:0:0:0:
372,351,56150,2,0,L|299:349,1,60,8|0,0:0|0:0,0:0:0:0:
231,295,56487,1,0,3:0:0:0:
86,354,56655,2,0,L|159:352,1,60,12|0,0:0|0:0,0:0:0:0:
231,295,56992,5,0,3:0:0:0:
157,232,57161,2,0,L|155:165,1,60,8|0,0:0|0:0,0:0:0:0:
205,89,57498,1,0,3:0:0:0:
316,81,57667,2,0,P|263:104|192:78,1,120,12|8,0:0|0:3,0:0:0:0:
124,37,58172,1,0,3:0:0:0:
44,141,58341,6,0,L|43:216,1,60,12|0,0:0|0:0,0:0:0:0:
99,278,58678,1,0,3:0:0:0:
169,212,58846,2,0,P|226:193|291:220,1,120,8|0,0:0|3:0,0:0:0:0:
384,169,59352,1,12,0:0:0:0:
384,169,59521,6,0,L|377:243,1,60,0|0,0:0|3:0,0:0:0:0:
396,323,59858,2,0,L|322:316,1,60,8|8,0:0|0:0,0:0:0:0:
246,350,60195,1,0,3:0:0:0:
252,230,60363,2,0,L|245:359,1,120,12|8,0:0|0:3,0:0:0:0:
160,304,60869,1,0,3:0:0:0:
71,340,61037,6,0,P|65:295|74:263,1,60,12|0,0:0|3:0,0:0:0:0:
132,212,61374,1,0,0:0:0:0:
181,129,61543,2,0,P|183:99|177:70,1,60,8|0,0:0|3:0,0:0:0:0:
131,210,61880,1,0,3:0:0:0:
246,222,62049,6,0,P|190:203|131:210,1,120,12|0,0:0|3:0,0:0:0:0:
80,292,62554,2,0,P|40:300|12:292,1,60,8|8,0:0|0:3,0:0:0:0:
121,376,62891,1,4,0:3:0:0:
250,342,63060,2,0,L|246:210,1,120,12|8,0:0|0:0,0:0:0:0:
312,56,63734,6,0,L|384:60,1,60,4|0,3:0|0:0,0:0:0:0:
432,136,64071,2,0,L|360:140,1,60,0|0,3:0|0:0,0:0:0:0:
276,148,64408,2,0,L|204:144,1,60,8|0,0:0|0:0,0:0:0:0:
176,232,64745,2,0,L|248:228,1,60,0|0,3:0|0:0,0:0:0:0:
328,260,65082,5,0,3:0:0:0:
420,228,65251,1,0,0:0:0:0:
420,228,65419,2,0,L|416:304,1,60,0|0,3:0|0:0,0:0:0:0:
348,356,65756,2,0,L|264:352,2,60,0|0|8,3:0|0:0|0:0,0:0:0:0:
488,308,66262,6,0,P|500:248|480:184,1,120,4|0,3:2|3:0,0:0:0:0:
408,132,66768,1,8,0:0:0:0:
408,132,66852,1,0,0:0:0:0:
408,132,66936,2,0,L|352:136,4,30,2|0|10|0|2,0:0|0:0|0:0|0:0|0:0,0:0:0:0:
468,56,67442,1,2,0:0:0:0:
328,24,67610,1,10,0:0:0:0:
328,24,68116,6,0,L|336:160,2,120,2|2|2,0:0|0:0|0:0,0:0:0:0:
296,232,69127,6,0,P|352:256|420:240,1,132.00000402832,6|10,3:2|0:0,0:0:0:0:
504,176,69633,2,0,L|496:312,1,132.00000402832,2|2,0:0|3:2,0:0:0:0:
400,348,70139,1,8,0:0:0:0:
296,328,70307,2,0,P|232:360|164:340,1,132.00000402832,2|0,3:2|3:0,0:0:0:0:
90,311,70813,2,0,L|94:407,1,66.0000020141602,10|0,0:0|0:0,0:0:0:0:
0,324,71150,2,0,L|2:258,1,66.0000020141602,2|0,3:2|3:0,0:0:0:0:
85,192,71487,1,10,0:2:0:0:
85,192,71824,6,0,P|153:160|217:184,1,132.00000402832,2|8,3:2|0:0,0:0:0:0:
285,242,72330,2,0,L|273:98,1,132.00000402832,2|2,0:0|0:0,0:0:0:0:
173,78,72835,1,8,0:0:0:0:
249,5,73004,2,0,P|317:25|381:0,1,132.00000402832,2|0,3:2|3:0,0:0:0:0:
476,23,73509,2,0,L|464:167,1,132.00000402832,8|0,0:0|3:0,0:0:0:0:
480,260,74015,1,2,3:2:0:0:
380,224,74183,1,10,0:0:0:0:
392,328,74352,1,2,0:0:0:0:
380,224,74521,6,0,P|324:200|244:240,1,132.00000402832,2|8,3:2|0:0,0:0:0:0:
228,324,75026,2,0,P|172:348|92:308,1,132.00000402832,2|2,0:0|3:2,0:0:0:0:
36,248,75532,1,8,0:0:0:0:
76,152,75700,2,0,L|220:160,1,132.00000402832,2|0,3:2|3:0,0:0:0:0:
328,64,76206,2,0,P|312:108|284:140,1,66.0000020141602,10|0,0:0|0:0,0:0:0:0:
360,212,76543,2,0,P|406:203|447:212,1,66.0000020141602,2|0,3:2|3:0,0:0:0:0:
472,112,76880,2,0,P|441:76|428:35,1,66.0000020141602,10|0,0:0|3:0,0:0:0:0:
301,123,77217,6,0,L|312:284,1,132.00000402832,14|0,0:0|3:0,0:0:0:0:
220,160,77723,2,0,L|231:321,1,132.00000402832,8|2,0:0|3:2,0:0:0:0:
176,384,78228,1,8,0:0:0:0:
106,304,78397,2,0,P|177:277|230:292,1,132.00000402832,6|0,3:2|3:0,0:0:0:0:
316,352,78903,2,0,P|360:360|392:352,1,66.0000020141602,10|0,0:0|0:0,0:0:0:0:
460,284,79240,1,2,3:2:0:0:
420,188,79408,1,0,0:0:0:0:
468,96,79577,1,10,0:0:0:0:
468,96,79914,6,0,L|324:88,1,132.00000402832,4|0,3:2|3:0,0:0:0:0:
240,44,80419,2,0,P|260:108|220:184,1,132.00000402832,2|2,0:0|0:0,0:0:0:0:
148,224,80925,1,0,3:0:0:0:
60,164,81094,2,0,P|40:228|80:304,1,132.00000402832,2|0,0:0|0:0,0:0:0:0:
156,332,81599,2,0,P|208:324|228:328,1,66.0000020141602,2|0,3:2|0:0,0:0:0:0:
324,352,81936,2,0,P|376:360|396:356,1,66.0000020141602,2|0,3:2|0:0,0:0:0:0:
488,324,82273,1,10,0:0:0:0:
488,324,82610,6,0,L|480:176,1,132.00000402832,2|8,3:2|3:2,0:0:0:0:
504,88,83116,2,0,P|436:108|376:88,1,132.00000402832,2|2,0:0|0:0,0:0:0:0:
292,28,83622,1,8,0:0:0:0:
192,60,83790,2,0,L|196:200,1,132.00000402832,2|0,0:0|0:0,0:0:0:0:
280,256,84296,2,0,L|284:116,1,132.00000402832,10|2,0:0|3:2,0:0:0:0:
72,112,84970,2,0,P|60:160|68:192,1,66.0000020141602,10|0,0:0|0:3,0:0:0:0:
140,279,85307,6,0,L|280:267,1,132.00000402832,6|8,3:2|0:0,0:0:0:0:
364,216,85813,2,0,P|380:264|372:300,1,66.0000020141602,2|0,0:0|3:0,0:0:0:0:
284,176,86150,2,0,P|317:138|352:127,1,66.0000020141602,2|0,0:0|3:0,0:0:0:0:
408,60,86487,2,0,L|256:48,1,132.00000402832,10|0,0:0|0:0,0:0:0:0:
176,20,86992,2,0,L|184:104,1,66.0000020141602,10|0,0:0|0:0,0:0:0:0:
76,64,87330,2,0,L|68:148,1,66.0000020141602,2|0,3:2|0:0,0:0:0:0:
156,188,87667,1,2,3:2:0:0:
64,240,87835,1,0,0:0:0:0:
156,292,88004,6,0,L|240:284,1,66.0000020141602,2|0,3:2|3:0,0:0:0:0:
312,192,88341,1,12,0:0:0:0:
312,192,88509,2,0,L|308:264,1,66.0000020141602,8|8,3:3|3:3,0:0:0:0:
400,308,88846,2,0,L|396:236,1,66.0000020141602,8|4,0:3|0:3,0:0:0:0:
368,108,89183,6,0,P|316:92|236:128,1,132.00000402832,12|8,0:0|0:3,0:0:0:0:
176,196,89689,1,4,0:0:0:0:
176,196,89858,1,8,0:3:0:0:
80,156,90026,2,0,L|76:72,1,66.0000020141602,8|8,0:3|0:3,0:0:0:0:
176,196,90363,2,0,L|172:280,1,66.0000020141602,4|4,0:3|0:3,0:0:0:0:
104,376,90700,6,0,P|164:352|232:388,1,120,4|0,3:2|3:0,0:0:0:0:
284,304,91206,1,0,3:0:0:0:
284,304,91374,2,0,P|344:328|412:292,1,120,8|0,0:0|0:0,0:0:0:0:
468,132,92049,6,0,L|396:136,1,60,0|8,3:0|0:0,0:0:0:0:
236,56,92554,1,0,3:0:0:0:
236,56,92722,2,0,L|308:60,1,60,8|0,0:0|3:0,0:0:0:0:
312,156,93060,2,0,L|240:152,1,60,0|0,0:0|3:0,0:0:0:0:
160,120,93397,6,0,P|176:188|140:248,1,120,0|0,3:0|3:0,0:0:0:0:
72,280,93903,1,0,3:0:0:0:
72,280,94071,2,0,L|0:272,1,60,8|0,0:0|3:0,0:0:0:0:
44,364,94408,2,0,L|116:356,1,60,8|0,0:0|0:0,0:0:0:0:
192,240,94745,6,0,L|184:364,1,120,4|8,3:2|0:0,0:0:0:0:
332,238,95419,2,0,L|340:362,1,120,2|2,0:0|0:0,0:0:0:0:
460,164,96094,6,0,L|336:152,1,120,6|0,3:2|3:0,0:0:0:0:
285,74,96599,1,2,3:2:0:0:
363,18,96768,2,0,P|378:47|379:94,1,60,8|2,0:0|3:2,0:0:0:0:
335,158,97105,1,0,0:0:0:0:
239,155,97273,6,0,P|198:101|204:32,1,120,2|8,0:0|0:0,0:0:0:0:
103,26,97779,2,0,P|112:71|106:99,1,60,0|2,3:0|3:2,0:0:0:0:
19,181,98116,2,0,L|155:177,1,120,14|0,0:0|0:0,0:0:0:0:
330,290,98790,6,0,L|194:286,1,120,6|8,3:2|0:0,0:0:0:0:
164,201,99296,1,0,3:0:0:0:
232,134,99464,2,0,L|312:136,1,60,8|8,0:0|0:3,0:0:0:0:
378,92,99801,1,4,3:0:0:0:
313,24,99970,2,0,P|286:71|305:156,1,120,14|0,0:0|0:0,0:0:0:0:
372,187,100476,2,0,P|378:219|376:249,1,60,0|8,0:0|3:2,0:0:0:0:
248,228,100813,5,8,3:2:0:0:
151,308,100981,1,8,3:2:0:0:
269,352,101150,1,8,3:2:0:0:
248,228,101318,1,8,3:2:0:0:
