osu file format v14

[General]
AudioFilename: audio.mp3
AudioLeadIn: 0
PreviewTime: 68116
Countdown: 0
SampleSet: Soft
StackLeniency: 0.6
Mode: 0
LetterboxInBreaks: 0
WidescreenStoryboard: 0

[Editor]
Bookmarks: 14352,15195,17386,17891,20588,23285,34071,42835,43341,44183,44858,52948,53453,53622,54127,54296,54801,54970,55644,62723,63734,66262,67610,68116,69127,77217,79914,88004,90700,94577,96094,101318
DistanceSpacing: 1.1
BeatDivisor: 4
GridSize: 4
TimelineZoom: 1.1

[Metadata]
Title:TriColour Heartbeat
TitleUnicode:三色绘恋
Artist:Yun Yi Xing Chen
ArtistUnicode:云翼星辰
Creator:Log Off Now
Version:Easy
Source:三色△绘恋 -Tricolour Lovestory-
Tags:chinese eroge visual novel vn opening sakuragame yamayuri hl-galgame maru project lights tricolour lovestory left proezreal naotoshi
BeatmapID:1430316
BeatmapSetID:675957

[Difficulty]
HPDrainRate:2
CircleSize:3
OverallDifficulty:3
ApproachRate:3
SliderMultiplier:0.8
SliderTickRate:1

[Events]
//Background and Video events
Video,0,"movie_max.avi"
0,0,"tricolourbg.jpg",0,0
//Break Periods
2,23485,32511
//Storyboard Layer 0 (Background)
//Storyboard Layer 1 (Fail)
//Storyboard Layer 2 (Pass)
//Storyboard Layer 3 (Foreground)
//Storyboard Sound Samples

[TimingPoints]
5757,337.078651685393,4,2,1,25,1,0
17891,-100,4,2,1,50,0,0
23285,-100,4,2,1,40,0,0
34071,-100,4,2,1,45,0,0
44521,-100,4,2,1,45,0,0
44858,-100,4,2,1,40,0,0
55644,-100,4,2,1,40,0,1
55728,-100,4,2,1,40,0,0
58341,-100,4,2,1,40,0,1
58425,-100,4,2,1,40,0,0
61037,-100,4,2,1,40,0,1
61122,-100,4,2,1,40,0,0
69127,-100,4,2,1,60,0,1
90700,-100,4,2,1,50,0,0

[Colours]
Combo1 : 255,224,130
Combo2 : 151,151,255
Combo3 : 255,185,220
Combo4 : 140,255,140

[HitObjects]
84,204,5756,6,0,B|76:280|76:280|96:328,2,120,2|0|0,0:0|0:0|0:0,0:0:0:0:
93,116,7105,2,0,P|149:104|209:132,1,120,2|0,0:0|0:0,0:0:0:0:
236,256,8116,1,2,0:0:0:0:
323,247,8453,6,0,B|399:239|399:239|447:259,2,120,2|0|0,0:0|0:0|0:0,0:0:0:0:
269,177,9801,2,0,P|214:153|157:164,1,120,2|0,0:0|0:0,0:0:0:0:
103,285,10813,1,2,0:0:0:0:
171,340,11150,6,0,B|247:348|247:348|295:328,2,120,2|0|0,0:0|0:0|0:0,0:0:0:0:
185,253,12498,2,0,P|169:201|185:121,1,120,2|0,0:0|0:0,0:0:0:0:
276,49,13509,1,2,0:0:0:0:
323,122,13846,6,0,P|430:165|409:19,1,320,2|2,0:0|0:0,0:0:0:0:
113,120,17891,6,0,B|176:136|176:136|242:126|242:126|312:145,1,200,6|0,0:0|0:0,0:0:0:0:
392,167,19071,2,0,P|421:237|394:331,1,160,2|2,0:0|0:0,0:0:0:0:
324,356,20082,1,10,0:0:0:0:
218,275,20588,6,0,B|202:212|202:212|212:146|212:146|193:76,1,200,2|0,0:0|0:0,0:0:0:0:
118,34,21768,1,10,0:0:0:0:
256,192,21936,12,0,23285,0:0:0:0:
387,88,34071,6,0,B|410:137|410:137|393:257,1,160,4|0,3:2|3:0,0:0:0:0:
380,328,35082,1,0,3:0:0:0:
302,285,35419,2,0,P|252:275|224:282,1,80,0|0,3:0|3:0,0:0:0:0:
164,346,36094,2,0,P|114:356|86:349,1,80,0|8,3:0|3:2,0:0:0:0:
48,269,36768,6,0,P|60:202|43:137,1,120,12|8,0:0|0:0,0:0:0:0:
21,68,37610,1,2,0:3:0:0:
101,31,37948,2,0,P|168:43|233:26,1,120,12|8,0:0|3:2,0:0:0:0:
301,5,38790,1,0,3:0:0:0:
384,33,39127,1,8,0:0:0:0:
391,120,39464,6,0,B|394:184|394:184|372:229|372:229|374:286,1,160,0|0,3:0|3:0,0:0:0:0:
336,354,40476,1,0,3:0:0:0:
254,321,40813,2,0,P|204:311|176:318,1,80,0|0,0:0|3:0,0:0:0:0:
94,349,41487,1,0,3:0:0:0:
43,277,41824,1,8,0:0:0:0:
93,204,42161,6,0,L|268:217,1,160,4|8,0:0|0:0,0:0:0:0:
306,95,43341,2,0,L|173:106,1,120,12|8,0:0|0:0,0:0:0:0:
107,66,44183,1,8,0:0:0:0:
44,128,44521,1,8,0:3:0:0:
81,207,44858,6,0,B|197:256|197:166|320:205,1,240,4|0,3:2|2:0,0:0:0:0:
399,225,46206,2,0,B|407:292|407:292|394:344,2,120,0|0|2,0:0|0:0|0:0,0:0:0:0:
458,159,47554,2,0,P|480:102|344:46,1,240,2|0,0:0|2:0,0:0:0:0:
308,118,48903,2,0,B|316:185|316:185|303:237,2,120,0|0|2,0:0|0:0|0:0,0:0:0:0:
237,65,50251,6,0,B|119:102|119:12|3:61,1,240,2|0,0:0|2:0,0:0:0:0:
46,137,51599,2,0,B|95:253|5:253|42:370,1,240,0|0,0:0|2:0,0:0:0:0:
128,348,52948,5,2,0:0:0:0:
304,368,53622,1,2,0:0:0:0:
392,216,54296,1,2,0:0:0:0:
216,236,54970,1,10,0:0:0:0:
136,80,55644,6,0,B|69:72|69:72|17:85,2,120,4|8|12,0:0|0:0|0:0,0:0:0:0:
207,132,56992,2,0,P|219:185|206:226,1,80,0|0,3:0|0:0,0:0:0:0:
145,264,57667,1,12,0:0:0:0:
286,368,58341,6,0,B|353:376|353:376|405:363,2,120,12|8|12,0:0|0:0|0:0,0:0:0:0:
260,283,59689,2,0,L|268:201,1,80,0|8,3:0|0:0,0:0:0:0:
198,148,60363,1,12,0:0:0:0:
327,28,61037,6,0,B|394:20|394:20|446:33,2,120,12|8|12,0:0|0:0|0:0,0:0:0:0:
284,105,62386,2,0,P|330:134|373:136,1,80,0|8,3:0|0:3,0:0:0:0:
440,117,63060,1,12,0:0:0:0:
471,199,63397,1,8,0:0:0:0:
406,258,63734,6,0,B|324:283|324:221|244:255,2,160,4|8|0,0:0|0:0|3:0,0:0:0:0:
484,296,65419,2,0,B|484:294|476:376,2,80,0|0|8,3:0|3:0|0:0,0:0:0:0:
256,192,66262,12,10,67610,0:0:0:0:
119,66,69127,6,0,P|174:91|234:84,1,120,6|2,3:2|3:2,0:0:0:0:
304,34,69970,1,2,3:2:0:0:
381,75,70307,2,0,L|374:209,1,120,2|8,3:2|0:0,0:0:0:0:
321,265,71150,2,0,B|326:344,1,80,2|8,3:2|0:0,0:0:0:0:
240,324,71824,6,0,B|135:273|135:350|33:309,1,200,2|0,3:2|3:0,0:0:0:0:
1,237,73004,2,0,L|8:100,1,120,2|8,3:2|0:0,0:0:0:0:
73,59,73846,2,0,P|111:48|152:54,1,80,0|8,3:0|0:0,0:0:0:0:
221,105,74521,6,0,P|282:113|341:79,1,120,2|2,3:2|3:2,0:0:0:0:
403,35,75363,1,2,3:2:0:0:
441,114,75700,2,0,B|426:153|426:153|437:238,1,120,2|8,3:2|0:0,0:0:0:0:
453,317,76543,1,2,3:2:0:0:
374,357,76880,1,8,0:0:0:0:
291,327,77217,6,0,B|276:288|276:288|287:203,1,120,12|8,0:0|0:0,0:0:0:0:
307,124,78060,1,2,3:2:0:0:
256,52,78397,1,6,3:2:0:0:
152,133,78903,2,0,P|98:138|67:126,2,80,10|2|10,0:0|3:2|0:0,0:0:0:0:
232,169,79914,6,0,P|307:145|390:170,1,160,4|0,3:2|3:0,0:0:0:0:
459,210,80925,1,0,3:0:0:0:
423,290,81262,1,2,3:2:0:0:
335,295,81599,2,0,P|333:339|344:384,2,80,0|2|8,3:0|3:2|0:0,0:0:0:0:
265,240,82610,6,0,B|177:197|177:261|91:227,1,160,2|2,3:2|3:2,0:0:0:0:
48,168,83622,1,8,0:0:0:0:
74,83,83959,2,0,P|117:78|165:88,1,80,2|8,0:0|0:0,0:0:0:0:
225,136,84633,2,0,P|268:141|316:131,1,80,2|10,3:2|0:0,0:0:0:0:
385,169,85307,6,0,B|397:219|397:219|389:286,2,120,4|0|0,3:2|0:0|3:0,0:0:0:0:
427,92,86655,1,2,3:2:0:0:
355,40,86992,2,0,P|315:34|276:39,1,80,10|2,0:0|3:2,0:0:0:0:
197,80,87667,1,2,3:2:0:0:
110,61,88004,6,0,L|115:153,1,80,2|12,3:2|0:0,0:0:0:0:
149,221,88678,2,0,B|188:232|188:232|275:214,1,120,8|12,3:3|0:0,0:0:0:0:
394,187,89689,1,4,0:0:0:0:
460,245,90026,2,0,L|452:338,1,80,8|4,0:3|0:3,0:0:0:0:
368,347,90700,6,0,B|287:315|287:375|211:346,1,160,4|8,3:2|0:0,0:0:0:0:
90,219,92049,2,0,L|96:139,1,80,0|0,3:0|3:0,0:0:0:0:
104,51,92723,1,8,0:0:0:0:
274,95,93397,6,0,B|354:126|354:66|429:95,1,160,0|8,3:0|0:0,0:0:0:0:
502,143,94408,1,8,0:0:0:0:
481,228,94745,1,4,3:2:0:0:
167,67,96094,6,0,B|161:131|161:131|181:195|181:195|173:267,1,200,6|2,3:2|3:2,0:0:0:0:
166,350,97273,2,0,P|220:377|292:360,1,120,2|0,0:0|3:0,0:0:0:0:
323,293,98116,1,14,0:0:0:0:
287,120,98790,6,0,B|351:125|351:125|415:105|415:105|487:113,1,200,6|8,3:2|0:3,0:0:0:0:
510,196,99970,2,0,P|518:254|491:307,1,120,14|0,0:0|0:0,0:0:0:0:
406,282,100813,2,0,B|363:273|363:273|282:284,1,120,8|8,3:2|3:2,0:0:0:0:
