osu file format v14

[General]
AudioFilename: audio.mp3
AudioLeadIn: 0
PreviewTime: 54989
Countdown: 0
SampleSet: Soft
StackLeniency: 0.7
Mode: 0
LetterboxInBreaks: 0
WidescreenStoryboard: 1

[Editor]
DistanceSpacing: 1.2
BeatDivisor: 4
GridSize: 32
TimelineZoom: 1

[Metadata]
Title:Junjou Emotional
TitleUnicode:Junjou Emotional
Artist:Yumina (Sumire Uesaka)
ArtistUnicode:Yumina (Sumire Uesaka)
Creator:adyatma123
Version:Normal
Source:Isekai Wa Smartphone Tomo Ni Ending
Tags:ending isekai wa smartphone tomo ni sumire uesaka yumina
BeatmapID:1388996
BeatmapSetID:655373

[Difficulty]
HPDrainRate:4.5
CircleSize:3.5
OverallDifficulty:5
ApproachRate:4.5
SliderMultiplier:1
SliderTickRate:1

[Events]
//Background and Video events
0,0,"QKkjYAr-copy.jpg",0,0
Video,0,"Video.avi"
//Break Periods
//Storyboard Layer 0 (Background)
//Storyboard Layer 1 (Fail)
//Storyboard Layer 2 (Pass)
//Storyboard Layer 3 (Foreground)
//Storyboard Sound Samples

[TimingPoints]
708,405.405405405405,4,2,1,100,1,0
55132,-100,4,2,1,100,0,1
88172,-100,4,2,1,100,0,0

[HitObjects]
64,192,3545,6,0,B|164:339|346:328|421:237,1,400,0|8,0:0|0:0,0:0:0:0:
457,137,5572,1,0,0:0:0:0:
357,68,5978,2,0,P|250:55|145:88,1,200,0|8,0:0|0:0,0:0:0:0:
54,131,7194,1,0,0:0:0:0:
30,248,7599,2,0,P|88:264|139:236,1,100
181,236,8207,1,8,0:0:0:0:
160,320,8613,2,0,B|384:288|416:192|320:64,1,400
143,54,10843,1,8,0:0:0:0:
27,100,11248,2,0,P|6:162|34:205,1,100
49,242,11856,1,8,0:0:0:0:
162,271,12262,2,0,L|139:221,2,50,8|0|8,0:0|0:0|0:0,0:0:0:0:
320,320,13478,2,0,B|414:210|350:26|160:96,1,400,0|12,0:0|0:0,0:0:0:0:
352,256,16924,6,0,P|448:192|410:120,1,200
352,64,18140,1,8,0:0:0:0:
224,64,18545,2,0,P|128:96|114:199,1,200
128,288,19761,1,8,0:0:0:0:
256,320,20167,2,0,P|352:288|416:192,1,200
384,96,21383,1,8,0:0:0:0:
290,170,21788,2,0,P|223:240|123:243,2,200
352,64,23815,2,0,P|448:160|448:224,2,200,8|0|8,0:0|0:0|0:0,0:0:0:0:
232,46,25843,5,0,0:0:0:0:
96,64,26248,2,0,P|96:192|160:224,1,200
256,192,27464,2,0,P|352:160|402:193,1,150,0|4,0:0|0:0,0:0:0:0:
437,294,28478,1,0,0:0:0:0:
319,315,28883,1,0,0:0:0:0:
96,288,29897,2,0,P|64:192|96:96,1,200
192,64,31113,1,8,0:0:0:0:
320,64,31518,2,0,P|416:32|480:96,1,200
480,224,32734,1,8,0:0:0:0:
416,320,33140,6,0,P|320:288|288:192,1,200
256,96,34356,1,8,0:0:0:0:
160,32,34761,2,0,P|64:64|32:160,1,200
64,256,35978,1,8,0:0:0:0:
160,288,36383,2,0,P|256:320|352:288,1,200
416,192,37599,1,8,0:0:0:0:
384,64,38005,2,0,P|288:32|192:64,1,200
96,96,39221,1,8,0:0:0:0:
64,224,39626,6,0,P|160:256|256:224,1,200
352,192,40842,1,8,0:0:0:0:
416,96,41248,2,0,B|320:64|269:79|224:119,1,200
200,255,42464,2,0,P|184:314|134:345,1,100
42,297,43275,2,0,B|-20:122|174:-24|348:172,1,500
373,243,45707,1,8,0:0:0:0:
448,160,46113,2,0,B|384:64|288:32|160:64|96:160|96:288,1,500
224,320,48545,2,0,P|352:320|384:256,1,200,0|12,0:0|0:0,0:0:0:0:
384,160,49761,5,8,0:0:0:0:
288,64,50167,2,0,P|192:32|104:78,1,200
64,160,51383,1,8,0:0:0:0:
96,275,51788,2,0,P|160:320|239:237,1,200
256,160,53005,1,8,0:0:0:0:
352,64,53410,1,8,0:0:0:0:
448,160,53815,1,8,0:0:0:0:
352,256,54221,1,8,0:0:0:0:
128,288,55032,6,0,L|128:224,1,50
128,128,55640,2,0,P|224:64|384:128,1,300,0|8,0:0|0:0,0:0:0:0:
488,185,57262,2,0,B|388:291|300:261|251:153,1,300,0|8,0:0|0:0,0:0:0:0:
192,64,58883,2,0,B|108:137|139:250|240:326,1,300,0|8,0:0|0:0,0:0:0:0:
320,320,60505,2,0,B|416:256|448:160|352:64,1,300,0|8,0:0|0:0,0:0:0:0:
238,44,62126,2,0,B|310:144|288:248|192:319,1,300,0|8,0:0|0:0,0:0:0:0:
64,320,63748,2,0,B|32:224|0:128|64:32,1,300,0|8,0:0|0:0,0:0:0:0:
192,32,65370,2,0,B|128:128|128:224|160:320,1,300,0|8,0:0|0:0,0:0:0:0:
288,320,66991,2,0,B|224:224|224:128|288:32,1,300,0|8,0:0|0:0,0:0:0:0:
416,32,68613,2,0,B|480:128|480:224|416:320,1,300,0|8,0:0|0:0,0:0:0:0:
300,316,70235,2,0,B|371:243|375:139|300:28,1,300,0|8,0:0|0:0,0:0:0:0:
187,44,71856,2,0,B|262:134|251:231|161:317,1,300,0|8,0:0|0:0,0:0:0:0:
46,319,73478,2,0,B|14:223|14:127|109:44,1,300,0|8,0:0|0:0,0:0:0:0:
167,46,75099,1,8,0:0:0:0:
287,46,75505,1,0,0:0:0:0:
343,66,75707,1,0,0:0:0:0:
440,130,76113,1,0,0:0:0:0:
501,299,76721,1,0,0:0:0:0:
445,321,77126,2,8,B|314:361|239:333|277:171,1,300,0|8,0:0|0:0,0:0:0:0:
305,67,78748,1,8,0:0:0:0:
245,77,78951,1,0,0:0:0:0:
201,120,79153,1,0,0:0:0:0:
183,193,79356,1,0,0:0:0:0:
234,330,79964,1,0,0:0:0:0:
317,276,80370,2,8,B|413:276|509:212|497:79,1,300,0|8,0:0|0:0,0:0:0:0:
256,192,82194,12,14,88072,0:0:0:0:
