osu file format v14

[General]
AudioFilename: audio.mp3
AudioLeadIn: 0
PreviewTime: 57717
Countdown: 0
SampleSet: Normal
StackLeniency: 0.7
Mode: 1
LetterboxInBreaks: 0
WidescreenStoryboard: 0

[Editor]
Bookmarks: 73307,155807
DistanceSpacing: 1
BeatDivisor: 4
GridSize: 32
TimelineZoom: 0.7

[Metadata]
Title:Oni Kurenai Nin Emaki
TitleUnicode:鬼紅忍絵巻 -おにくれないにんえまき-
Artist:Yumeooji Fumi (CV: Kurachi Reo), Akikaze Rui (CV: Tsumugi Risa)
ArtistUnicode:夢大路文 (CV: 倉知玲鳳)、秋風塁 (CV: 紡木吏佐)
Creator:Nardoxyribonucleic
Version:komasy's Oni
Source:少女☆歌劇 レヴュースタァライト -Re LIVE-
Tags:Taiko komasy Anime Video Game Japanese Shoujo Kageki Revue Starlight スタリラ 凛明館女学校 Rinmeikan Jogakkou
BeatmapID:2251665
BeatmapSetID:1076072

[Difficulty]
HPDrainRate:6
CircleSize:5
OverallDifficulty:5
ApproachRate:6
SliderMultiplier:1.4
SliderTickRate:1

[Events]
//Background and Video events
0,0,"bg.jpg",0,-85
//Break Periods
2,202878,208659
//Storyboard Layer 0 (Background)
//Storyboard Layer 1 (Fail)
//Storyboard Layer 2 (Pass)
//Storyboard Layer 3 (Foreground)
//Storyboard Layer 4 (Overlay)
//Storyboard Sound Samples

[TimingPoints]
178,468.75,4,1,0,70,1,0
178,-111.111111111111,4,1,0,70,0,0
4865,-108.695652173913,4,1,0,70,0,0
5099,-106.382978723404,4,1,0,70,0,0
5217,-105.263157894737,4,1,0,70,0,0
5334,-104.166666666667,4,1,0,70,0,0
5568,-102.040816326531,4,1,0,70,0,0
5803,-100,4,1,0,90,0,0
13303,-105.263157894737,4,1,0,75,0,0
28303,-100,4,1,0,75,0,0
43303,-100,4,1,0,85,0,0
54787,-99.009900990099,4,1,0,85,0,0
55021,-98.0392156862745,4,1,0,85,0,0
55256,-97.0873786407767,4,1,0,85,0,0
55490,-96.1538461538461,4,1,0,85,0,0
55724,-95.2380952380952,4,1,0,85,0,0
55842,-94.7867298578199,4,1,0,85,0,0
55959,-94.3396226415094,4,1,0,85,0,0
56076,-93.8967136150235,4,1,0,85,0,0
56193,-93.4579439252336,4,1,0,85,0,0
56428,-90.9090909090909,4,1,0,85,0,0
57365,-105.263157894737,4,1,0,85,0,0
57834,-100,4,1,0,85,0,0
58068,-97.5609756097561,4,1,0,85,0,0
58303,-95.2380952380952,4,1,0,100,0,1
88303,-100,4,1,0,90,0,0
95803,-111.111111111111,4,1,0,60,0,0
102834,-108.108108108108,4,1,0,60,0,0
103303,-105.263157894737,4,1,0,70,0,0
110803,-100,4,1,0,75,0,0
125803,-100,4,1,0,85,0,0
137287,-99.009900990099,4,1,0,85,0,0
137521,-98.0392156862745,4,1,0,85,0,0
137756,-97.0873786407767,4,1,0,85,0,0
137990,-96.1538461538461,4,1,0,85,0,0
138224,-95.2380952380952,4,1,0,85,0,0
138342,-94.7867298578199,4,1,0,85,0,0
138459,-94.3396226415094,4,1,0,85,0,0
138576,-93.8967136150235,4,1,0,85,0,0
138693,-93.4579439252336,4,1,0,85,0,0
138928,-90.9090909090909,4,1,0,85,0,0
139865,-105.263157894737,4,1,0,85,0,0
140334,-100,4,1,0,85,0,0
140568,-97.5609756097561,4,1,0,85,0,0
140803,-95.2380952380952,4,1,0,100,0,1
170334,-98.0392156862745,4,1,0,100,0,1
170451,-98.5221674876847,4,1,0,100,0,1
170568,-99.009900990099,4,1,0,100,0,1
170803,-100,4,1,0,95,0,0
185803,-100,4,1,0,85,0,0
199162,-98.0392156862745,4,1,0,85,0,0
199396,-96.1538461538461,4,1,0,85,0,0
199631,-94.3396226415094,4,1,0,85,0,0
199865,-92.5925925925926,4,1,0,85,0,0
200099,-90.9090909090909,4,1,0,85,0,0
200217,-90.0900900900901,4,1,0,85,0,0
200334,-89.2857142857143,4,1,0,85,0,0
200451,-88.4955752212389,4,1,0,85,0,0
200568,-87.719298245614,4,1,0,85,0,0
200803,-83.3333333333333,4,1,0,85,0,0
201740,-105.263157894737,4,1,0,85,0,0
202209,-111.111111111111,4,1,0,85,0,0
202678,-117.647058823529,4,1,0,50,0,0
210178,-111.111111111111,4,1,0,70,0,0
215099,-108.695652173913,4,1,0,70,0,0
215217,-107.52688172043,4,1,0,70,0,0
215334,-106.382978723404,4,1,0,70,0,0
215568,-104.166666666667,4,1,0,70,0,0
215803,-100,4,1,0,70,0,0
216740,-83.3333333333333,4,1,0,70,0,0
217209,-86.9565217391304,4,1,0,70,0,0
217678,-95.2380952380952,4,1,0,70,0,0
218146,-90.9090909090909,4,1,0,100,0,1
232678,-100,4,1,0,90,0,0
242990,-95.2380952380952,4,1,0,90,0,0
243224,-90.9090909090909,4,1,0,90,0,0

[HitObjects]
160,288,646,5,4,0:0:0:0:
352,96,1584,1,8,0:0:0:0:
352,96,1662,1,8,0:0:0:0:
352,96,1740,1,8,0:0:0:0:
352,96,1818,1,8,0:0:0:0:
160,288,2053,1,4,0:0:0:0:
160,96,2521,1,0,0:0:0:0:
352,96,2990,1,8,0:0:0:0:
160,96,3459,1,0,0:0:0:0:
160,96,3693,1,0,0:0:0:0:
352,96,3928,1,8,0:0:0:0:
352,96,4162,1,8,0:0:0:0:
160,96,4396,1,0,0:0:0:0:
352,96,4865,1,8,0:0:0:0:
352,96,5099,1,8,0:0:0:0:
352,96,5217,1,8,0:0:0:0:
352,96,5334,1,8,0:0:0:0:
352,96,5568,1,8,0:0:0:0:
160,288,5803,1,4,0:0:0:0:
160,96,6154,1,0,0:0:0:0:
160,96,6271,1,0,0:0:0:0:
352,96,6506,1,8,0:0:0:0:
160,96,6740,1,0,0:0:0:0:
352,96,7209,1,8,0:0:0:0:
160,96,7443,1,0,0:0:0:0:
352,96,7678,1,8,0:0:0:0:
160,96,8029,1,0,0:0:0:0:
160,96,8146,1,0,0:0:0:0:
352,96,8381,1,8,0:0:0:0:
160,96,8615,1,0,0:0:0:0:
352,96,9084,1,8,0:0:0:0:
352,96,9318,1,8,0:0:0:0:
160,96,9553,1,0,0:0:0:0:
352,96,10021,1,8,0:0:0:0:
160,96,10490,1,0,0:0:0:0:
160,96,10724,1,0,0:0:0:0:
352,96,10959,1,8,0:0:0:0:
160,96,11428,1,0,0:0:0:0:
352,96,11662,1,8,0:0:0:0:
352,96,11779,1,8,0:0:0:0:
352,96,11896,1,8,0:0:0:0:
160,96,12131,1,0,0:0:0:0:
352,96,12365,1,8,0:0:0:0:
160,96,12599,1,0,0:0:0:0:
160,96,12717,1,0,0:0:0:0:
352,96,12834,1,8,0:0:0:0:
160,288,13303,1,4,0:0:0:0:
160,96,13654,1,0,0:0:0:0:
352,96,13771,1,8,0:0:0:0:
160,96,14006,1,0,0:0:0:0:
160,96,14240,1,0,0:0:0:0:
352,96,14709,1,8,0:0:0:0:
160,96,15178,1,0,0:0:0:0:
352,96,15412,1,8,0:0:0:0:
160,96,15529,1,0,0:0:0:0:
352,96,15646,1,8,0:0:0:0:
160,96,15881,1,0,0:0:0:0:
160,96,16115,1,0,0:0:0:0:
352,96,16584,1,8,0:0:0:0:
352,96,16818,1,8,0:0:0:0:
160,96,17053,1,0,0:0:0:0:
160,96,17404,1,0,0:0:0:0:
352,96,17521,1,8,0:0:0:0:
160,96,17756,1,0,0:0:0:0:
160,96,17990,1,0,0:0:0:0:
352,96,18459,1,8,0:0:0:0:
160,96,18693,1,0,0:0:0:0:
352,96,18928,1,8,0:0:0:0:
160,96,19279,1,0,0:0:0:0:
352,96,19396,1,8,0:0:0:0:
160,96,19631,1,0,0:0:0:0:
352,96,19865,1,8,0:0:0:0:
160,96,20099,1,0,0:0:0:0:
160,96,20217,1,0,0:0:0:0:
352,96,20334,1,8,0:0:0:0:
160,288,20803,1,4,0:0:0:0:
160,96,21154,1,0,0:0:0:0:
352,96,21271,1,8,0:0:0:0:
160,96,21506,1,0,0:0:0:0:
160,96,21740,1,0,0:0:0:0:
352,96,22209,1,8,0:0:0:0:
160,96,22678,1,0,0:0:0:0:
352,96,22912,1,8,0:0:0:0:
160,96,23029,1,0,0:0:0:0:
352,96,23146,1,8,0:0:0:0:
160,96,23381,1,0,0:0:0:0:
160,96,23615,1,0,0:0:0:0:
352,96,23849,1,8,0:0:0:0:
352,96,24084,1,8,0:0:0:0:
160,96,24553,1,0,0:0:0:0:
160,96,24904,1,0,0:0:0:0:
352,96,25021,1,8,0:0:0:0:
160,96,25256,1,0,0:0:0:0:
352,96,25490,1,8,0:0:0:0:
352,96,25842,1,8,0:0:0:0:
352,96,25959,1,8,0:0:0:0:
352,96,26193,1,8,0:0:0:0:
160,96,26428,1,0,0:0:0:0:
160,96,26779,1,0,0:0:0:0:
352,96,26896,1,8,0:0:0:0:
352,96,27013,1,8,0:0:0:0:
160,96,27131,1,0,0:0:0:0:
352,96,27365,1,8,0:0:0:0:
160,96,27599,1,0,0:0:0:0:
352,288,27834,1,12,0:0:0:0:
160,288,28303,1,4,0:0:0:0:
160,96,28654,1,0,0:0:0:0:
352,96,28771,1,8,0:0:0:0:
352,96,29006,1,8,0:0:0:0:
160,96,29240,1,0,0:0:0:0:
352,96,29709,1,8,0:0:0:0:
352,96,29943,1,8,0:0:0:0:
160,96,30178,1,0,0:0:0:0:
352,96,30412,1,8,0:0:0:0:
160,96,30529,1,0,0:0:0:0:
352,96,30646,1,8,0:0:0:0:
352,96,30881,1,8,0:0:0:0:
160,96,31115,1,0,0:0:0:0:
352,96,31584,1,8,0:0:0:0:
352,96,31818,1,8,0:0:0:0:
160,96,32053,1,0,0:0:0:0:
160,96,32404,1,0,0:0:0:0:
352,96,32521,1,8,0:0:0:0:
352,96,32756,1,8,0:0:0:0:
160,96,32990,1,0,0:0:0:0:
352,96,33459,1,8,0:0:0:0:
160,96,33693,1,0,0:0:0:0:
352,96,33928,1,8,0:0:0:0:
160,96,34279,1,0,0:0:0:0:
352,96,34396,1,8,0:0:0:0:
160,96,34631,1,0,0:0:0:0:
352,96,34865,1,8,0:0:0:0:
160,96,35099,1,0,0:0:0:0:
160,96,35217,1,0,0:0:0:0:
352,96,35334,1,8,0:0:0:0:
160,288,35803,1,4,0:0:0:0:
160,96,36154,1,0,0:0:0:0:
352,96,36271,1,8,0:0:0:0:
352,96,36506,1,8,0:0:0:0:
160,96,36740,1,0,0:0:0:0:
352,96,37209,1,8,0:0:0:0:
352,96,37443,1,8,0:0:0:0:
160,96,37678,1,0,0:0:0:0:
352,96,37912,1,8,0:0:0:0:
160,96,38029,1,0,0:0:0:0:
352,96,38146,1,8,0:0:0:0:
352,96,38381,1,8,0:0:0:0:
160,96,38615,1,0,0:0:0:0:
352,96,39084,1,8,0:0:0:0:
160,288,39553,1,4,0:0:0:0:
352,96,40021,1,8,0:0:0:0:
160,288,40490,1,4,0:0:0:0:
352,96,40959,1,8,0:0:0:0:
160,288,41428,1,4,0:0:0:0:
160,96,41662,1,0,0:0:0:0:
160,96,41779,1,0,0:0:0:0:
352,96,41896,1,8,0:0:0:0:
352,96,42131,1,8,0:0:0:0:
160,96,42365,1,0,0:0:0:0:
160,96,42599,1,0,0:0:0:0:
352,96,42834,1,8,0:0:0:0:
352,96,42951,1,8,0:0:0:0:
352,96,43068,1,8,0:0:0:0:
160,288,43303,1,4,0:0:0:0:
352,96,43537,1,8,0:0:0:0:
352,96,43654,1,8,0:0:0:0:
352,96,43771,1,8,0:0:0:0:
160,96,43888,1,0,0:0:0:0:
352,96,44240,1,8,0:0:0:0:
160,96,44592,1,0,0:0:0:0:
352,96,44709,1,8,0:0:0:0:
352,96,44943,1,8,0:0:0:0:
160,96,45178,1,0,0:0:0:0:
352,96,45412,1,8,0:0:0:0:
352,96,45529,1,8,0:0:0:0:
352,96,45646,1,8,0:0:0:0:
160,96,45763,1,0,0:0:0:0:
352,96,46115,1,8,0:0:0:0:
352,96,46467,1,8,0:0:0:0:
160,96,46584,1,0,0:0:0:0:
352,96,46818,1,8,0:0:0:0:
160,96,47053,1,0,0:0:0:0:
352,96,47287,1,8,0:0:0:0:
352,96,47404,1,8,0:0:0:0:
160,96,47521,1,0,0:0:0:0:
160,96,47638,1,0,0:0:0:0:
160,96,47990,1,0,0:0:0:0:
352,96,48459,1,8,0:0:0:0:
352,96,48693,1,8,0:0:0:0:
160,288,48928,1,4,0:0:0:0:
352,96,49396,1,8,0:0:0:0:
160,288,49631,1,4,0:0:0:0:
160,96,50099,1,0,0:0:0:0:
352,288,50334,1,12,0:0:0:0:
352,96,50568,1,8,0:0:0:0:
160,288,50803,1,4,0:0:0:0:
352,96,51271,1,8,0:0:0:0:
160,96,51506,1,0,0:0:0:0:
160,96,51623,1,0,0:0:0:0:
352,96,51740,1,8,0:0:0:0:
160,96,51974,1,0,0:0:0:0:
352,96,52209,1,8,0:0:0:0:
160,96,52443,1,0,0:0:0:0:
160,96,52560,1,0,0:0:0:0:
352,96,52678,1,8,0:0:0:0:
160,96,52912,1,0,0:0:0:0:
352,96,53146,1,8,0:0:0:0:
352,96,53381,1,8,0:0:0:0:
352,96,53498,1,8,0:0:0:0:
160,96,53615,1,0,0:0:0:0:
160,96,53967,1,0,0:0:0:0:
352,96,54084,1,8,0:0:0:0:
352,96,54318,1,8,0:0:0:0:
160,96,54553,1,0,0:0:0:0:
160,96,54787,1,0,0:0:0:0:
352,96,55021,1,8,0:0:0:0:
352,96,55256,1,8,0:0:0:0:
160,96,55490,1,0,0:0:0:0:
160,96,55724,1,0,0:0:0:0:
160,96,55842,1,0,0:0:0:0:
352,96,55959,1,8,0:0:0:0:
352,96,56076,1,8,0:0:0:0:
352,96,56193,1,8,0:0:0:0:
160,288,56428,1,4,0:0:0:0:
352,96,57365,1,8,0:0:0:0:
352,96,57834,1,8,0:0:0:0:
160,96,58068,1,0,0:0:0:0:
352,288,58303,1,12,0:0:0:0:
352,96,58654,1,8,0:0:0:0:
160,96,58771,1,0,0:0:0:0:
352,96,59006,1,8,0:0:0:0:
160,96,59240,1,0,0:0:0:0:
352,96,59709,1,8,0:0:0:0:
160,96,59943,1,0,0:0:0:0:
352,96,60178,1,8,0:0:0:0:
352,96,60529,1,8,0:0:0:0:
160,96,60646,1,0,0:0:0:0:
352,96,60881,1,8,0:0:0:0:
160,96,61115,1,0,0:0:0:0:
352,96,61349,1,8,0:0:0:0:
352,96,61584,1,8,0:0:0:0:
160,96,61818,1,0,0:0:0:0:
160,96,61935,1,0,0:0:0:0:
160,96,62053,1,0,0:0:0:0:
160,96,62287,1,0,0:0:0:0:
352,96,62521,1,8,0:0:0:0:
352,96,62756,1,8,0:0:0:0:
160,96,62990,1,0,0:0:0:0:
352,96,63224,1,8,0:0:0:0:
352,96,63342,1,8,0:0:0:0:
160,96,63459,1,0,0:0:0:0:
352,96,63693,1,8,0:0:0:0:
160,96,63928,1,0,0:0:0:0:
352,96,64162,1,8,0:0:0:0:
352,96,64279,1,8,0:0:0:0:
352,96,64396,1,8,0:0:0:0:
352,96,64631,1,8,0:0:0:0:
160,96,64865,1,0,0:0:0:0:
352,96,65099,1,8,0:0:0:0:
160,96,65217,1,0,0:0:0:0:
352,96,65334,1,8,0:0:0:0:
160,96,65568,1,0,0:0:0:0:
352,288,65803,1,12,0:0:0:0:
352,96,66154,1,8,0:0:0:0:
160,96,66271,1,0,0:0:0:0:
352,96,66506,1,8,0:0:0:0:
160,96,66740,1,0,0:0:0:0:
352,96,67209,1,8,0:0:0:0:
160,96,67443,1,0,0:0:0:0:
352,96,67678,1,8,0:0:0:0:
352,96,68029,1,8,0:0:0:0:
160,96,68146,1,0,0:0:0:0:
352,96,68381,1,8,0:0:0:0:
160,96,68615,1,0,0:0:0:0:
352,96,68849,1,8,0:0:0:0:
352,96,69084,1,8,0:0:0:0:
160,96,69318,1,0,0:0:0:0:
160,96,69435,1,0,0:0:0:0:
160,96,69553,1,0,0:0:0:0:
160,96,69787,1,0,0:0:0:0:
352,96,70021,1,8,0:0:0:0:
352,96,70256,1,8,0:0:0:0:
160,96,70490,1,0,0:0:0:0:
352,96,70724,1,8,0:0:0:0:
160,96,70842,1,0,0:0:0:0:
160,96,70959,1,0,0:0:0:0:
352,96,71193,1,8,0:0:0:0:
160,96,71428,1,0,0:0:0:0:
352,96,71662,1,8,0:0:0:0:
352,96,71779,1,8,0:0:0:0:
160,96,71896,1,0,0:0:0:0:
160,96,72131,1,0,0:0:0:0:
352,96,72365,1,8,0:0:0:0:
160,96,72599,1,0,0:0:0:0:
160,96,72717,1,0,0:0:0:0:
352,96,72834,1,8,0:0:0:0:
160,96,73068,1,0,0:0:0:0:
352,288,73303,1,12,0:0:0:0:
160,96,73654,1,0,0:0:0:0:
352,96,73771,1,8,0:0:0:0:
352,96,74006,1,8,0:0:0:0:
160,96,74240,1,0,0:0:0:0:
352,96,74709,1,8,0:0:0:0:
160,96,74943,1,0,0:0:0:0:
352,96,75178,1,8,0:0:0:0:
160,96,75529,1,0,0:0:0:0:
352,96,75646,1,8,0:0:0:0:
352,96,75881,1,8,0:0:0:0:
160,96,76115,1,0,0:0:0:0:
160,96,76349,1,0,0:0:0:0:
160,96,76467,1,0,0:0:0:0:
352,96,76584,1,8,0:0:0:0:
352,96,76818,1,8,0:0:0:0:
160,96,77053,1,0,0:0:0:0:
160,96,77287,1,0,0:0:0:0:
352,96,77521,1,8,0:0:0:0:
352,96,77756,1,8,0:0:0:0:
160,96,77990,1,0,0:0:0:0:
352,96,78224,1,8,0:0:0:0:
352,96,78342,1,8,0:0:0:0:
160,96,78459,1,0,0:0:0:0:
352,96,78693,1,8,0:0:0:0:
160,96,78928,1,0,0:0:0:0:
352,96,79162,1,8,0:0:0:0:
352,96,79279,1,8,0:0:0:0:
352,96,79396,1,8,0:0:0:0:
352,96,79631,1,8,0:0:0:0:
160,96,79865,1,0,0:0:0:0:
352,96,80099,1,8,0:0:0:0:
160,96,80217,1,0,0:0:0:0:
352,96,80334,1,8,0:0:0:0:
160,96,80568,1,0,0:0:0:0:
352,288,80803,1,12,0:0:0:0:
160,96,81271,1,0,0:0:0:0:
160,96,81506,1,0,0:0:0:0:
352,96,81740,1,8,0:0:0:0:
352,96,82209,1,8,0:0:0:0:
160,96,82443,1,0,0:0:0:0:
160,96,82678,1,0,0:0:0:0:
160,96,83029,1,0,0:0:0:0:
160,96,83381,1,0,0:0:0:0:
352,96,83615,1,8,0:0:0:0:
160,96,84084,1,0,0:0:0:0:
352,288,84553,1,12,0:0:0:0:
160,96,84787,1,0,0:0:0:0:
352,96,85021,1,8,0:0:0:0:
160,96,85256,1,0,0:0:0:0:
352,96,85490,1,8,0:0:0:0:
352,96,85607,1,8,0:0:0:0:
160,96,85724,1,0,0:0:0:0:
160,96,85842,1,0,0:0:0:0:
352,96,85959,1,8,0:0:0:0:
160,96,86193,1,0,0:0:0:0:
352,288,86428,1,12,0:0:0:0:
352,96,87131,1,8,0:0:0:0:
352,96,87248,1,8,0:0:0:0:
160,96,87365,1,0,0:0:0:0:
352,288,87834,1,12,0:0:0:0:
160,288,88303,1,4,0:0:0:0:
160,96,88654,1,0,0:0:0:0:
160,96,88771,1,0,0:0:0:0:
352,96,89006,1,8,0:0:0:0:
160,96,89240,1,0,0:0:0:0:
352,96,89709,1,8,0:0:0:0:
160,96,89943,1,0,0:0:0:0:
352,96,90178,1,8,0:0:0:0:
160,96,90529,1,0,0:0:0:0:
160,96,90646,1,0,0:0:0:0:
352,96,90881,1,8,0:0:0:0:
160,96,91115,1,0,0:0:0:0:
352,96,91584,1,8,0:0:0:0:
352,96,91818,1,8,0:0:0:0:
160,96,92053,1,0,0:0:0:0:
352,96,92521,1,8,0:0:0:0:
160,96,92990,1,0,0:0:0:0:
160,96,93224,1,0,0:0:0:0:
352,96,93459,1,8,0:0:0:0:
160,96,93928,1,0,0:0:0:0:
352,96,94162,1,8,0:0:0:0:
352,96,94279,1,8,0:0:0:0:
352,96,94396,1,8,0:0:0:0:
160,96,94631,1,0,0:0:0:0:
352,96,94865,5,8,0:0:0:0:
160,96,95099,1,0,0:0:0:0:
160,96,95217,1,0,0:0:0:0:
352,96,95334,1,8,0:0:0:0:
160,288,95803,5,4,0:0:0:0:
352,96,96740,1,8,0:0:0:0:
160,96,97678,1,0,0:0:0:0:
352,96,98381,1,8,0:0:0:0:
352,96,98615,1,8,0:0:0:0:
352,96,99084,1,8,0:0:0:0:
160,96,99553,1,0,0:0:0:0:
352,96,100490,1,8,0:0:0:0:
160,96,101428,1,0,0:0:0:0:
160,96,101779,1,0,0:0:0:0:
160,96,102131,1,0,0:0:0:0:
352,96,102365,1,8,0:0:0:0:
352,96,102834,1,8,0:0:0:0:
160,288,103303,1,4,0:0:0:0:
160,96,104006,1,0,0:0:0:0:
352,288,104240,1,12,0:0:0:0:
352,96,104709,1,8,0:0:0:0:
160,96,105178,1,0,0:0:0:0:
160,96,105646,1,0,0:0:0:0:
160,96,105881,1,0,0:0:0:0:
352,288,106115,1,12,0:0:0:0:
352,96,106818,1,8,0:0:0:0:
160,96,107053,1,0,0:0:0:0:
160,96,107521,1,0,0:0:0:0:
352,288,107990,1,12,0:0:0:0:
160,96,108342,1,0,0:0:0:0:
160,96,108693,1,0,0:0:0:0:
352,288,108928,1,12,0:0:0:0:
352,96,109396,1,8,0:0:0:0:
352,96,109513,1,8,0:0:0:0:
160,96,109631,1,0,0:0:0:0:
352,96,109865,1,8,0:0:0:0:
160,96,110099,1,0,0:0:0:0:
352,288,110334,1,12,0:0:0:0:
160,288,110803,1,4,0:0:0:0:
160,96,111154,1,0,0:0:0:0:
352,96,111271,1,8,0:0:0:0:
352,96,111506,1,8,0:0:0:0:
160,96,111740,1,0,0:0:0:0:
160,96,111974,1,0,0:0:0:0:
352,96,112209,1,8,0:0:0:0:
160,96,112678,1,0,0:0:0:0:
352,96,112912,1,8,0:0:0:0:
160,96,113029,1,0,0:0:0:0:
352,96,113146,1,8,0:0:0:0:
160,96,113381,1,0,0:0:0:0:
160,96,113615,1,0,0:0:0:0:
352,96,113849,1,8,0:0:0:0:
352,96,114084,1,8,0:0:0:0:
160,96,114553,1,0,0:0:0:0:
160,96,114904,1,0,0:0:0:0:
352,96,115021,1,8,0:0:0:0:
352,96,115256,1,8,0:0:0:0:
160,96,115490,1,0,0:0:0:0:
160,96,115724,1,0,0:0:0:0:
352,96,115959,1,8,0:0:0:0:
160,96,116193,1,0,0:0:0:0:
160,96,116428,1,0,0:0:0:0:
160,96,116779,1,0,0:0:0:0:
352,96,116896,1,8,0:0:0:0:
160,96,117131,1,0,0:0:0:0:
352,96,117365,1,8,0:0:0:0:
160,96,117599,1,0,0:0:0:0:
160,96,117717,1,0,0:0:0:0:
352,96,117834,1,8,0:0:0:0:
160,96,118068,1,0,0:0:0:0:
160,288,118303,1,4,0:0:0:0:
160,96,118654,1,0,0:0:0:0:
352,96,118771,1,8,0:0:0:0:
352,96,119006,1,8,0:0:0:0:
160,96,119240,1,0,0:0:0:0:
160,96,119474,1,0,0:0:0:0:
352,96,119709,1,8,0:0:0:0:
160,96,120178,1,0,0:0:0:0:
352,96,120412,1,8,0:0:0:0:
160,96,120529,1,0,0:0:0:0:
352,96,120646,1,8,0:0:0:0:
352,96,120881,1,8,0:0:0:0:
160,96,121115,1,0,0:0:0:0:
352,96,121349,1,8,0:0:0:0:
352,96,121584,1,8,0:0:0:0:
160,288,122053,1,4,0:0:0:0:
352,96,122521,1,8,0:0:0:0:
160,288,122990,1,4,0:0:0:0:
352,96,123459,1,8,0:0:0:0:
160,288,123928,1,4,0:0:0:0:
160,96,124162,1,0,0:0:0:0:
160,96,124279,1,0,0:0:0:0:
352,96,124396,1,8,0:0:0:0:
352,96,124631,1,8,0:0:0:0:
160,96,124865,1,0,0:0:0:0:
160,96,125099,1,0,0:0:0:0:
352,96,125334,1,8,0:0:0:0:
352,96,125451,1,8,0:0:0:0:
352,96,125568,1,8,0:0:0:0:
160,288,125803,1,4,0:0:0:0:
352,96,126037,1,8,0:0:0:0:
352,96,126154,1,8,0:0:0:0:
352,96,126271,1,8,0:0:0:0:
160,96,126388,1,0,0:0:0:0:
352,96,126740,1,8,0:0:0:0:
160,96,127092,1,0,0:0:0:0:
352,96,127209,1,8,0:0:0:0:
352,96,127443,1,8,0:0:0:0:
160,96,127678,1,0,0:0:0:0:
352,96,127912,1,8,0:0:0:0:
352,96,128029,1,8,0:0:0:0:
352,96,128146,1,8,0:0:0:0:
160,96,128263,1,0,0:0:0:0:
352,96,128615,1,8,0:0:0:0:
352,96,128967,1,8,0:0:0:0:
160,96,129084,1,0,0:0:0:0:
352,96,129318,1,8,0:0:0:0:
160,96,129553,1,0,0:0:0:0:
352,96,129787,1,8,0:0:0:0:
352,96,129904,1,8,0:0:0:0:
160,96,130021,1,0,0:0:0:0:
160,96,130138,1,0,0:0:0:0:
160,96,130490,1,0,0:0:0:0:
352,96,130959,1,8,0:0:0:0:
352,96,131193,1,8,0:0:0:0:
160,288,131428,1,4,0:0:0:0:
352,96,131896,1,8,0:0:0:0:
160,288,132131,1,4,0:0:0:0:
160,96,132599,1,0,0:0:0:0:
352,288,132834,1,12,0:0:0:0:
352,96,133068,1,8,0:0:0:0:
160,288,133303,1,4,0:0:0:0:
352,96,133771,1,8,0:0:0:0:
160,96,134006,1,0,0:0:0:0:
160,96,134123,1,0,0:0:0:0:
352,96,134240,1,8,0:0:0:0:
160,96,134474,1,0,0:0:0:0:
352,96,134709,1,8,0:0:0:0:
160,96,134943,1,0,0:0:0:0:
160,96,135060,1,0,0:0:0:0:
352,96,135178,1,8,0:0:0:0:
160,96,135412,1,0,0:0:0:0:
352,96,135646,1,8,0:0:0:0:
352,96,135881,1,8,0:0:0:0:
352,96,135998,1,8,0:0:0:0:
160,96,136115,1,0,0:0:0:0:
160,96,136467,1,0,0:0:0:0:
352,96,136584,1,8,0:0:0:0:
352,96,136818,1,8,0:0:0:0:
160,96,137053,1,0,0:0:0:0:
160,96,137287,1,0,0:0:0:0:
352,96,137521,1,8,0:0:0:0:
352,96,137756,1,8,0:0:0:0:
160,96,137990,1,0,0:0:0:0:
160,96,138224,1,0,0:0:0:0:
160,96,138342,1,0,0:0:0:0:
352,96,138459,1,8,0:0:0:0:
352,96,138576,1,8,0:0:0:0:
352,96,138693,1,8,0:0:0:0:
160,288,138928,1,4,0:0:0:0:
352,96,139865,1,8,0:0:0:0:
352,96,140334,5,8,0:0:0:0:
352,96,140568,1,8,0:0:0:0:
160,288,140803,1,4,0:0:0:0:
352,96,141154,1,8,0:0:0:0:
160,96,141271,1,0,0:0:0:0:
352,96,141506,1,8,0:0:0:0:
160,96,141740,1,0,0:0:0:0:
352,96,142209,1,8,0:0:0:0:
352,96,142443,1,8,0:0:0:0:
160,96,142678,1,0,0:0:0:0:
352,96,143029,1,8,0:0:0:0:
160,96,143146,1,0,0:0:0:0:
352,96,143381,1,8,0:0:0:0:
160,96,143615,1,0,0:0:0:0:
352,96,143849,1,8,0:0:0:0:
352,96,144084,1,8,0:0:0:0:
160,96,144318,1,0,0:0:0:0:
160,96,144435,1,0,0:0:0:0:
160,96,144553,1,0,0:0:0:0:
160,96,144787,1,0,0:0:0:0:
352,96,145021,1,8,0:0:0:0:
352,96,145256,1,8,0:0:0:0:
160,96,145490,1,0,0:0:0:0:
352,96,145724,1,8,0:0:0:0:
352,96,145842,1,8,0:0:0:0:
160,96,145959,1,0,0:0:0:0:
352,96,146193,1,8,0:0:0:0:
160,96,146428,1,0,0:0:0:0:
352,96,146662,1,8,0:0:0:0:
352,96,146779,1,8,0:0:0:0:
352,96,146896,1,8,0:0:0:0:
352,96,147131,1,8,0:0:0:0:
160,96,147365,1,0,0:0:0:0:
352,96,147599,1,8,0:0:0:0:
160,96,147717,1,0,0:0:0:0:
352,96,147834,1,8,0:0:0:0:
352,96,148068,1,8,0:0:0:0:
160,288,148303,1,4,0:0:0:0:
352,96,148654,1,8,0:0:0:0:
160,96,148771,1,0,0:0:0:0:
352,96,149006,1,8,0:0:0:0:
160,96,149240,1,0,0:0:0:0:
352,96,149709,1,8,0:0:0:0:
352,96,149943,1,8,0:0:0:0:
160,96,150178,1,0,0:0:0:0:
352,96,150529,1,8,0:0:0:0:
160,96,150646,1,0,0:0:0:0:
352,96,150881,1,8,0:0:0:0:
160,96,151115,1,0,0:0:0:0:
352,96,151349,1,8,0:0:0:0:
352,96,151584,1,8,0:0:0:0:
160,96,151818,1,0,0:0:0:0:
160,96,151935,1,0,0:0:0:0:
160,96,152053,1,0,0:0:0:0:
160,96,152287,1,0,0:0:0:0:
352,96,152521,1,8,0:0:0:0:
352,96,152756,1,8,0:0:0:0:
160,96,152990,1,0,0:0:0:0:
352,96,153224,1,8,0:0:0:0:
160,96,153342,1,0,0:0:0:0:
160,96,153459,1,0,0:0:0:0:
352,96,153693,1,8,0:0:0:0:
160,96,153928,1,0,0:0:0:0:
352,96,154162,1,8,0:0:0:0:
352,96,154279,1,8,0:0:0:0:
160,96,154396,1,0,0:0:0:0:
160,96,154631,1,0,0:0:0:0:
352,96,154865,1,8,0:0:0:0:
160,96,155099,1,0,0:0:0:0:
160,96,155217,1,0,0:0:0:0:
352,96,155334,1,8,0:0:0:0:
352,96,155568,1,8,0:0:0:0:
160,288,155803,1,4,0:0:0:0:
160,96,156154,1,0,0:0:0:0:
352,96,156271,1,8,0:0:0:0:
160,96,156506,1,0,0:0:0:0:
352,96,156740,1,8,0:0:0:0:
352,96,157209,1,8,0:0:0:0:
352,96,157443,1,8,0:0:0:0:
160,96,157678,1,0,0:0:0:0:
160,96,158029,1,0,0:0:0:0:
352,96,158146,1,8,0:0:0:0:
160,96,158381,1,0,0:0:0:0:
352,96,158615,1,8,0:0:0:0:
160,96,158849,1,0,0:0:0:0:
160,96,158967,1,0,0:0:0:0:
352,96,159084,1,8,0:0:0:0:
352,96,159318,1,8,0:0:0:0:
160,96,159553,1,0,0:0:0:0:
160,96,159787,1,0,0:0:0:0:
352,96,160021,1,8,0:0:0:0:
352,96,160256,1,8,0:0:0:0:
160,96,160490,1,0,0:0:0:0:
352,96,160724,1,8,0:0:0:0:
352,96,160842,1,8,0:0:0:0:
160,96,160959,1,0,0:0:0:0:
352,96,161193,1,8,0:0:0:0:
160,96,161428,1,0,0:0:0:0:
352,96,161662,1,8,0:0:0:0:
352,96,161779,1,8,0:0:0:0:
352,96,161896,1,8,0:0:0:0:
352,96,162131,1,8,0:0:0:0:
160,96,162365,1,0,0:0:0:0:
352,96,162599,1,8,0:0:0:0:
160,96,162717,1,0,0:0:0:0:
352,96,162834,1,8,0:0:0:0:
160,96,163068,1,0,0:0:0:0:
352,288,163303,1,12,0:0:0:0:
160,96,163771,1,0,0:0:0:0:
160,96,164006,1,0,0:0:0:0:
352,96,164240,1,8,0:0:0:0:
352,96,164709,1,8,0:0:0:0:
160,96,164943,1,0,0:0:0:0:
160,96,165178,1,0,0:0:0:0:
160,96,165529,1,0,0:0:0:0:
160,96,165646,1,0,0:0:0:0:
160,96,165881,1,0,0:0:0:0:
352,96,166115,1,8,0:0:0:0:
160,96,166584,1,0,0:0:0:0:
352,288,167053,1,12,0:0:0:0:
160,96,167287,1,0,0:0:0:0:
352,96,167521,1,8,0:0:0:0:
160,96,167756,1,0,0:0:0:0:
352,96,167990,1,8,0:0:0:0:
352,96,168107,1,8,0:0:0:0:
160,96,168224,1,0,0:0:0:0:
160,96,168342,1,0,0:0:0:0:
352,96,168459,1,8,0:0:0:0:
160,96,168693,1,0,0:0:0:0:
352,96,168928,1,8,0:0:0:0:
352,288,169396,1,12,0:0:0:0:
160,288,169865,1,4,0:0:0:0:
352,96,170334,1,8,0:0:0:0:
352,96,170451,1,8,0:0:0:0:
352,96,170568,1,8,0:0:0:0:
160,288,170803,1,4,0:0:0:0:
352,96,171271,1,8,0:0:0:0:
160,96,171623,1,0,0:0:0:0:
160,96,171740,1,0,0:0:0:0:
160,96,171974,1,0,0:0:0:0:
352,96,172209,1,8,0:0:0:0:
352,96,172443,1,8,0:0:0:0:
352,96,172560,1,8,0:0:0:0:
160,96,172678,1,0,0:0:0:0:
352,96,173146,1,8,0:0:0:0:
160,96,173381,1,0,0:0:0:0:
160,96,173498,1,0,0:0:0:0:
160,96,173615,1,0,0:0:0:0:
160,96,173849,1,0,0:0:0:0:
352,96,174084,1,8,0:0:0:0:
160,96,174318,1,0,0:0:0:0:
352,96,174435,1,8,0:0:0:0:
160,96,174553,1,0,0:0:0:0:
160,96,174787,1,0,0:0:0:0:
352,96,175021,1,8,0:0:0:0:
160,96,175138,1,0,0:0:0:0:
352,96,175490,1,8,0:0:0:0:
160,96,175646,1,0,0:0:0:0:
160,96,175803,1,0,0:0:0:0:
352,96,175959,1,8,0:0:0:0:
160,96,176076,1,0,0:0:0:0:
352,96,176193,1,8,0:0:0:0:
352,288,176428,1,12,0:0:0:0:
352,96,176662,1,8,0:0:0:0:
352,96,176740,1,8,0:0:0:0:
352,96,176818,1,8,0:0:0:0:
160,96,176896,1,0,0:0:0:0:
352,96,177131,1,8,0:0:0:0:
160,96,177365,1,0,0:0:0:0:
352,96,177599,1,8,0:0:0:0:
352,96,177717,1,8,0:0:0:0:
352,96,177834,1,8,0:0:0:0:
352,96,178068,1,8,0:0:0:0:
160,288,178303,1,4,0:0:0:0:
352,96,178771,1,8,0:0:0:0:
352,96,179006,1,8,0:0:0:0:
352,96,179123,1,8,0:0:0:0:
160,96,179240,1,0,0:0:0:0:
160,96,179474,1,0,0:0:0:0:
352,96,179709,1,8,0:0:0:0:
352,96,179865,1,8,0:0:0:0:
352,96,180021,1,8,0:0:0:0:
160,96,180178,1,0,0:0:0:0:
352,96,180412,1,8,0:0:0:0:
352,96,180646,1,8,0:0:0:0:
160,96,180881,1,0,0:0:0:0:
352,96,180998,1,8,0:0:0:0:
160,96,181115,1,0,0:0:0:0:
160,96,181349,1,0,0:0:0:0:
352,96,181584,1,8,0:0:0:0:
352,96,181701,1,8,0:0:0:0:
160,96,181818,1,0,0:0:0:0:
352,96,182053,1,8,0:0:0:0:
160,96,182287,1,0,0:0:0:0:
160,96,182404,1,0,0:0:0:0:
352,96,182521,1,8,0:0:0:0:
160,96,182756,1,0,0:0:0:0:
352,96,182990,1,8,0:0:0:0:
160,96,183224,1,0,0:0:0:0:
352,96,183342,1,8,0:0:0:0:
352,96,183459,1,8,0:0:0:0:
352,96,183693,1,8,0:0:0:0:
160,96,183928,1,0,0:0:0:0:
160,96,184045,1,0,0:0:0:0:
352,96,184162,1,8,0:0:0:0:
352,96,184279,1,8,0:0:0:0:
160,96,184396,1,0,0:0:0:0:
352,96,184631,1,8,0:0:0:0:
352,96,184865,1,8,0:0:0:0:
160,96,184982,1,0,0:0:0:0:
352,96,185099,1,8,0:0:0:0:
160,96,185217,1,0,0:0:0:0:
352,96,185334,1,8,0:0:0:0:
352,96,185568,1,8,0:0:0:0:
160,288,185803,1,4,0:0:0:0:
160,96,186271,1,0,0:0:0:0:
160,96,186506,1,0,0:0:0:0:
352,96,186740,1,8,0:0:0:0:
352,96,187092,1,8,0:0:0:0:
352,96,187209,1,8,0:0:0:0:
352,96,187443,1,8,0:0:0:0:
160,96,187678,1,0,0:0:0:0:
160,96,188146,1,0,0:0:0:0:
160,96,188381,1,0,0:0:0:0:
352,96,188615,1,8,0:0:0:0:
160,96,188967,1,0,0:0:0:0:
352,96,189084,1,8,0:0:0:0:
352,96,189318,1,8,0:0:0:0:
160,96,189553,1,0,0:0:0:0:
160,96,190021,1,0,0:0:0:0:
160,96,190256,1,0,0:0:0:0:
352,96,190490,1,8,0:0:0:0:
352,96,190842,1,8,0:0:0:0:
352,96,190959,1,8,0:0:0:0:
352,96,191193,1,8,0:0:0:0:
160,288,191428,1,4,0:0:0:0:
352,96,191896,1,8,0:0:0:0:
160,288,192365,1,4,0:0:0:0:
352,96,192599,1,8,0:0:0:0:
352,96,192717,1,8,0:0:0:0:
352,96,192834,1,8,0:0:0:0:
352,96,193068,1,8,0:0:0:0:
160,288,193303,1,4,0:0:0:0:
352,96,193537,1,8,0:0:0:0:
160,96,193654,1,0,0:0:0:0:
352,96,194006,1,8,0:0:0:0:
160,96,194240,1,0,0:0:0:0:
352,96,194474,1,8,0:0:0:0:
352,96,194709,1,8,0:0:0:0:
160,96,194943,1,0,0:0:0:0:
160,96,195060,1,0,0:0:0:0:
160,96,195178,1,0,0:0:0:0:
352,96,195412,1,8,0:0:0:0:
160,96,195529,1,0,0:0:0:0:
352,96,195881,1,8,0:0:0:0:
160,96,196115,1,0,0:0:0:0:
160,96,196349,1,0,0:0:0:0:
160,96,196467,1,0,0:0:0:0:
352,96,196584,1,8,0:0:0:0:
352,96,196818,1,8,0:0:0:0:
160,288,197053,1,4,0:0:0:0:
352,96,197521,1,8,0:0:0:0:
352,96,197756,1,8,0:0:0:0:
352,96,197873,1,8,0:0:0:0:
160,96,197990,1,0,0:0:0:0:
352,96,198224,1,8,0:0:0:0:
160,96,198459,1,0,0:0:0:0:
352,96,198576,1,8,0:0:0:0:
160,288,198928,1,4,0:0:0:0:
160,96,199162,1,0,0:0:0:0:
352,96,199396,1,8,0:0:0:0:
352,96,199631,1,8,0:0:0:0:
160,96,199865,1,0,0:0:0:0:
160,96,200099,1,0,0:0:0:0:
160,96,200217,1,0,0:0:0:0:
352,96,200334,1,8,0:0:0:0:
352,96,200451,1,8,0:0:0:0:
352,96,200568,1,8,0:0:0:0:
160,288,200803,1,4,0:0:0:0:
352,96,201740,1,8,0:0:0:0:
160,96,202209,1,0,0:0:0:0:
352,288,202678,1,12,0:0:0:0:
352,96,209709,5,8,0:0:0:0:
160,288,210178,1,4,0:0:0:0:
352,96,210529,1,8,0:0:0:0:
160,96,210646,1,0,0:0:0:0:
160,96,210881,1,0,0:0:0:0:
352,288,211115,1,12,0:0:0:0:
352,96,211584,1,8,0:0:0:0:
352,96,211818,1,8,0:0:0:0:
160,96,212053,1,0,0:0:0:0:
352,96,212404,1,8,0:0:0:0:
352,96,212521,1,8,0:0:0:0:
160,96,212756,1,0,0:0:0:0:
352,288,212990,1,12,0:0:0:0:
352,96,213459,1,8,0:0:0:0:
352,96,213693,1,8,0:0:0:0:
160,96,213928,1,0,0:0:0:0:
160,96,214396,1,0,0:0:0:0:
160,96,214631,1,0,0:0:0:0:
352,288,214865,1,12,0:0:0:0:
160,96,215099,1,0,0:0:0:0:
160,96,215217,1,0,0:0:0:0:
352,96,215334,1,8,0:0:0:0:
160,96,215568,1,0,0:0:0:0:
352,288,215803,1,12,0:0:0:0:
352,288,216740,1,12,0:0:0:0:
352,288,217209,1,12,0:0:0:0:
160,96,217678,1,0,0:0:0:0:
352,288,218146,1,12,0:0:0:0:
160,96,218381,1,0,0:0:0:0:
160,96,218615,1,0,0:0:0:0:
352,96,219084,1,8,0:0:0:0:
160,96,219318,1,0,0:0:0:0:
352,96,219553,1,8,0:0:0:0:
160,96,219904,1,0,0:0:0:0:
352,96,220021,1,8,0:0:0:0:
352,96,220256,1,8,0:0:0:0:
160,96,220490,1,0,0:0:0:0:
160,96,220724,1,0,0:0:0:0:
160,96,220842,1,0,0:0:0:0:
352,96,220959,1,8,0:0:0:0:
352,96,221193,1,8,0:0:0:0:
160,96,221428,1,0,0:0:0:0:
160,96,221662,1,0,0:0:0:0:
352,96,221896,1,8,0:0:0:0:
352,96,222131,1,8,0:0:0:0:
160,96,222365,1,0,0:0:0:0:
352,96,222599,1,8,0:0:0:0:
352,96,222717,1,8,0:0:0:0:
160,96,222834,1,0,0:0:0:0:
352,96,223068,1,8,0:0:0:0:
160,96,223303,1,0,0:0:0:0:
352,96,223537,1,8,0:0:0:0:
352,96,223654,1,8,0:0:0:0:
352,96,223771,1,8,0:0:0:0:
352,96,224006,1,8,0:0:0:0:
160,96,224240,1,0,0:0:0:0:
352,96,224474,1,8,0:0:0:0:
160,96,224592,1,0,0:0:0:0:
352,96,224709,1,8,0:0:0:0:
160,96,224943,1,0,0:0:0:0:
352,288,225178,1,12,0:0:0:0:
160,96,225646,1,0,0:0:0:0:
160,96,225881,1,0,0:0:0:0:
352,96,226115,1,8,0:0:0:0:
352,96,226584,1,8,0:0:0:0:
160,96,226818,1,0,0:0:0:0:
160,96,227053,1,0,0:0:0:0:
160,96,227404,1,0,0:0:0:0:
160,96,227756,1,0,0:0:0:0:
352,96,227990,1,8,0:0:0:0:
160,96,228459,1,0,0:0:0:0:
352,288,228928,1,12,0:0:0:0:
160,96,229162,1,0,0:0:0:0:
352,96,229396,1,8,0:0:0:0:
160,96,229631,1,0,0:0:0:0:
352,96,229865,1,8,0:0:0:0:
352,96,229982,1,8,0:0:0:0:
160,96,230099,1,0,0:0:0:0:
160,96,230217,1,0,0:0:0:0:
352,96,230334,1,8,0:0:0:0:
160,96,230568,1,0,0:0:0:0:
352,288,230803,1,12,0:0:0:0:
352,96,231506,1,8,0:0:0:0:
352,96,231623,5,8,0:0:0:0:
160,96,231740,1,0,0:0:0:0:
352,288,232209,1,12,0:0:0:0:
160,288,232678,5,4,0:0:0:0:
160,96,233029,1,0,0:0:0:0:
160,96,233146,1,0,0:0:0:0:
352,96,233381,1,8,0:0:0:0:
160,96,233615,1,0,0:0:0:0:
352,96,234084,1,8,0:0:0:0:
160,96,234318,1,0,0:0:0:0:
352,96,234553,1,8,0:0:0:0:
160,96,234904,1,0,0:0:0:0:
160,96,235021,1,0,0:0:0:0:
352,96,235256,1,8,0:0:0:0:
160,96,235490,1,0,0:0:0:0:
352,96,235959,1,8,0:0:0:0:
352,96,236193,1,8,0:0:0:0:
160,96,236428,1,0,0:0:0:0:
352,96,236896,1,8,0:0:0:0:
160,96,237365,1,0,0:0:0:0:
160,96,237599,1,0,0:0:0:0:
352,96,237834,1,8,0:0:0:0:
160,96,238303,1,0,0:0:0:0:
352,96,238537,1,8,0:0:0:0:
160,96,238654,1,0,0:0:0:0:
352,96,238771,1,8,0:0:0:0:
160,96,239006,1,0,0:0:0:0:
352,96,239240,1,8,0:0:0:0:
352,96,239357,1,8,0:0:0:0:
160,96,239474,1,0,0:0:0:0:
160,96,239592,5,0,0:0:0:0:
352,96,239709,1,8,0:0:0:0:
352,96,240178,1,8,0:0:0:0:
160,288,240646,5,4,0:0:0:0:
160,96,242053,1,0,0:0:0:0:
160,96,242287,1,0,0:0:0:0:
352,96,242521,5,8,0:0:0:0:
352,96,242599,1,8,0:0:0:0:
352,96,242678,1,8,0:0:0:0:
352,96,242756,1,8,0:0:0:0:
160,288,242990,1,4,0:0:0:0:
352,288,243224,1,12,0:0:0:0:
