osu file format v14

[General]
AudioFilename: audio.mp3
AudioLeadIn: 0
PreviewTime: 127169
Countdown: 0
SampleSet: Soft
StackLeniency: 0.4
Mode: 0
LetterboxInBreaks: 0
WidescreenStoryboard: 0

[Editor]
DistanceSpacing: 1.9
BeatDivisor: 4
GridSize: 32
TimelineZoom: 1.7

[Metadata]
Title:With Tomorrow
TitleUnicode:With Tomorrow
Artist:Yumeno Yuki
ArtistUnicode:夢乃ゆき
Creator:Shurelia
Version:With You
Source:月の彼方で逢いましょう
Tags:つきかな Tsukikana tsuki no kanata de aimashou See you at the other side of the moon meis clauson eroge visual novel vn tone works pop japanese video games shizuku- kazato asa shikibe mayu
BeatmapID:3657682
BeatmapSetID:1785707

[Difficulty]
HPDrainRate:6.5
CircleSize:4.2
OverallDifficulty:7.5
ApproachRate:8.2
SliderMultiplier:2
SliderTickRate:1

[Events]
//Background and Video events
0,0,"with tomorrowbg.jpg",0,0
//Break Periods
2,185869,187949
//Storyboard Layer 0 (Background)
//Storyboard Layer 1 (Fail)
//Storyboard Layer 2 (Pass)
//Storyboard Layer 3 (Foreground)
//Storyboard Layer 4 (Overlay)
//Storyboard Sound Samples

[TimingPoints]
527,428.571428571429,4,2,1,45,1,0
6312,-166.666666666667,4,2,1,45,0,0
7384,-125,4,2,1,45,0,0
14241,-125,4,2,1,50,0,0
27955,-111.111111111111,4,2,1,55,0,0
41669,-100,4,2,1,60,0,0
50241,-333.333333333333,4,2,1,45,0,0
51955,-83.3333333333333,4,2,1,70,0,1
75955,-125,4,2,1,45,0,0
89669,-111.111111111111,4,2,1,50,0,0
117098,-100,4,2,1,60,0,0
125669,-333.333333333333,4,2,1,45,0,0
127384,-83.3333333333333,4,2,1,70,0,1
151384,-83.3333333333333,4,2,1,70,0,0
165098,-83.3333333333333,4,2,1,70,0,1
178812,-83.3333333333333,4,2,1,75,0,1
184062,-83.3333333333333,4,2,1,50,0,0
188669,-333.333333333333,4,2,1,35,0,0
189044,-333.333333333333,4,2,1,5,0,0
189098,-76.9230769230769,4,2,1,70,0,1
209669,-125,4,2,1,45,0,0
223491,-125,4,2,1,25,0,0

[Colours]
Combo1 : 250,180,240
Combo2 : 120,200,230
Combo3 : 255,230,130
Combo4 : 160,230,150

[HitObjects]
496,18,6312,5,0,0:0:0:0:
418,77,6527,2,0,P|388:81|359:74,1,59.9999981689454,2|0,0:0|0:0,0:0:0:0:
302,12,6955,2,0,P|272:8|243:15,1,59.9999981689454,2|0,0:0|0:0,0:0:0:0:
18,89,7384,6,0,P|97:82|176:70,1,160,2|0,0:0|0:0,0:0:0:0:
30,175,8027,2,0,P|109:168|188:156,1,160,2|0,0:0|0:0,0:0:0:0:
36,263,8669,1,0,0:0:0:0:
36,263,8884,2,0,P|115:256|194:244,1,160,2|0,0:0|0:0,0:0:0:0:
123,347,9527,1,0,0:0:0:0:
123,347,10169,1,2,0:0:0:0:
202,356,10384,1,2,0:0:0:0:
281,361,10598,1,2,0:0:0:0:
486,266,10812,6,0,P|406:273|327:285,1,160,2|0,0:0|0:0,0:0:0:0:
474,180,11455,2,0,P|394:187|315:199,1,160,2|0,0:0|0:0,0:0:0:0:
468,92,12097,1,0,0:0:0:0:
468,91,12312,2,0,P|388:99|309:111,1,160,2|0,0:0|0:0,0:0:0:0:
381,8,12955,1,0,0:0:0:0:
381,8,13812,1,2,0:3:0:0:
242,38,14026,1,0,0:0:0:0:
242,38,14134,1,0,0:0:0:0:
241,37,14241,6,0,P|166:51|138:123,1,160,2|0,3:2|0:0,0:0:0:0:
225,276,14884,2,0,P|223:196|215:116,1,160,2|0,3:2|0:0,0:0:0:0:
65,175,15526,1,0,0:0:0:0:
65,175,15741,2,0,P|67:254|74:334,1,160,2|0,3:2|0:0,0:0:0:0:
167,353,16384,1,0,0:0:0:0:
167,353,17026,1,0,0:0:0:0:
225,276,17241,1,2,0:0:0:0:
228,182,17455,1,0,0:0:0:0:
180,98,17669,6,0,P|259:91|338:78,1,160,2|0,3:2|0:0,0:0:0:0:
511,66,18312,2,0,P|436:88|397:155,1,160,2|0,3:2|0:0,0:0:0:0:
469,310,18954,1,0,0:0:0:0:
469,309,19169,2,0,P|477:230|483:150,1,160,2|0,3:2|0:0,0:0:0:0:
366,246,19812,1,0,0:0:0:0:
366,246,20241,1,2,0:0:0:0:
299,314,20455,1,0,0:0:0:0:
222,256,20669,1,2,0:0:0:0:
154,324,20883,1,0,0:0:0:0:
154,324,20991,1,0,0:0:0:0:
153,324,21098,6,0,P|77:347|-1:361,1,160,2|0,3:2|0:0,0:0:0:0:
66,218,21741,2,0,P|142:241|221:255,1,160,2|0,3:2|0:0,0:0:0:0:
164,106,22384,1,0,0:0:0:0:
164,106,22598,2,0,P|87:129|8:143,1,160,2|0,3:2|0:0,0:0:0:0:
17,17,23241,1,0,0:0:0:0:
112,28,23455,1,0,0:0:0:0:
207,22,23669,2,0,P|239:45|260:78,1,80
358,68,24098,2,0,P|354:107|335:142,1,80,2|0,0:0|0:0,0:0:0:0:
431,209,24527,6,0,P|357:238|278:234,1,160,2|0,3:2|0:0,0:0:0:0:
52,186,25169,2,0,P|125:156|204:160,1,160,2|0,3:2|0:0,0:0:0:0:
209,384,25811,1,0,0:0:0:0:
209,383,26026,2,0,P|171:313|141:239,1,160,2|0,3:2|0:0,0:0:0:0:
114,81,26669,1,0,0:0:0:0:
204,39,26884,1,2,0:0:0:0:
204,39,26991,1,0,0:0:0:0:
204,39,27098,1,2,0:0:0:0:
293,74,27312,1,2,0:0:0:0:
379,32,27526,1,2,0:0:0:0:
476,70,27740,1,0,0:0:0:0:
476,70,27848,1,0,0:0:0:0:
476,70,27955,6,0,P|493:158|497:247,1,179.999994506836,6|0,3:2|0:0,0:0:0:0:
370,384,28598,2,0,P|373:294|391:206,1,179.999994506836,2|0,3:2|0:0,0:0:0:0:
251,320,29240,1,0,0:0:0:0:
249,320,29455,2,0,B|187:353|124:293|74:324,1,179.999994506836,2|0,3:2|0:0,0:0:0:0:
204,245,30098,1,0,0:0:0:0:
25,124,30527,1,0,0:0:0:0:
179,27,30955,1,10,0:0:0:0:
278,67,31169,1,0,0:0:0:0:
376,110,31384,6,0,P|353:197|341:287,1,179.999994506836,2|0,3:2|0:0,0:0:0:0:
465,211,32027,2,0,P|487:124|499:34,1,179.999994506836,2|0,3:2|0:0,0:0:0:0:
278,67,32668,1,0,0:0:0:0:
277,67,32884,2,0,B|210:103|160:47|101:73,1,179.999994506836,2|0,3:2|0:0,0:0:0:0:
234,176,33527,2,0,P|190:186|145:193,1,89.9999972534181
62,227,33955,1,2,0:0:0:0:
62,316,34169,1,0,0:0:0:0:
140,359,34383,1,10,0:0:0:0:
232,336,34597,1,0,0:0:0:0:
232,336,34705,1,0,0:0:0:0:
232,335,34812,6,0,P|321:326|410:336,1,179.999994506836,2|0,3:2|0:0,0:0:0:0:
286,174,35455,2,0,P|368:209|440:263,1,179.999994506836,2|0,3:2|0:0,0:0:0:0:
413,51,36098,1,0,0:0:0:0:
413,51,36312,2,0,P|466:123|502:205,1,179.999994506836,2|0,3:2|0:0,0:0:0:0:
477,292,36955,1,0,0:0:0:0:
393,324,37169,1,0,0:0:0:0:
313,282,37384,1,0,0:0:0:0:
229,314,37598,1,0,0:0:0:0:
50,384,37812,1,10,0:0:0:0:
126,320,38026,1,0,0:0:0:0:
6,268,38240,6,0,P|74:211|162:204,1,179.999994506836,2|0,3:2|0:0,0:0:0:0:
283,384,38884,2,0,P|214:327|126:320,1,179.999994506836,2|0,3:2|0:0,0:0:0:0:
19,374,39527,1,0,0:0:0:0:
63,194,39741,2,0,P|53:104|40:15,1,179.999994506836,2|0,3:2|0:0,0:0:0:0:
135,82,40383,1,0,0:0:0:0:
135,82,40598,1,0,0:0:0:0:
218,49,40812,1,2,0:0:0:0:
299,10,41027,1,4,3:0:0:0:
434,140,41240,1,4,3:0:0:0:
405,49,41454,1,0,0:0:0:0:
405,49,41562,1,0,0:0:0:0:
404,49,41669,6,0,P|452:33|498:13,1,100,4|0,3:2|0:0,0:0:0:0:
358,221,42098,1,0,3:0:0:0:
282,145,42312,2,0,P|234:160|188:180,1,100,0|8,3:0|0:0,0:0:0:0:
102,340,42741,1,0,0:0:0:0:
245,285,42956,1,0,3:0:0:0:
61,229,43170,1,0,3:0:0:0:
281,384,43598,1,8,0:0:0:0:
512,258,44027,1,0,3:0:0:0:
444,192,44241,2,0,P|454:143|458:93,1,100,8|0,0:0|3:0,0:0:0:0:
321,17,44669,1,8,0:0:0:0:
295,14,44777,1,8,0:0:0:0:
273,26,44884,1,8,0:0:0:0:
258,46,44991,1,8,0:0:0:0:
257,69,45098,6,0,P|208:81|158:87,1,100,2|0,3:2|0:0,0:0:0:0:
0,55,45527,1,0,3:0:0:0:
91,0,45741,1,0,3:0:0:0:
55,147,45955,2,0,P|60:196|59:246,1,100,8|0,0:0|0:0,0:0:0:0:
23,384,46384,1,0,3:0:0:0:
121,329,46598,1,0,3:0:0:0:
120,329,46812,2,0,P|170:323|220:328,1,100,2|8,0:0|0:0,0:0:0:0:
348,183,47241,1,0,0:0:0:0:
259,130,47455,2,0,P|209:134|159:129,1,100,0|8,3:0|0:0,0:0:0:0:
34,36,47883,1,0,3:0:0:0:
43,164,48098,1,8,0:3:0:0:
166,15,48312,1,8,0:3:0:0:
347,182,48527,6,0,P|396:170|441:148,1,100,4|0,3:2|0:0,0:0:0:0:
512,374,48955,1,0,3:0:0:0:
431,306,49169,2,0,P|381:313|335:332,1,100,0|8,3:0|0:0,0:0:0:0:
141,243,49598,1,0,3:0:0:0:
37,333,49812,1,8,0:0:0:0:
37,359,49920,1,8,0:3:0:0:
51,380,50027,1,8,3:0:0:0:
141,243,50241,6,0,P|215:213|238:289,1,179.999994506836,4|0,3:2|0:0,0:0:0:0:
238,289,51955,6,0,P|324:264|413:254,1,179.999994506836,6|0,3:2|0:0,0:0:0:0:
447,272,52384,1,10,0:0:0:0:
498,151,52598,2,0,P|494:92|485:32,1,119.999996337891,0|2,0:0|3:2,0:0:0:0:
274,0,53027,1,0,3:0:0:0:
416,138,53241,1,10,0:0:0:0:
387,21,53455,1,0,0:0:0:0:
236,185,53669,6,0,P|146:172|56:167,1,179.999994506836,2|0,3:2|0:0,0:0:0:0:
43,195,54098,1,10,0:0:0:0:
75,384,54312,2,0,P|116:341|138:285,1,119.999996337891,0|2,0:0|3:2,0:0:0:0:
168,85,54741,1,0,3:0:0:0:
43,195,54955,1,10,0:0:0:0:
62,7,55169,1,0,0:0:0:0:
62,7,55277,1,0,0:0:0:0:
62,7,55384,6,0,P|148:30|238:39,1,179.999994506836,2|0,3:2|0:0,0:0:0:0:
261,34,55813,1,10,0:0:0:0:
421,95,56027,2,0,P|364:108|317:146,1,119.999996337891,0|2,0:0|3:2,0:0:0:0:
292,290,56456,1,0,3:0:0:0:
451,182,56669,1,10,0:0:0:0:
475,280,56884,1,0,0:0:0:0:
179,330,57098,6,0,P|168:241|192:155,1,179.999994506836,2|0,3:2|0:0,0:0:0:0:
215,138,57527,1,10,0:0:0:0:
138,12,57741,2,0,P|78:10|18:0,1,119.999996337891,0|2,0:0|3:2,0:0:0:0:
215,138,58169,1,0,3:0:0:0:
85,97,58384,1,10,0:0:0:0:
14,261,58598,1,0,0:0:0:0:
14,261,58705,1,0,0:0:0:0:
14,261,58812,6,0,P|100:284|178:329,1,179.999994506836,6|0,3:2|0:0,0:0:0:0:
189,347,59241,1,10,0:0:0:0:
336,384,59455,2,0,P|337:325|311:272,1,119.999996337891,0|2,0:0|3:2,0:0:0:0:
187,89,59884,1,0,3:0:0:0:
351,138,60098,1,10,0:0:0:0:
205,245,60312,1,0,0:0:0:0:
422,326,60527,6,0,P|436:237|463:151,1,179.999994506836,2|0,3:2|0:0,0:0:0:0:
481,133,60956,1,10,0:0:0:0:
350,0,61169,2,0,P|359:59|372:117,1,119.999996337891,0|2,0:0|3:2,0:0:0:0:
267,272,61598,1,0,3:0:0:0:
200,78,61812,1,10,0:0:0:0:
0,194,62027,2,0,P|29:199|59:204,1,59.9999981689454
110,261,62241,6,0,P|98:171|87:82,1,179.999994506836,2|0,3:2|0:0,0:0:0:0:
86,52,62670,1,10,0:0:0:0:
229,167,62883,2,0,P|284:146|336:115,1,119.999996337891,0|2,0:0|3:2,0:0:0:0:
512,0,63312,1,0,3:0:0:0:
366,0,63526,1,10,0:0:0:0:
512,128,63741,1,0,0:0:0:0:
357,236,63955,6,0,P|440:269|512:322,1,179.999994506836,2|0,3:2|0:0,0:0:0:0:
512,348,64384,1,10,0:0:0:0:
370,377,64597,2,0,P|312:360|252:353,1,119.999996337891,0|2,0:0|3:2,0:0:0:0:
51,384,65026,1,0,3:0:0:0:
141,281,65240,5,10,3:3:0:0:
129,234,65348,1,8,3:0:0:0:
101,194,65455,1,4,3:0:0:0:
55,179,65562,1,4,3:0:0:0:
14,206,65669,6,0,P|104:198|188:166,1,179.999994506836,6|0,3:2|0:0,0:0:0:0:
212,149,66098,1,10,0:0:0:0:
308,0,66312,2,0,P|322:65|330:117,1,119.999996337891,0|2,0:0|3:2,0:0:0:0:
166,384,66741,2,0,P|151:318|143:266,1,119.999996337891,0|10,3:0|0:0,0:0:0:0:
172,0,67169,1,0,0:0:0:0:
267,83,67384,6,0,P|356:92|446:98,1,179.999994506836,2|0,3:2|0:0,0:0:0:0:
483,85,67813,1,10,0:0:0:0:
304,191,68027,2,0,P|247:175|188:165,1,119.999996337891,0|2,0:0|3:2,0:0:0:0:
396,377,68455,2,0,P|453:360|512:350,1,119.999996337891,0|10,3:0|0:0,0:0:0:0:
415,204,68884,1,0,0:0:0:0:
267,341,69098,6,0,B|205:338|151:377|89:362,1,179.999994506836,2|0,3:2|0:0,0:0:0:0:
59,354,69527,1,10,0:0:0:0:
78,175,69741,2,0,P|120:215|129:274,1,119.999996337891,0|2,0:0|3:2,0:0:0:0:
0,70,70169,1,0,3:0:0:0:
211,149,70384,1,10,0:0:0:0:
24,255,70598,1,0,0:0:0:0:
132,54,70812,6,0,P|220:43|305:72,1,179.999994506836,2|0,3:2|0:0,0:0:0:0:
322,86,71241,1,10,0:0:0:0:
232,266,71455,2,0,P|214:208|210:148,1,119.999996337891,0|2,0:0|3:2,0:0:0:0:
392,18,71883,1,0,3:0:0:0:
466,180,72098,1,10,0:0:0:0:
497,77,72312,1,0,0:0:0:0:
344,201,72527,6,0,P|353:291|365:380,1,179.999994506836,6|0,3:2|0:0,0:0:0:0:
394,384,72956,1,10,0:0:0:0:
506,288,73170,2,0,P|496:230|465:179,1,119.999996337891,0|2,0:0|3:2,0:0:0:0:
263,258,73598,1,0,3:0:0:0:
336,121,73813,1,10,0:0:0:0:
127,205,74027,1,0,0:0:0:0:
268,379,74241,6,0,P|184:344|95:335,1,179.999994506836,6|0,3:2|0:0,0:0:0:0:
20,307,74669,2,0,P|16:277|20:247,1,59.9999981689454,10|0,0:0|0:0,0:0:0:0:
51,117,74884,2,0,P|46:58|22:4,1,119.999996337891,4|2,3:2|3:2,0:0:0:0:
274,6,75312,1,4,3:0:0:0:
147,90,75527,1,4,3:0:0:0:
354,75,75955,6,0,P|432:61|512:53,1,160,6|0,3:2|0:0,0:0:0:0:
425,189,76598,2,0,P|345:180|266:167,1,160,2|0,3:2|0:0,0:0:0:0:
121,275,77240,1,0,0:0:0:0:
121,274,77455,2,0,P|196:265|235:329,1,160,2|0,3:2|0:0,0:0:0:0:
155,361,78098,1,0,0:0:0:0:
155,361,78740,1,0,0:0:0:0:
235,329,78955,1,2,0:0:0:0:
320,349,79169,1,0,0:0:0:0:
377,294,79383,6,0,P|455:292|512:238,1,160,2|0,3:2|0:0,0:0:0:0:
458,81,80026,2,0,P|406:138|420:214,1,160,2|0,3:2|0:0,0:0:0:0:
343,83,80668,1,0,0:0:0:0:
343,83,80883,2,0,P|264:96|184:103,1,160,2|0,3:2|0:0,0:0:0:0:
96,55,81526,1,0,0:0:0:0:
96,55,81741,1,0,0:0:0:0:
34,128,81955,1,2,0:0:0:0:
143,186,82169,1,0,0:0:0:0:
118,278,82383,1,2,0:0:0:0:
277,185,82597,1,0,0:0:0:0:
282,202,82705,1,0,0:0:0:0:
286,221,82812,6,0,P|365:208|444:200,1,160,2|0,3:2|0:0,0:0:0:0:
512,347,83455,2,0,P|433:345|377:290,1,160,2|0,3:2|0:0,0:0:0:0:
211,360,84097,1,0,0:0:0:0:
210,359,84312,2,0,P|131:343|51:346,1,160,2|0,3:2|0:0,0:0:0:0:
0,244,84955,1,0,0:0:0:0:
0,244,85597,1,0,0:0:0:0:
80,158,85812,1,2,0:0:0:0:
98,41,86026,1,0,0:0:0:0:
210,43,86240,6,0,P|287:39|341:95,1,160,2|0,3:2|0:0,0:0:0:0:
271,252,86883,2,0,P|205:263|112:272,1,160,2|0,3:2|0:0,0:0:0:0:
347,187,87527,1,0,0:0:0:0:
347,187,87741,2,0,P|412:175|505:166,1,160,2|0,3:2|0:0,0:0:0:0:
340,340,88383,1,0,0:0:0:0:
340,340,88812,1,2,0:0:0:0:
436,339,89026,1,0,0:0:0:0:
496,267,89240,1,2,0:0:0:0:
505,165,89454,1,0,0:0:0:0:
502,144,89562,1,0,0:0:0:0:
500,120,89669,6,0,B|436:130|386:82|323:91,1,179.999994506836,6|0,3:2|0:0,0:0:0:0:
178,179,90312,1,2,3:2:0:0:
226,90,90527,2,0,P|214:46|193:6,1,89.9999972534181,8|0,0:0|0:0,0:0:0:0:
27,42,90954,1,0,0:0:0:0:
99,108,91169,2,0,P|68:192|57:281,1,179.999994506836,2|0,3:2|3:0,0:0:0:0:
57,281,92026,1,0,3:0:0:0:
13,375,92240,2,0,P|57:378|100:367,1,89.9999972534181,8|0,0:0|0:0,0:0:0:0:
181,300,92669,1,2,0:0:0:0:
238,200,92884,1,8,0:0:0:0:
251,217,92991,1,0,0:0:0:0:
265,232,93097,6,0,P|355:221|442:197,1,179.999994506836,2|0,3:2|0:0,0:0:0:0:
512,78,93741,1,2,3:2:0:0:
404,15,93955,2,0,P|410:59|423:102,1,89.9999972534181,8|0,0:0|0:0,0:0:0:0:
512,242,94384,1,0,0:0:0:0:
468,330,94597,2,0,B|421:338|351:335|289:350,1,179.999994506836,2|0,3:2|3:0,0:0:0:0:
18,373,95455,1,0,3:0:0:0:
38,363,95562,1,0,0:0:0:0:
53,346,95669,1,10,0:0:0:0:
71,250,95884,1,0,0:0:0:0:
226,287,96097,1,2,0:0:0:0:
162,179,96311,1,8,0:0:0:0:
164,156,96419,1,0,0:0:0:0:
167,133,96527,6,0,P|77:124|-10:104,1,179.999994506836,2|0,3:2|0:0,0:0:0:0:
146,8,97170,1,2,3:2:0:0:
233,61,97385,2,0,P|278:55|323:49,1,89.9999972534181,8|0,0:0|0:0,0:0:0:0:
476,21,97812,1,0,0:0:0:0:
506,121,98027,2,0,P|416:119|330:144,1,179.999994506836,2|0,3:2|3:0,0:0:0:0:
230,304,98884,1,0,3:0:0:0:
340,339,99098,2,0,P|384:346|429:349,1,89.9999972534181,10|0,0:0|0:0,0:0:0:0:
148,384,99527,1,2,0:0:0:0:
89,302,99742,1,8,0:0:0:0:
99,281,99849,1,0,0:0:0:0:
107,260,99955,6,0,P|196:249|285:256,1,179.999994506836,2|0,3:2|0:0,0:0:0:0:
469,326,100599,1,2,3:2:0:0:
400,243,100813,2,0,P|403:199|410:154,1,89.9999972534181,8|0,0:0|0:0,0:0:0:0:
502,0,101240,1,0,0:0:0:0:
409,49,101455,2,0,P|320:64|230:66,1,179.999994506836,2|0,3:2|3:0,0:0:0:0:
33,17,102313,1,0,3:0:0:0:
50,30,102420,1,0,0:0:0:0:
63,47,102527,1,10,0:0:0:0:
14,187,102741,1,0,0:0:0:0:
139,138,102955,1,2,0:0:0:0:
123,266,103169,1,10,0:0:0:0:
122,288,103277,1,0,0:0:0:0:
122,310,103384,6,0,P|177:238|250:186,1,179.999994506836,6|0,3:2|0:0,0:0:0:0:
198,351,104027,1,2,3:2:0:0:
269,260,104242,2,0,P|310:241|354:234,1,89.9999972534181,10|0,0:0|0:0,0:0:0:0:
512,292,104669,1,0,0:0:0:0:
426,354,104884,2,0,P|435:264|422:175,1,179.999994506836,2|0,3:2|3:0,0:0:0:0:
260,0,105741,1,0,3:0:0:0:
194,83,105955,2,0,P|149:85|111:62,1,89.9999972534181,8|0,0:0|0:0,0:0:0:0:
0,0,106384,1,2,0:0:0:0:
32,117,106599,1,8,0:0:0:0:
40,137,106706,1,0,0:0:0:0:
48,157,106812,6,0,P|33:245|27:335,1,179.999994506836,2|0,3:2|0:0,0:0:0:0:
129,185,107456,1,2,3:2:0:0:
186,346,107670,2,0,P|191:301|201:257,1,89.9999972534181,8|0,0:0|0:0,0:0:0:0:
267,88,108097,1,0,0:0:0:0:
318,192,108312,2,0,P|407:184|496:169,1,179.999994506836,2|0,3:2|3:0,0:0:0:0:
186,346,109170,1,0,3:0:0:0:
164,340,109277,1,0,0:0:0:0:
141,337,109384,1,10,0:0:0:0:
271,273,109598,1,0,0:0:0:0:
65,227,109812,1,2,0:0:0:0:
247,141,110026,1,8,0:0:0:0:
247,118,110134,1,0,0:0:0:0:
246,95,110241,6,0,P|156:86|67:71,1,179.999994506836,2|0,3:2|0:0,0:0:0:0:
20,232,110885,1,2,3:2:0:0:
170,260,111099,2,0,P|165:215|159:170,1,89.9999972534181,8|0,0:0|0:0,0:0:0:0:
78,314,111527,1,0,0:0:0:0:
274,373,111741,2,0,P|281:284|280:194,1,179.999994506836,2|0,3:2|3:0,0:0:0:0:
476,0,112599,1,0,3:0:0:0:
454,7,112706,1,0,0:0:0:0:
436,20,112813,1,10,0:0:0:0:
512,132,113027,1,0,0:0:0:0:
329,74,113241,1,2,0:0:0:0:
393,215,113455,1,8,0:0:0:0:
403,235,113563,1,0,0:0:0:0:
414,254,113669,6,0,P|324:263|240:293,1,179.999994506836,2|0,3:2|0:0,0:0:0:0:
55,377,114313,1,2,3:2:0:0:
123,227,114527,2,0,P|137:269|143:314,1,89.9999972534181,8|0,0:0|0:0,0:0:0:0:
0,169,114954,1,0,0:0:0:0:
85,101,115169,2,0,P|173:117|263:119,1,179.999994506836,2|0,3:2|3:0,0:0:0:0:
502,114,116027,1,0,3:0:0:0:
489,95,116134,1,0,0:0:0:0:
474,77,116241,1,10,0:0:0:0:
348,0,116455,1,8,0:0:0:0:
379,218,116669,1,4,0:3:0:0:
379,218,117098,6,0,P|428:231|473:252,1,100,4|0,3:2|0:0,0:0:0:0:
499,384,117527,1,0,3:0:0:0:
385,349,117741,2,0,P|335:347|285:354,1,100,0|8,3:0|0:0,0:0:0:0:
115,343,118170,1,0,0:0:0:0:
200,253,118385,1,0,3:0:0:0:
198,384,118599,1,0,3:0:0:0:
23,195,119027,1,8,0:0:0:0:
224,19,119456,1,0,3:0:0:0:
132,111,119670,2,0,P|182:114|232:113,1,100,8|0,0:0|3:0,0:0:0:0:
389,56,120098,1,8,0:0:0:0:
412,48,120205,1,8,0:0:0:0:
436,47,120312,1,8,0:0:0:0:
461,47,120420,1,8,0:0:0:0:
484,54,120527,6,0,P|490:103|497:153,1,100,2|0,3:2|0:0,0:0:0:0:
512,309,120956,1,0,3:0:0:0:
512,309,121170,1,0,3:0:0:0:
319,243,121384,2,0,P|368:236|418:229,1,100,8|0,0:0|0:0,0:0:0:0:
235,366,121813,1,0,3:0:0:0:
235,366,122027,1,0,3:0:0:0:
163,156,122241,2,0,P|169:205|176:255,1,100,2|8,0:0|0:0,0:0:0:0:
114,352,122670,1,0,0:0:0:0:
0,224,122884,2,0,L|14:322,1,100,0|8,3:0|0:0,0:0:0:0:
85,142,123312,1,0,3:0:0:0:
0,70,123527,1,8,0:3:0:0:
84,0,123741,1,8,0:3:0:0:
169,65,123956,6,0,P|219:60|268:48,1,100,4|0,3:2|0:0,0:0:0:0:
445,15,124384,1,0,3:0:0:0:
334,113,124598,2,0,P|383:117|432:128,1,100,0|8,3:0|0:0,0:0:0:0:
247,190,125027,1,0,3:0:0:0:
370,316,125241,1,8,0:0:0:0:
361,339,125348,1,8,0:3:0:0:
354,363,125456,1,8,3:0:0:0:
99,382,125669,6,0,P|73:308|11:354,1,179.999994506836,4|0,3:2|0:0,0:0:0:0:
11,354,127384,6,0,P|31:266|42:177,1,179.999994506836,6|0,3:2|0:0,0:0:0:0:
34,158,127813,1,10,0:0:0:0:
241,166,128027,2,0,P|200:122|145:99,1,119.999996337891,0|2,0:0|3:2,0:0:0:0:
0,23,128456,1,0,3:0:0:0:
146,206,128670,1,10,0:0:0:0:
16,151,128884,1,0,0:0:0:0:
180,7,129098,6,0,P|264:36|352:55,1,179.999994506836,2|0,3:2|0:0,0:0:0:0:
383,45,129527,1,10,0:0:0:0:
511,119,129741,2,0,P|452:114|407:151,1,119.999996337891,0|2,0:0|3:2,0:0:0:0:
416,384,130170,1,0,3:0:0:0:
512,248,130384,1,10,0:0:0:0:
281,303,130598,1,0,0:0:0:0:
252,313,130705,1,0,0:0:0:0:
224,322,130813,6,0,P|215:232|203:143,1,179.999994506836,2|0,3:2|0:0,0:0:0:0:
184,133,131242,1,10,0:0:0:0:
0,36,131456,2,0,P|59:36|119:27,1,119.999996337891,0|2,0:0|3:2,0:0:0:0:
0,134,131885,1,0,3:0:0:0:
215,45,132098,1,10,0:0:0:0:
47,202,132313,1,0,0:0:0:0:
242,333,132527,6,0,P|153:317|63:314,1,179.999994506836,2|0,3:2|0:0,0:0:0:0:
50,341,132956,1,10,0:0:0:0:
127,155,133170,2,0,P|158:205|204:243,1,119.999996337891,0|2,0:0|3:2,0:0:0:0:
424,200,133598,1,0,3:0:0:0:
337,353,133813,1,10,0:0:0:0:
302,163,134027,1,0,0:0:0:0:
316,136,134134,1,0,0:0:0:0:
334,113,134241,6,0,P|423:100|511:116,1,179.999994506836,6|0,3:2|0:0,0:0:0:0:
512,139,134670,1,10,0:0:0:0:
322,267,134884,2,0,P|262:258|204:243,1,119.999996337891,0|2,0:0|3:2,0:0:0:0:
72,160,135313,1,0,3:0:0:0:
243,341,135527,1,10,0:0:0:0:
201,114,135741,1,0,0:0:0:0:
7,279,135956,6,0,P|21:190|29:100,1,179.999994506836,2|0,3:2|0:0,0:0:0:0:
21,72,136385,1,10,0:0:0:0:
162,10,136598,2,0,P|221:7|281:0,1,119.999996337891,0|2,0:0|3:2,0:0:0:0:
452,14,137027,1,0,3:0:0:0:
266,97,137241,1,10,0:0:0:0:
469,179,137455,1,0,0:0:0:0:
262,383,137670,6,0,P|258:294|287:209,1,179.999994506836,2|0,3:2|0:0,0:0:0:0:
304,195,138099,1,10,0:0:0:0:
467,282,138312,2,0,P|408:291|350:304,1,119.999996337891,0|2,0:0|3:2,0:0:0:0:
512,384,138741,1,0,3:0:0:0:
408,192,138955,1,10,0:0:0:0:
262,383,139170,1,0,0:0:0:0:
108,167,139384,6,0,P|194:187|264:243,1,179.999994506836,2|0,3:2|0:0,0:0:0:0:
269,255,139813,1,10,0:0:0:0:
115,381,140026,2,0,P|121:322|148:269,1,119.999996337891,0|2,0:0|3:2,0:0:0:0:
290,83,140455,1,0,3:0:0:0:
22,29,140669,5,10,3:3:0:0:
21,59,140777,1,8,3:0:0:0:
20,88,140884,1,4,3:0:0:0:
18,117,140991,1,4,3:0:0:0:
17,146,141098,6,0,P|29:235|38:324,1,179.999994506836,6|0,3:2|0:0,0:0:0:0:
31,341,141527,1,10,0:0:0:0:
241,250,141741,2,0,P|184:232|125:224,1,119.999996337891,0|2,0:0|3:2,0:0:0:0:
425,328,142169,2,0,P|365:336|308:354,1,119.999996337891,0|10,3:0|0:0,0:0:0:0:
150,384,142598,1,0,0:0:0:0:
334,251,142813,6,0,P|341:162|352:72,1,179.999994506836,2|0,3:2|0:0,0:0:0:0:
364,50,143242,1,10,0:0:0:0:
140,145,143455,2,0,P|197:161|256:172,1,119.999996337891,0|2,0:0|3:2,0:0:0:0:
0,52,143884,2,0,P|57:35|116:24,1,119.999996337891,0|10,3:0|0:0,0:0:0:0:
248,17,144313,1,0,0:0:0:0:
0,215,144527,6,0,P|88:228|173:259,1,179.999994506836,2|0,3:2|0:0,0:0:0:0:
187,278,144956,1,10,0:0:0:0:
313,368,145170,2,0,P|307:309|295:250,1,119.999996337891,0|2,0:0|3:2,0:0:0:0:
257,86,145598,1,0,3:0:0:0:
381,159,145813,1,10,0:0:0:0:
174,181,146027,1,0,0:0:0:0:
371,46,146241,6,0,P|456:68|509:138,1,179.999994506836,2|0,3:2|0:0,0:0:0:0:
504,163,146670,1,10,0:0:0:0:
343,271,146884,2,0,P|353:212|380:158,1,119.999996337891,0|2,0:0|3:2,0:0:0:0:
512,299,147312,1,0,3:0:0:0:
374,384,147527,1,10,0:0:0:0:
235,275,147741,1,0,0:0:0:0:
102,371,147956,6,0,P|95:281|83:192,1,179.999994506836,6|0,3:2|0:0,0:0:0:0:
65,182,148385,1,10,0:0:0:0:
248,78,148599,2,0,P|215:129|187:182,1,119.999996337891,0|2,0:0|3:2,0:0:0:0:
194,304,149027,1,0,3:0:0:0:
321,176,149242,1,10,0:0:0:0:
100,68,149456,1,0,0:0:0:0:
306,39,149670,6,0,P|395:31|483:11,1,179.999994506836,6|0,3:2|0:0,0:0:0:0:
512,77,150098,2,0,P|501:106|494:135,1,59.9999981689454,10|0,0:0|0:0,0:0:0:0:
511,320,150313,2,0,P|464:284|408:265,1,119.999996337891,4|2,3:2|3:2,0:0:0:0:
378,261,150634,5,8,0:0:0:0:
349,269,150741,1,4,3:0:0:0:
324,285,150848,1,8,0:0:0:0:
300,304,150956,1,4,3:0:0:0:
285,330,151062,1,8,0:0:0:0:
277,359,151169,1,4,0:3:0:0:
279,384,151277,1,4,0:3:0:0:
307,374,151384,6,0,P|287:286|263:199,1,179.999994506836,6|0,3:2|0:0,0:0:0:0:
236,117,151812,2,0,B|172:114|123:158|59:132,1,179.999994506836,10|0,0:0|0:0,0:0:0:0:
30,116,152241,1,2,3:2:0:0:
190,213,152455,1,0,3:0:0:0:
97,36,152669,1,10,0:0:0:0:
234,29,152884,1,0,0:0:0:0:
43,224,153098,6,0,P|115:275|154:355,1,179.999994506836,2|0,3:2|0:0,0:0:0:0:
142,378,153527,1,10,0:0:0:0:
274,284,153741,2,0,P|362:265|451:253,1,179.999994506836,2|0,0:0|0:0,0:0:0:0:
474,277,154169,1,0,3:0:0:0:
320,375,154383,1,10,0:0:0:0:
336,178,154598,1,2,0:0:0:0:
355,155,154705,1,0,0:0:0:0:
378,137,154812,6,0,P|407:145|437:151,1,59.9999981689454,2|0,3:2|0:0,0:0:0:0:
239,17,155027,2,0,P|179:25|119:29,1,119.999996337891,2|10,0:0|0:0,0:0:0:0:
381,286,155669,2,0,P|351:283|321:280,1,59.9999981689454,2|0,3:2|0:0,0:0:0:0:
189,257,155883,1,0,3:0:0:0:
337,362,156097,1,10,0:0:0:0:
120,384,156312,1,2,0:0:0:0:
112,354,156419,1,0,0:0:0:0:
102,325,156527,6,0,P|90:235|76:146,1,179.999994506836,2|0,3:2|0:0,0:0:0:0:
59,135,156955,1,10,0:0:0:0:
242,109,157169,2,0,P|210:28|128:0,1,179.999994506836
102,14,157598,1,0,3:0:0:0:
93,42,157705,1,0,0:0:0:0:
107,68,157812,1,10,0:0:0:0:
234,215,158027,1,2,0:0:0:0:
351,95,158241,6,0,P|380:91|410:92,1,59.9999981689454,6|0,3:2|0:0,0:0:0:0:
484,194,158455,2,0,P|446:195|424:191,1,59.9999981689454
328,249,158669,2,0,P|238:256|149:270,1,179.999994506836,10|0,0:0|0:0,0:0:0:0:
137,297,159098,1,2,3:2:0:0:
137,326,159205,1,0,0:0:0:0:
145,354,159312,1,0,3:0:0:0:
339,369,159527,1,10,0:0:0:0:
454,236,159741,6,0,P|473:292|478:352,1,119.999996337891,0|2,0:0|3:2,0:0:0:0:
328,249,160169,1,0,0:0:0:0:
480,119,160384,1,10,0:0:0:0:
333,0,160598,2,0,P|369:82|390:169,1,179.999994506836
360,171,161027,1,0,3:0:0:0:
332,158,161134,1,0,0:0:0:0:
317,132,161241,1,10,0:0:0:0:
170,17,161455,6,0,P|114:40|56:53,1,119.999996337891,2|2,0:0|3:2,0:0:0:0:
241,84,161884,1,0,0:0:0:0:
96,177,162098,2,0,P|119:263|131:352,1,179.999994506836,10|0,0:0|0:0,0:0:0:0:
216,362,162527,2,0,P|245:362|274:355,1,59.9999981689454,2|0,3:2|0:0,0:0:0:0:
367,328,162741,2,0,P|391:311|411:288,1,59.9999981689454,0|0,3:0|0:0,0:0:0:0:
480,181,162955,2,0,P|487:270|511:356,1,179.999994506836,10|0,0:0|0:0,0:0:0:0:
420,355,163384,6,0,P|392:343|366:327,1,59.9999981689454,2|0,3:2|0:0,0:0:0:0:
296,247,163598,2,0,P|287:218|283:188,1,59.9999981689454,2|0,0:0|0:0,0:0:0:0:
264,9,163812,2,0,P|238:95|187:169,1,179.999994506836,10|0,0:0|0:0,0:0:0:0:
163,187,164241,1,2,3:2:0:0:
22,10,164455,1,0,3:0:0:0:
16,215,164669,1,10,3:3:0:0:
33,239,164777,1,8,3:0:0:0:
53,260,164884,1,4,3:0:0:0:
73,281,164991,1,4,3:0:0:0:
93,302,165098,5,6,3:2:0:0:
93,302,165527,1,10,0:0:0:0:
263,358,165741,1,0,0:0:0:0:
91,384,165955,1,2,3:2:0:0:
295,283,166169,1,0,3:0:0:0:
69,273,166384,1,10,0:0:0:0:
312,384,166598,1,2,0:0:0:0:
181,116,166812,5,2,3:2:0:0:
181,116,167241,1,10,0:0:0:0:
100,0,167455,1,0,0:0:0:0:
63,165,167669,1,2,3:2:0:0:
254,2,167884,1,0,3:0:0:0:
211,219,168098,1,10,0:0:0:0:
54,4,168312,1,2,0:0:0:0:
356,140,168526,5,2,3:2:0:0:
356,140,168955,1,10,0:0:0:0:
462,110,169169,1,0,0:0:0:0:
324,227,169383,1,2,3:2:0:0:
512,186,169597,1,0,3:0:0:0:
323,315,169812,1,10,0:0:0:0:
478,338,170027,6,0,P|359:354|239:357,1,239.999992675781,2|0,0:0|0:0,0:0:0:0:
96,338,170669,1,10,0:0:0:0:
238,236,170884,2,0,P|118:234|0:218,1,239.999992675781,0|0,0:0|3:0,0:0:0:0:
19,18,171527,1,10,0:0:0:0:
78,116,171741,1,2,0:0:0:0:
311,19,171955,5,6,3:2:0:0:
311,19,172384,1,10,0:0:0:0:
444,118,172598,1,0,0:0:0:0:
280,115,172812,1,2,3:2:0:0:
512,22,173027,1,0,3:0:0:0:
278,21,173241,1,10,0:0:0:0:
512,161,173455,1,2,0:0:0:0:
506,190,173562,1,0,0:0:0:0:
499,219,173669,5,2,3:2:0:0:
499,219,174098,1,10,0:0:0:0:
493,333,174312,1,0,0:0:0:0:
380,212,174526,1,2,3:2:0:0:
348,368,174740,1,2,0:0:0:0:
260,186,174955,1,10,0:0:0:0:
194,382,175169,1,2,0:0:0:0:
146,141,175383,5,2,3:2:0:0:
146,141,175812,1,10,0:0:0:0:
0,36,176026,1,0,0:0:0:0:
157,19,176241,1,2,3:2:0:0:
0,158,176454,1,0,3:0:0:0:
170,136,176669,1,10,0:0:0:0:
132,383,176884,6,0,P|116:270|9:232,1,239.999992675781,2|0,0:0|0:0,0:0:0:0:
32,341,177526,1,10,0:0:0:0:
209,218,177741,2,0,B|288:263|382:212|442:251,1,239.999992675781,0|0,0:0|3:0,0:0:0:0:
273,146,178384,1,8,0:3:0:0:
276,116,178491,1,8,0:3:0:0:
280,86,178598,1,4,0:3:0:0:
283,56,178705,1,4,0:3:0:0:
288,26,178812,5,6,3:2:0:0:
288,26,179241,1,10,0:0:0:0:
384,101,179455,1,0,0:0:0:0:
165,184,179669,1,2,3:2:0:0:
336,253,179884,2,0,P|393:237|452:225,1,119.999996337891,0|10,3:0|0:0,0:0:0:0:
255,371,180312,1,2,0:0:0:0:
165,184,180527,5,2,3:2:0:0:
165,184,180955,1,10,0:0:0:0:
9,262,181169,1,0,0:0:0:0:
255,371,181384,1,2,3:2:0:0:
48,148,181598,2,0,P|36:90|33:30,1,119.999996337891,0|10,3:0|0:0,0:0:0:0:
172,3,182027,1,2,0:0:0:0:
366,244,182241,5,6,3:2:0:0:
366,244,182669,1,10,0:0:0:0:
472,109,182884,1,0,0:0:0:0:
475,79,182991,1,8,0:3:0:0:
478,49,183098,1,2,3:2:0:0:
294,0,183312,1,4,3:0:0:0:
254,197,183527,1,6,0:3:0:0:
248,226,183634,1,2,0:0:0:0:
240,255,183741,1,8,0:3:0:0:
231,283,183848,1,8,0:3:0:0:
223,312,183955,5,4,0:0:0:0:
256,192,184062,12,2,185669,0:0:0:0:
421,329,188669,6,0,P|395:337|369:339,1,52.4999983978272,2|0,0:0|0:0,0:0:0:0:
362,351,189098,6,0,P|269:320|173:308,1,194.999991073609,6|0,3:2|0:0,0:0:0:0:
158,325,189527,1,10,0:0:0:0:
0,279,189741,2,0,P|56:306|72:367,1,129.999994049073,0|2,0:0|3:2,0:0:0:0:
0,139,190170,1,0,3:0:0:0:
156,225,190384,1,10,0:0:0:0:
117,67,190598,1,0,0:0:0:0:
281,158,190812,6,0,P|377:146|475:140,1,194.999991073609,2|0,3:2|0:0,0:0:0:0:
498,158,191241,1,10,0:0:0:0:
399,357,191455,2,0,P|388:292|382:228,1,129.999994049073,0|2,0:0|3:2,0:0:0:0:
383,20,191884,1,0,3:0:0:0:
265,145,192098,1,10,0:0:0:0:
134,74,192312,1,0,0:0:0:0:
89,47,192419,1,0,0:0:0:0:
46,15,192527,6,0,P|58:111|62:209,1,194.999991073609,6|0,3:2|0:0,0:0:0:0:
43,228,192956,1,10,0:0:0:0:
119,375,193170,2,0,P|66:337|2:335,1,129.999994049073,0|2,0:0|3:2,0:0:0:0:
221,384,193599,1,0,3:0:0:0:
153,271,193812,1,10,0:0:0:0:
343,384,194027,1,0,0:0:0:0:
512,262,194241,6,0,P|507:165|481:72,1,194.999991073609,2|0,3:2|0:0,0:0:0:0:
458,49,194670,1,10,0:0:0:0:
297,211,194884,2,0,P|359:190|424:185,1,129.999994049073,0|2,0:0|3:2,0:0:0:0:
193,153,195312,1,0,3:0:0:0:
375,41,195527,1,10,0:0:0:0:
202,56,195741,1,0,0:0:0:0:
202,56,195848,1,0,0:0:0:0:
202,56,195955,6,0,P|167:146|155:243,1,194.999991073609,2|0,3:2|0:0,0:0:0:0:
177,256,196384,1,10,0:0:0:0:
55,127,196598,2,0,P|46:191|56:255,1,129.999994049073,0|2,0:0|3:2,0:0:0:0:
246,364,197027,1,0,3:0:0:0:
84,384,197241,1,10,0:0:0:0:
217,215,197455,1,0,0:0:0:0:
63,34,197670,6,0,P|159:49|256:53,1,194.999991073609,2|0,3:2|0:0,0:0:0:0:
268,42,198099,1,10,0:0:0:0:
486,36,198312,2,0,P|422:33|374:75,1,129.999994049073,0|2,0:0|3:2,0:0:0:0:
327,238,198741,1,0,3:0:0:0:
456,139,198955,5,10,3:3:0:0:
465,190,199062,1,8,3:0:0:0:
475,240,199169,1,4,3:0:0:0:
485,291,199277,1,4,3:0:0:0:
494,341,199384,6,0,B|427:329|391:347|300:325,1,194.999991073609,6|0,3:2|0:0,0:0:0:0:
278,314,199813,1,10,0:0:0:0:
74,224,200026,2,0,P|137:209|202:203,1,129.999994049073,0|2,0:0|3:2,0:0:0:0:
452,82,200455,2,0,P|388:67|323:61,1,129.999994049073,0|10,3:0|0:0,0:0:0:0:
110,17,200884,1,0,0:0:0:0:
7,101,201098,6,0,P|19:197|29:294,1,194.999991073609,2|0,3:2|0:0,0:0:0:0:
14,322,201527,1,10,0:0:0:0:
202,374,201741,2,0,P|199:310|186:246,1,129.999994049073,0|2,0:0|3:2,0:0:0:0:
471,18,202169,2,0,P|458:81|455:146,1,129.999994049073,0|10,3:0|0:0,0:0:0:0:
504,380,202598,1,0,0:0:0:0:
512,258,202812,6,0,B|452:257|397:293|319:277,1,194.999991073609,2|0,3:2|0:0,0:0:0:0:
296,265,203241,1,10,0:0:0:0:
130,351,203455,2,0,P|66:355|3:370,1,129.999994049073,0|2,0:0|3:2,0:0:0:0:
171,173,203884,1,0,3:0:0:0:
246,372,204098,1,10,0:0:0:0:
71,252,204312,1,0,0:0:0:0:
294,171,204527,6,0,P|389:152|483:126,1,194.999991073609,2|0,3:2|0:0,0:0:0:0:
501,103,204956,1,10,0:0:0:0:
383,6,205169,1,0,0:0:0:0:
306,21,205384,1,2,3:2:0:0:
228,28,205598,1,0,3:0:0:0:
150,29,205812,1,10,0:0:0:0:
72,19,206027,1,0,0:0:0:0:
0,20,206241,6,0,P|94:36|159:106,1,194.999991073609,6|0,3:2|0:0,0:0:0:0:
154,136,206670,1,10,0:0:0:0:
77,256,206884,2,0,P|69:191|54:128,1,129.999994049073,0|2,0:0|3:2,0:0:0:0:
0,366,207312,1,0,3:0:0:0:
197,253,207527,1,10,0:0:0:0:
133,384,207741,1,0,0:0:0:0:
403,341,207955,6,0,P|374:250|294:199,1,194.999991073609,6|0,3:2|0:0,0:0:0:0:
269,204,208384,1,10,0:0:0:0:
496,143,208598,2,0,P|482:81|510:23,1,129.999994049073,4|2,3:2|3:2,0:0:0:0:
512,285,209026,1,4,3:0:0:0:
289,19,209241,1,4,3:0:0:0:
202,102,209669,6,0,P|122:109|43:124,1,160,6|0,3:2|0:0,0:0:0:0:
212,232,210312,2,0,P|133:219|53:210,1,160,2|0,3:2|0:0,0:0:0:0:
158,350,210954,1,0,0:0:0:0:
158,350,211169,2,0,P|237:340|316:330,1,160,2|0,3:2|0:0,0:0:0:0:
434,346,211812,1,0,0:0:0:0:
434,346,212454,1,0,0:0:0:0:
385,258,212669,1,2,0:0:0:0:
416,161,212883,1,0,0:0:0:0:
485,84,213097,6,0,P|405:79|327:61,1,160,2|0,3:2|0:0,0:0:0:0:
224,6,213740,2,0,P|171:64|186:140,1,160,2|0,3:2|0:0,0:0:0:0:
287,222,214384,1,0,0:0:0:0:
287,222,214597,2,0,P|208:235|128:242,1,160,2|0,3:2|0:0,0:0:0:0:
3,246,215240,1,0,0:0:0:0:
3,246,215455,1,0,0:0:0:0:
59,323,215669,1,2,0:0:0:0:
152,345,215883,1,0,0:0:0:0:
244,321,216097,1,2,0:0:0:0:
332,284,216311,1,0,0:0:0:0:
352,303,216419,1,0,0:0:0:0:
374,320,216526,6,0,P|361:241|353:162,1,160,2|0,3:2|0:0,0:0:0:0:
378,58,217169,2,0,P|434:112|512:113,1,160,2|0,3:2|0:0,0:0:0:0:
282,31,217811,1,0,0:0:0:0:
281,30,218026,2,0,P|202:14|122:17,1,160,2|0,3:2|0:0,0:0:0:0:
21,44,218669,1,0,0:0:0:0:
21,44,219311,1,0,0:0:0:0:
71,124,219526,1,2,0:0:0:0:
34,219,219740,1,0,0:0:0:0:
0,319,219954,6,0,P|79:310|159:303,1,160,2|0,3:2|0:0,0:0:0:0:
229,371,220597,2,0,P|308:363|387:351,1,160,2|0,3:2|0:0,0:0:0:0:
482,236,221241,1,0,0:0:0:0:
482,236,221455,2,0,P|470:171|461:78,1,160,2|0,3:2|0:0,0:0:0:0:
512,0,222097,1,0,0:0:0:0:
512,0,222526,1,2,0:0:0:0:
405,6,222740,1,0,0:0:0:0:
316,41,222954,1,2,0:0:0:0:
222,24,223168,1,0,0:0:0:0:
222,24,223276,1,0,0:0:0:0:
222,24,223384,5,2,0:0:0:0:
256,192,223491,12,2,225098,0:0:0:0:
