osu file format v14

[General]
AudioFilename: audio.mp3
AudioLeadIn: 0
PreviewTime: 127169
Countdown: 0
SampleSet: Soft
StackLeniency: 0.8
Mode: 0
LetterboxInBreaks: 0
WidescreenStoryboard: 1

[Editor]
Bookmarks: 41669,89669,117098,189098,209669
DistanceSpacing: 1
BeatDivisor: 4
GridSize: 8
TimelineZoom: 1.7

[Metadata]
Title:With Tomorrow
TitleUnicode:With Tomorrow
Artist:Yumeno Yuki
ArtistUnicode:夢乃ゆき
Creator:Shurelia
Version:Mayu's Hard
Source:月の彼方で逢いましょう
Tags:つきかな Tsukikana tsuki no kanata de aimashou See you at the other side of the moon meis clauson eroge visual novel vn tone works pop japanese video games shizuku- kazato asa shikibe mayu
BeatmapID:3659361
BeatmapSetID:1785707

[Difficulty]
HPDrainRate:6.5
CircleSize:3.8
OverallDifficulty:6
ApproachRate:7.5
SliderMultiplier:1.4
SliderTickRate:1

[Events]
//Background and Video events
0,0,"with tomorrowbg.jpg",0,0
//Break Periods
2,185869,188059
//Storyboard Layer 0 (Background)
//Storyboard Layer 1 (Fail)
//Storyboard Layer 2 (Pass)
//Storyboard Layer 3 (Foreground)
//Storyboard Layer 4 (Overlay)
//Storyboard Sound Samples

[TimingPoints]
527,428.571428571429,4,2,1,45,1,0
6312,-125,4,2,1,45,0,0
7384,-125,4,2,1,45,0,0
14241,-111.111111111111,4,2,1,50,0,0
27955,-111.111111111111,4,2,1,55,0,0
41669,-100,4,2,1,60,0,0
50241,-100,4,2,1,45,0,0
51955,-90.9090909090909,4,2,1,70,0,1
75955,-125,4,2,1,45,0,0
89669,-125,4,2,1,50,0,0
103384,-111.111111111111,4,2,1,50,0,0
117098,-100,4,2,1,60,0,0
125669,-125,4,2,1,45,0,0
127384,-90.9090909090909,4,2,1,70,0,1
151384,-100,4,2,1,70,0,0
165098,-100,4,2,1,70,0,1
178812,-100,4,2,1,75,0,1
184062,-100,4,2,1,50,0,0
188669,-100,4,2,1,35,0,0
189098,-90.9090909090909,4,2,1,70,0,1
209669,-125,4,2,1,45,0,0
223491,-125,4,2,1,25,0,0

[Colours]
Combo1 : 250,180,240
Combo2 : 120,200,230
Combo3 : 255,230,130
Combo4 : 160,230,150

[HitObjects]
417,103,6312,5,0,0:0:0:0:
417,103,6527,2,0,P|427:64|427:38,1,56,2|0,0:0|0:0,0:0:0:0:
345,6,6955,2,0,P|335:45|335:71,1,56,2|0,0:0|0:0,0:0:0:0:
334,60,7384,6,0,P|283:90|221:84,1,112,2|0,0:0|0:0,0:0:0:0:
155,34,8027,1,2,0:0:0:0:
30,78,8455,2,0,L|16:132,2,56,0|0|2,0:0|0:0|0:0,0:0:0:0:
130,160,9312,1,0,0:0:0:0:
130,160,9527,2,0,L|116:214,1,56
190,259,9955,1,0,0:0:0:0:
153,340,10169,2,0,L|98:354,2,56,2|2|2,0:0|0:0|0:0,0:0:0:0:
261,384,10812,6,0,P|268:325|280:274,1,112,2|0,0:0|0:0,0:0:0:0:
190,259,11455,2,0,P|147:217|158:112,1,168,2|0,0:0|0:0,0:0:0:0:
88,45,12312,2,0,P|166:75|262:91,1,168,2|0,0:0|0:0,0:0:0:0:
248,90,13384,2,0,P|276:77|303:70,2,56,0|0|2,0:0|0:0|0:3,0:0:0:0:
190,259,14241,6,0,P|249:273|313:314,1,125.999996154785,2|0,3:2|0:0,0:0:0:0:
367,241,14884,2,0,P|392:296|403:375,1,125.999996154785,2|0,3:2|0:0,0:0:0:0:
402,360,15527,1,0,0:0:0:0:
481,306,15741,6,0,P|490:244|515:180,1,125.999996154785,2|0,3:2|0:0,0:0:0:0:
464,117,16384,1,0,0:0:0:0:
464,117,16812,2,0,P|438:128|403:139,2,62.9999980773926,0|0|2,0:0|0:0|0:0,0:0:0:0:
512,45,17455,1,0,0:0:0:0:
444,0,17669,6,0,P|382:24|312:42,1,125.999996154785,2|0,3:2|0:0,0:0:0:0:
247,0,18312,2,0,P|186:24|181:99,1,125.999996154785,2|0,3:2|0:0,0:0:0:0:
172,78,18955,1,0,0:0:0:0:
103,164,19169,6,0,P|183:141|296:123,1,188.999994232178,2|0,3:2|0:0,0:0:0:0:
287,123,20241,6,0,P|276:159|273:191,1,62.9999980773926,2|0,0:0|0:0,0:0:0:0:
352,234,20669,2,0,P|363:198|366:166,1,62.9999980773926,2|0,0:0|0:0,0:0:0:0:
365,172,21098,6,0,P|427:163|490:127,1,125.999996154785,2|0,3:2|0:0,0:0:0:0:
512,214,21741,2,0,P|485:324|403:344,1,188.999994232178,2|0,3:2|0:0,0:0:0:0:
343,384,22598,2,0,P|288:362|269:299,1,125.999996154785,2|0,3:2|0:0,0:0:0:0:
321,241,23241,1,0,0:0:0:0:
266,183,23455,1,0,0:0:0:0:
266,183,23669,2,0,P|274:148|285:118,1,62.9999980773926
212,16,24098,2,0,P|201:45|194:76,1,62.9999980773926,2|0,0:0|0:0,0:0:0:0:
194,76,24527,6,0,P|152:107|77:99,1,125.999996154785,2|0,3:2|0:0,0:0:0:0:
9,32,25169,2,0,P|36:122|63:221,1,188.999994232178,2|0,3:2|0:0,0:0:0:0:
15,292,26027,2,0,P|78:354|188:322,1,188.999994232178,2|0,3:2|0:0,0:0:0:0:
261,372,26884,1,2,0:0:0:0:
261,372,26991,1,0,0:0:0:0:
261,372,27098,2,0,L|273:303,1,62.9999980773926,2|2,0:0|0:0,0:0:0:0:
216,247,27527,2,0,L|228:178,1,62.9999980773926,2|0,0:0|0:0,0:0:0:0:
160,128,27955,6,0,P|125:84|140:6,1,125.999996154785,6|0,3:2|0:0,0:0:0:0:
217,0,28598,2,0,P|269:38|411:19,1,188.999994232178,2|0,3:2|0:0,0:0:0:0:
471,94,29455,2,0,P|379:80|299:127,1,188.999994232178,2|0,3:2|0:0,0:0:0:0:
299,127,30527,6,0,P|292:161|284:193,2,62.9999980773926,0|0|10,0:0|0:0|0:0,0:0:0:0:
374,177,31169,1,0,0:0:0:0:
325,257,31384,6,0,P|279:227|195:234,1,125.999996154785,2|0,3:2|0:0,0:0:0:0:
136,286,32027,2,0,P|63:286|9:248,1,125.999996154785,2|0,3:2|0:0,0:0:0:0:
19,259,32669,1,0,0:0:0:0:
19,259,32884,6,0,B|96:246|104:178|81:171|101:93|195:103,1,251.999992309571,2|0,3:2|0:0,0:0:0:0:
270,66,33955,2,0,P|275:100|284:135,1,62.9999980773926,2|0,0:0|0:0,0:0:0:0:
209,184,34384,1,10,0:0:0:0:
293,220,34598,1,0,0:0:0:0:
218,275,34812,6,0,P|216:334|259:385,1,125.999996154785,2|0,3:2|0:0,0:0:0:0:
328,333,35455,2,0,P|388:316|498:386,1,188.999994232178,2|0,3:2|0:0,0:0:0:0:
441,302,36312,2,0,P|413:246|423:184,1,125.999996154785,2|0,3:2|0:0,0:0:0:0:
491,138,36955,2,0,L|501:72,1,62.9999980773926
444,6,37384,5,0,0:0:0:0:
384,67,37598,1,0,0:0:0:0:
300,40,37812,2,0,P|290:73|287:102,1,62.9999980773926,10|0,0:0|0:0,0:0:0:0:
217,149,38241,6,0,P|278:142|333:170,1,125.999996154785,2|0,3:2|0:0,0:0:0:0:
431,199,38884,2,0,P|346:199|261:261,1,188.999994232178,2|0,3:2|0:0,0:0:0:0:
185,211,39741,6,0,P|86:211|2:153,1,188.999994232178,2|0,3:2|0:0,0:0:0:0:
39,87,40598,1,0,0:0:0:0:
39,87,40812,2,0,L|24:22,1,62.9999980773926,2|4,0:0|3:0,0:0:0:0:
108,0,41241,1,4,3:0:0:0:
166,71,41455,1,0,0:0:0:0:
247,21,41669,6,0,P|263:72|220:151,1,140,4|0,3:2|3:0,0:0:0:0:
226,146,42312,1,0,3:0:0:0:
170,206,42527,2,0,P|235:190|310:179,1,140,8|0,0:0|3:0,0:0:0:0:
373,119,43169,2,0,P|461:130|486:196,1,140,0|8,3:0|0:0,0:0:0:0:
484,168,44027,1,0,3:0:0:0:
435,242,44241,2,0,P|443:279|451:322,1,70,8|0,0:0|3:0,0:0:0:0:
378,374,44669,1,8,0:0:0:0:
378,374,44777,1,8,0:0:0:0:
378,374,44884,1,8,0:0:0:0:
278,363,45098,6,0,P|235:307|248:230,1,140,2|0,3:2|3:0,0:0:0:0:
315,190,45741,1,0,3:0:0:0:
236,145,45955,2,0,L|73:182,1,140,8|0,0:0|3:0,0:0:0:0:
34,237,46598,1,0,3:0:0:0:
34,237,47027,2,0,P|-9:194|6:112,1,140,8|0,0:0|3:0,0:0:0:0:
1,38,47669,5,8,0:0:0:0:
83,71,47884,1,0,3:0:0:0:
132,2,48098,1,8,0:3:0:0:
132,2,48312,1,8,0:3:0:0:
221,33,48527,6,0,L|192:171,1,140,4|0,3:2|3:0,0:0:0:0:
192,170,49169,1,0,3:0:0:0:
120,224,49384,2,0,P|119:263|138:300,1,70,8|0,0:0|3:0,0:0:0:0:
213,307,49812,1,8,0:0:0:0:
165,384,50027,1,0,3:0:0:0:
165,384,50241,2,0,P|232:347|379:357,1,210,4|0,3:2|0:0,0:0:0:0:
512,204,51741,5,0,0:0:0:0:
512,204,51955,2,0,P|436:188|407:93,1,154.000004699707,6|10,3:2|0:0,0:0:0:0:
321,9,52598,2,0,P|310:50|300:94,1,77.0000023498536,0|2,0:0|3:2,0:0:0:0:
250,170,53027,1,0,3:0:0:0:
174,108,53241,2,0,P|134:119|96:130,1,77.0000023498536,10|0,0:0|0:0,0:0:0:0:
3,220,53669,6,0,P|51:257|154:236,1,154.000004699707,2|10,3:2|0:0,0:0:0:0:
237,299,54312,2,0,P|244:261|252:223,1,77.0000023498536,0|2,0:0|3:2,0:0:0:0:
304,158,54741,1,0,3:0:0:0:
219,100,54955,1,10,0:0:0:0:
270,28,55169,1,0,0:0:0:0:
270,28,55384,6,0,P|350:36|424:-12,1,154.000004699707,2|10,3:2|0:0,0:0:0:0:
494,43,56027,2,0,P|486:81|477:124,1,77.0000023498536,0|2,0:0|3:2,0:0:0:0:
414,174,56455,1,0,3:0:0:0:
464,268,56669,2,0,P|431:256|390:256,1,77.0000023498536,10|0,0:0|0:0,0:0:0:0:
288,327,57098,6,0,P|234:302|222:195,1,154.000004699707,2|10,3:2|0:0,0:0:0:0:
268,145,57741,1,0,0:0:0:0:
268,145,57848,1,0,0:0:0:0:
268,145,57955,1,2,3:2:0:0:
366,192,58169,1,0,3:0:0:0:
440,113,58384,2,0,P|430:71|426:37,1,77.0000023498536,10|0,0:0|0:0,0:0:0:0:
334,0,58812,6,0,P|285:41|173:28,1,154.000004699707,6|10,3:2|0:0,0:0:0:0:
121,0,59455,2,0,P|86:11|45:23,1,77.0000023498536,0|2,0:0|3:2,0:0:0:0:
6,98,59884,1,0,3:0:0:0:
74,157,60098,2,0,P|64:196|57:235,1,77.0000023498536,10|0,0:0|0:0,0:0:0:0:
147,294,60527,6,0,P|160:218|180:143,1,154.000004699707,2|10,3:2|0:0,0:0:0:0:
128,71,61169,2,0,P|168:60|201:45,1,77.0000023498536,0|2,0:0|3:2,0:0:0:0:
294,11,61598,1,0,3:0:0:0:
371,71,61812,1,10,0:0:0:0:
294,11,62027,1,0,0:0:0:0:
263,119,62241,6,0,P|243:195|285:284,1,154.000004699707,2|10,3:2|0:0,0:0:0:0:
216,353,62884,2,0,P|260:360|300:373,1,77.0000023498536,0|2,0:0|3:2,0:0:0:0:
360,300,63312,1,0,3:0:0:0:
455,326,63527,2,0,P|463:288|476:250,1,77.0000023498536,10|0,0:0|0:0,0:0:0:0:
509,128,63955,6,0,P|441:175|364:157,1,154.000004699707,2|10,3:2|0:0,0:0:0:0:
286,111,64598,2,0,P|274:154|267:190,1,77.0000023498536,0|2,0:0|3:2,0:0:0:0:
331,264,65027,1,0,3:0:0:0:
262,358,65241,1,10,3:3:0:0:
242,337,65348,1,8,3:0:0:0:
218,328,65455,1,4,3:0:0:0:
196,327,65562,1,4,3:0:0:0:
170,336,65669,6,0,P|133:349|90:361,1,77.0000023498536,6|0,3:2|0:0,0:0:0:0:
14,336,66098,1,10,0:0:0:0:
13,246,66312,2,0,P|76:246|159:176,1,154.000004699707,0|0,0:0|3:0,0:0:0:0:
255,136,66955,2,0,P|247:172|239:217,1,77.0000023498536,10|0,0:0|0:0,0:0:0:0:
270,299,67384,6,0,P|333:299|416:229,1,154.000004699707,2|10,3:2|0:0,0:0:0:0:
496,264,68027,2,0,P|503:226|512:189,1,77.0000023498536,0|2,0:0|3:2,0:0:0:0:
441,141,68455,1,0,3:0:0:0:
495,55,68669,1,10,0:0:0:0:
418,0,68884,1,0,0:0:0:0:
418,0,69098,6,0,P|362:39|260:29,1,154.000004699707,2|10,3:2|0:0,0:0:0:0:
173,10,69741,2,0,P|185:53|192:98,1,77.0000023498536,0|2,0:0|3:2,0:0:0:0:
172,192,70169,1,0,3:0:0:0:
256,156,70384,1,10,0:0:0:0:
322,217,70598,1,0,0:0:0:0:
289,301,70812,6,0,B|247:292|217:320|217:320|185:352|137:342,1,154.000004699707,2|10,3:2|0:0,0:0:0:0:
64,384,71455,1,0,0:0:0:0:
3,319,71669,2,0,P|11:277|19:243,1,77.0000023498536,2|0,3:2|3:0,0:0:0:0:
106,189,72098,1,10,0:0:0:0:
176,250,72312,1,0,0:0:0:0:
270,218,72527,6,0,B|340:196|340:196|374:221|423:213,1,154.000004699707,6|10,3:2|0:0,0:0:0:0:
489,165,73169,2,0,P|496:125|504:90,1,77.0000023498536,0|2,0:0|3:2,0:0:0:0:
460,15,73598,1,0,3:0:0:0:
378,42,73812,2,0,P|369:79|362:117,1,77.0000023498536,10|0,0:0|0:0,0:0:0:0:
418,215,74241,6,0,P|364:251|256:238,1,154.000004699707,6|10,3:2|0:0,0:0:0:0:
199,303,74884,2,0,P|185:343|178:383,1,77.0000023498536,4|2,3:2|3:2,0:0:0:0:
82,384,75312,1,4,3:0:0:0:
30,301,75527,1,4,3:0:0:0:
147,163,75955,5,6,3:2:0:0:
256,192,76062,12,2,79384,0:0:0:0:
255,70,80027,6,0,P|312:70|363:44,1,112,2|0,3:2|0:0,0:0:0:0:
360,46,80884,2,0,P|442:65|469:105,1,112,2|0,3:2|0:0,0:0:0:0:
496,156,81527,2,0,L|485:213,1,56
409,265,81955,2,0,L|398:208,2,56,2|0|2,0:0|0:0|0:0,0:0:0:0:
512,310,82598,5,0,0:0:0:0:
512,310,82705,1,0,0:0:0:0:
512,310,82812,2,0,P|468:351|398:356,1,112,2|0,3:2|0:0,0:0:0:0:
337,384,83455,2,0,P|273:343|177:357,1,168,2|0,3:2|0:0,0:0:0:0:
103,296,84312,6,0,P|185:300|251:251,1,168,2|0,3:2|0:0,0:0:0:0:
289,126,85384,1,0,0:0:0:0:
289,126,85598,2,0,L|299:64,2,56,0|2|0,0:0|0:0|0:0,0:0:0:0:
340,197,86241,6,0,P|391:198|440:149,1,112,2|0,3:2|0:0,0:0:0:0:
495,228,86884,2,0,P|448:197|330:201,1,168,2|0,3:2|0:0,0:0:0:0:
248,152,87741,2,0,P|251:234|210:307,1,168,2|0,3:2|0:0,0:0:0:0:
210,307,88812,6,0,P|216:344|228:366,2,56,2|0|2,0:0|0:0|0:0,0:0:0:0:
120,352,89455,5,0,0:0:0:0:
120,352,89562,1,0,0:0:0:0:
120,352,89669,2,0,P|64:344|23:283,1,112,6|0,3:2|0:0,0:0:0:0:
0,216,90312,1,2,3:2:0:0:
25,294,90527,2,0,P|99:284|171:218,1,168,8|2,0:0|3:2,0:0:0:0:
325,210,91598,5,0,3:0:0:0:
392,257,91812,2,0,P|421:253|447:242,1,56,0|0,0:0|3:0,0:0:0:0:
445,242,92241,6,0,P|453:177|475:124,1,112,8|2,0:0|0:0,0:0:0:0:
499,60,92884,1,8,0:0:0:0:
499,60,93098,2,0,P|426:96|378:96,1,112,2|0,3:2|0:0,0:0:0:0:
322,43,93741,1,2,3:2:0:0:
390,94,93955,6,0,P|327:96|233:176,1,168,8|2,0:0|3:2,0:0:0:0:
83,85,95027,1,0,3:0:0:0:
83,85,95241,2,0,P|72:113|67:144,1,56,0|0,0:0|3:0,0:0:0:0:
0,211,95669,2,0,P|32:216|64:234,1,56,10|0,0:0|0:0,0:0:0:0:
129,196,96098,1,2,0:0:0:0:
178,261,96312,1,8,0:0:0:0:
253,225,96527,6,0,P|273:170|273:118,1,112,2|0,3:2|0:0,0:0:0:0:
311,27,97169,1,2,3:2:0:0:
278,108,97384,2,0,P|359:104|432:48,1,168,8|2,0:0|3:2,0:0:0:0:
512,192,98455,2,0,P|514:251|490:303,1,112,0|0,3:0|3:0,0:0:0:0:
470,384,99098,2,0,P|449:368|414:358,1,56,10|0,0:0|0:0,0:0:0:0:
342,381,99527,1,2,0:0:0:0:
270,330,99741,5,8,0:0:0:0:
270,330,99848,1,0,0:0:0:0:
270,330,99955,2,0,P|250:278|250:223,1,112,2|0,3:2|0:0,0:0:0:0:
305,151,100598,1,2,3:2:0:0:
206,93,100812,2,0,P|226:145|226:200,1,112,8|0,0:0|0:0,0:0:0:0:
169,270,101455,2,0,P|123:240|68:232,1,112,2|0,3:2|3:0,0:0:0:0:
8,112,102312,5,0,3:0:0:0:
8,112,102419,1,0,0:0:0:0:
8,112,102527,1,10,0:0:0:0:
75,63,102741,1,0,0:0:0:0:
155,81,102955,1,2,0:0:0:0:
190,153,103169,1,10,0:0:0:0:
258,56,103384,6,0,P|301:26|374:33,1,125.999996154785,6|0,3:2|0:0,0:0:0:0:
445,65,104027,1,2,3:2:0:0:
507,11,104241,2,0,L|483:141,1,125.999996154785,10|0,0:0|0:0,0:0:0:0:
501,221,104884,1,2,3:2:0:0:
501,221,105312,2,0,P|436:232|365:253,1,125.999996154785,0|0,3:0|3:0,0:0:0:0:
305,305,105955,2,0,P|253:287|241:215,1,125.999996154785,8|2,0:0|0:0,0:0:0:0:
294,164,106598,1,8,0:0:0:0:
259,63,106812,6,0,P|191:73|159:137,1,125.999996154785,2|0,3:2|0:0,0:0:0:0:
161,117,107455,1,2,3:2:0:0:
79,101,107669,2,0,P|89:169|153:201,1,125.999996154785,8|0,0:0|0:0,0:0:0:0:
95,274,108312,6,0,P|146:239|208:241,1,125.999996154785,2|0,3:2|3:0,0:0:0:0:
408,344,109169,1,0,3:0:0:0:
331,376,109384,1,10,0:0:0:0:
280,311,109598,1,0,0:0:0:0:
280,311,109812,2,0,L|295:240,1,62.9999980773926,2|8,0:0|0:0,0:0:0:0:
218,198,110241,6,0,P|257:120|354:104,1,188.999994232178,2|2,3:2|3:2,0:0:0:0:
404,165,111098,2,0,P|457:165|522:101,1,125.999996154785,8|0,0:0|0:0,0:0:0:0:
512,121,111741,6,0,L|489:260,1,125.999996154785,2|0,3:2|3:0,0:0:0:0:
376,379,112598,1,0,3:0:0:0:
304,328,112812,2,0,P|286:301|282:265,1,62.9999980773926,10|0,0:0|0:0,0:0:0:0:
385,297,113241,2,0,P|379:264|365:239,1,62.9999980773926,2|8,0:0|0:0,0:0:0:0:
281,271,113669,6,0,P|219:281|147:237,1,125.999996154785,2|0,3:2|0:0,0:0:0:0:
94,335,114312,1,2,3:2:0:0:
157,249,114527,2,0,P|150:190|92:139,1,125.999996154785,8|0,0:0|0:0,0:0:0:0:
26,127,115169,1,2,3:2:0:0:
125,12,115598,1,0,3:0:0:0:
243,73,116027,5,0,3:0:0:0:
270,159,116241,1,10,0:0:0:0:
341,96,116455,1,8,0:0:0:0:
368,182,116669,2,0,L|437:167,1,62.9999980773926,4|0,0:3|0:0,0:0:0:0:
494,109,117098,6,0,L|471:262,1,140,4|0,3:2|3:0,0:0:0:0:
473,247,117741,1,0,3:0:0:0:
512,334,117955,2,0,P|481:295|388:293,1,140,8|0,0:0|3:0,0:0:0:0:
316,246,118598,2,0,P|285:269|274:300,1,70,0|2,3:0|0:0,0:0:0:0:
239,374,119027,2,0,L|205:224,1,140,8|0,0:0|3:0,0:0:0:0:
258,167,119669,2,0,P|264:133|264:98,1,70,8|0,0:0|3:0,0:0:0:0:
329,30,120098,1,8,0:0:0:0:
329,30,120205,1,8,0:0:0:0:
329,30,120312,1,8,0:0:0:0:
232,0,120527,6,0,P|175:40|103:30,1,140,2|0,3:2|3:0,0:0:0:0:
12,0,121169,1,0,3:0:0:0:
34,83,121384,2,0,P|1:144|10:224,1,140,8|0,0:0|3:0,0:0:0:0:
5,212,122027,2,0,P|44:218|72:230,1,70,0|2,3:0|0:0,0:0:0:0:
141,146,122455,2,0,P|189:206|201:273,1,140,8|0,0:0|3:0,0:0:0:0:
276,326,123098,5,8,0:0:0:0:
342,276,123312,1,0,3:0:0:0:
361,198,123527,1,8,0:3:0:0:
361,198,123741,1,8,0:3:0:0:
443,161,123955,6,0,P|371:152|311:108,1,140,4|0,3:2|3:0,0:0:0:0:
316,114,124598,1,0,3:0:0:0:
238,69,124812,2,0,P|248:40|253:0,1,70,8|0,0:0|3:0,0:0:0:0:
156,116,125241,5,8,0:0:0:0:
72,85,125455,1,0,3:0:0:0:
6,172,125669,6,0,B|67:149|121:192|78:208|131:262|201:236,1,224,4|0,3:2|0:0,0:0:0:0:
200,236,127169,5,0,0:0:0:0:
282,283,127384,2,0,P|322:231|308:142,1,154.000004699707,6|10,3:2|0:0,0:0:0:0:
228,119,128027,1,0,0:0:0:0:
254,38,128241,2,0,P|292:30|330:17,1,77.0000023498536,2|0,3:2|3:0,0:0:0:0:
401,67,128669,1,10,0:0:0:0:
493,18,128884,1,0,0:0:0:0:
512,126,129098,6,0,P|491:205|480:292,1,154.000004699707,2|10,3:2|0:0,0:0:0:0:
501,374,129741,1,0,0:0:0:0:
501,374,129848,1,0,0:0:0:0:
501,374,129955,1,2,3:2:0:0:
406,342,130169,1,0,3:0:0:0:
316,384,130384,2,0,P|305:344|301:305,1,77.0000023498536,10|0,0:0|0:0,0:0:0:0:
251,229,130812,6,0,P|306:216|357:108,1,154.000004699707,2|10,3:2|0:0,0:0:0:0:
446,86,131455,2,0,P|439:37|410:1,1,77.0000023498536,0|2,0:0|3:2,0:0:0:0:
306,83,131884,1,0,3:0:0:0:
306,83,132098,2,0,P|337:103|356:137,1,77.0000023498536,10|0,0:0|0:0,0:0:0:0:
486,190,132527,6,0,P|476:263|410:313,1,154.000004699707,2|10,3:2|0:0,0:0:0:0:
338,368,133169,1,0,0:0:0:0:
338,368,133277,1,0,0:0:0:0:
338,368,133384,2,0,P|299:362|263:336,1,77.0000023498536,2|0,3:2|3:0,0:0:0:0:
233,263,133812,1,10,0:0:0:0:
247,178,134027,1,0,0:0:0:0:
126,221,134241,6,0,P|59:215|1:128,1,154.000004699707,6|10,3:2|0:0,0:0:0:0:
62,6,134884,2,0,P|79:46|79:85,1,77.0000023498536,0|2,0:0|3:2,0:0:0:0:
166,123,135312,1,0,3:0:0:0:
229,58,135527,1,10,0:0:0:0:
321,80,135741,1,0,0:0:0:0:
254,148,135955,6,0,P|243:221|279:296,1,154.000004699707,2|10,3:2|0:0,0:0:0:0:
221,365,136598,1,0,0:0:0:0:
306,384,136812,2,0,P|344:368|381:368,1,77.0000023498536,2|0,3:2|3:0,0:0:0:0:
474,382,137241,1,10,0:0:0:0:
417,288,137455,1,0,0:0:0:0:
486,194,137669,6,0,P|519:116|492:29,1,154.000004699707,2|10,3:2|0:0,0:0:0:0:
422,8,138312,1,0,0:0:0:0:
422,8,138419,1,0,0:0:0:0:
422,8,138527,2,0,P|383:21|344:31,1,77.0000023498536,2|0,3:2|3:0,0:0:0:0:
261,1,138955,1,10,0:0:0:0:
230,89,139169,1,0,0:0:0:0:
325,118,139384,6,0,P|339:186|295:266,1,154.000004699707,2|10,3:2|0:0,0:0:0:0:
299,368,140027,1,0,0:0:0:0:
299,368,140134,1,0,0:0:0:0:
299,368,140241,1,2,3:2:0:0:
206,328,140455,1,0,3:0:0:0:
126,371,140669,1,10,3:3:0:0:
97,372,140776,1,8,3:0:0:0:
69,366,140883,1,4,3:0:0:0:
46,353,140990,1,4,3:0:0:0:
27,332,141098,6,0,P|39:271|58:168,1,154.000004699707,6|10,3:2|0:0,0:0:0:0:
4,104,141741,2,0,P|42:96|79:83,1,77.0000023498536,0|2,0:0|3:2,0:0:0:0:
159,38,142169,1,0,3:0:0:0:
219,113,142384,2,0,P|206:149|198:186,1,77.0000023498536,10|0,0:0|0:0,0:0:0:0:
149,282,142812,6,0,P|195:318|290:313,1,154.000004699707,2|10,3:2|0:0,0:0:0:0:
356,375,143455,2,0,P|396:362|434:356,1,77.0000023498536,0|2,0:0|3:2,0:0:0:0:
493,297,143884,1,0,3:0:0:0:
440,232,144098,1,10,0:0:0:0:
489,165,144312,1,0,0:0:0:0:
489,165,144527,2,0,P|524:120|508:22,1,154.000004699707,2|10,3:2|0:0,0:0:0:0:
428,0,145169,2,0,P|389:12|347:22,1,77.0000023498536,0|2,0:0|3:2,0:0:0:0:
263,4,145598,5,0,3:0:0:0:
244,88,145812,1,10,0:0:0:0:
222,170,146027,1,0,0:0:0:0:
137,110,146241,6,0,P|61:110|-2:183,1,154.000004699707,2|10,3:2|0:0,0:0:0:0:
26,245,146884,2,0,P|65:251|100:262,1,77.0000023498536,0|2,0:0|3:2,0:0:0:0:
164,313,147312,1,0,3:0:0:0:
241,269,147527,2,0,P|247:229|260:191,1,77.0000023498536,10|0,0:0|0:0,0:0:0:0:
195,105,147955,6,0,P|276:89|337:35,1,154.000004699707,6|10,3:2|0:0,0:0:0:0:
402,90,148598,1,0,0:0:0:0:
500,58,148812,2,0,P|493:99|480:146,1,77.0000023498536,2|0,3:2|3:0,0:0:0:0:
411,185,149241,1,10,0:0:0:0:
491,263,149455,5,0,0:0:0:0:
491,263,149562,1,0,0:0:0:0:
491,263,149669,2,0,P|433:315|339:306,1,154.000004699707,6|10,3:2|0:0,0:0:0:0:
263,380,150312,6,0,P|252:318|242:260,1,115.50000352478,4|0,3:2|0:0,0:0:0:0:
243,266,150741,1,4,3:0:0:0:
315,224,150955,2,0,P|334:188|334:145,1,77.0000023498536,4|0,3:0|0:0,0:0:0:0:
279,74,151384,6,0,P|244:89|195:96,1,70,6|0,3:2|0:0,0:0:0:0:
213,95,151705,1,0,0:0:0:0:
213,95,151812,1,10,0:0:0:0:
145,33,152027,1,0,0:0:0:0:
145,33,152134,2,0,P|91:27|44:2,1,105,0|0,0:0|3:0,0:0:0:0:
8,81,152669,1,10,0:0:0:0:
30,154,152884,1,0,0:0:0:0:
0,233,153098,6,0,P|63:197|128:197,1,140,2|10,3:2|0:0,0:0:0:0:
169,115,153741,1,2,0:0:0:0:
248,167,153955,2,0,P|282:174|312:194,1,70,2|0,3:2|3:0,0:0:0:0:
311,193,154277,1,0,0:0:0:0:
311,193,154384,2,0,L|329:126,1,70,10|2,0:0|0:0,0:0:0:0:
385,43,154812,6,0,P|420:35|453:27,1,70,2|2,3:2|0:0,0:0:0:0:
453,26,155134,1,0,0:0:0:0:
453,26,155241,2,0,P|485:87|484:157,1,140,10|2,0:0|3:2,0:0:0:0:
439,234,155884,1,0,3:0:0:0:
499,297,156098,1,10,0:0:0:0:
488,310,156205,1,0,0:0:0:0:
482,326,156312,1,2,0:0:0:0:
478,343,156419,1,0,0:0:0:0:
479,360,156527,6,0,B|441:376|405:360|422:350|391:333|336:349,1,140,2|10,3:2|0:0,0:0:0:0:
256,384,157169,2,0,P|220:351|210:282,1,105
212,287,157598,1,0,3:0:0:0:
162,217,157812,2,0,P|171:180|196:155,1,70,10|2,0:0|0:0,0:0:0:0:
298,187,158241,6,0,L|404:166,1,105,6|0,3:2|0:0,0:0:0:0:
400,166,158669,2,0,P|441:172|474:193,1,70,10|0,0:0|0:0,0:0:0:0:
501,98,159098,2,0,P|460:92|427:71,1,70,2|0,3:2|3:0,0:0:0:0:
389,1,159527,1,10,0:0:0:0:
313,51,159741,6,0,P|255:84|183:84,1,140
183,84,160277,1,0,0:0:0:0:
183,84,160384,1,10,0:0:0:0:
116,38,160598,2,0,P|138:102|156:176,1,140,0|0,0:0|3:0,0:0:0:0:
155,172,161134,1,0,0:0:0:0:
155,172,161241,1,10,0:0:0:0:
119,255,161455,6,0,P|169:221|252:225,1,140,2|0,0:0|0:0,0:0:0:0:
325,176,162098,2,0,P|337:214|344:249,1,70,10|0,0:0|0:0,0:0:0:0:
424,304,162527,2,0,P|412:342|405:377,1,70,2|0,3:2|3:0,0:0:0:0:
405,371,162848,1,0,0:0:0:0:
405,371,162955,2,0,P|367:359|332:352,1,70,10|0,0:0|0:0,0:0:0:0:
245,308,163384,6,0,P|211:318|177:326,1,70,2|2,3:2|0:0,0:0:0:0:
114,381,163812,1,10,0:0:0:0:
41,344,164027,2,0,P|-4:288|-4:207,1,140,0|0,0:0|3:0,0:0:0:0:
40,148,164669,1,10,3:3:0:0:
57,145,164777,1,8,3:0:0:0:
73,138,164884,1,4,3:0:0:0:
88,129,164991,1,4,3:0:0:0:
102,119,165098,6,0,P|170:119|234:149,1,140,6|10,3:2|0:0,0:0:0:0:
315,110,165741,1,0,0:0:0:0:
372,173,165955,2,0,P|363:210|357:248,1,70,2|0,3:2|3:0,0:0:0:0:
426,310,166384,1,10,0:0:0:0:
509,268,166598,1,2,0:0:0:0:
497,140,166812,6,0,P|439:179|358:165,1,140,2|10,3:2|0:0,0:0:0:0:
304,106,167455,1,0,0:0:0:0:
229,158,167669,2,0,P|239:195|249:235,1,70,2|0,3:2|3:0,0:0:0:0:
322,271,168098,1,10,0:0:0:0:
308,354,168312,1,2,0:0:0:0:
222,384,168527,6,0,P|165:351|86:360,1,140,2|10,3:2|0:0,0:0:0:0:
11,319,169169,1,0,0:0:0:0:
84,269,169384,2,0,P|76:230|64:202,1,70,2|0,3:2|3:0,0:0:0:0:
127,134,169812,1,10,0:0:0:0:
205,167,170027,6,0,P|207:243|184:312,1,140,2|0,0:0|0:0,0:0:0:0:
259,378,170669,2,0,P|296:366|331:366,1,70,10|0,0:0|0:0,0:0:0:0:
326,365,170991,1,0,0:0:0:0:
326,365,171098,1,2,3:2:0:0:
421,384,171312,1,0,3:0:0:0:
487,325,171527,2,0,P|501:295|504:257,1,70,10|2,0:0|0:0,0:0:0:0:
504,258,171848,1,0,0:0:0:0:
504,258,171955,6,0,P|449:256|380:178,1,140,6|10,3:2|0:0,0:0:0:0:
321,151,172598,1,0,0:0:0:0:
266,216,172812,2,0,P|234:229|192:238,1,70,2|0,3:2|3:0,0:0:0:0:
158,324,173241,1,10,0:0:0:0:
62,347,173455,1,2,0:0:0:0:
0,275,173669,6,0,P|12:206|25:137,1,140,2|10,3:2|0:0,0:0:0:0:
0,53,174312,1,0,0:0:0:0:
83,0,174527,2,0,P|98:35|99:73,1,70,2|2,3:2|0:0,0:0:0:0:
189,35,174955,1,10,0:0:0:0:
259,87,175169,1,2,0:0:0:0:
171,133,175384,6,0,P|157:202|204:282,1,140,2|10,3:2|0:0,0:0:0:0:
148,339,176027,1,0,0:0:0:0:
231,374,176241,2,0,P|267:364|302:358,1,70,2|0,3:2|3:0,0:0:0:0:
371,312,176669,1,10,0:0:0:0:
426,379,176884,1,2,0:0:0:0:
499,337,177098,6,0,B|482:290|482:290|504:203,1,140,2|10,3:2|0:0,0:0:0:0:
459,129,177741,1,0,0:0:0:0:
459,129,177848,1,0,0:0:0:0:
459,129,177955,1,2,3:2:0:0:
496,39,178169,1,0,3:0:0:0:
394,10,178384,1,8,0:3:0:0:
380,21,178491,1,8,0:3:0:0:
365,30,178598,1,4,0:3:0:0:
348,35,178705,1,4,0:3:0:0:
331,37,178812,6,0,P|321:72|315:111,1,70,6|0,3:2|0:0,0:0:0:0:
249,163,179241,1,10,0:0:0:0:
287,238,179455,1,0,0:0:0:0:
256,320,179669,2,0,P|221:330|182:336,1,70,2|0,3:2|3:0,0:0:0:0:
109,372,180098,1,10,0:0:0:0:
27,340,180312,6,0,P|2:275|-3:194,1,140,2|0,0:0|0:0,0:0:0:0:
98,110,180955,2,0,P|95:144|82:177,1,70,10|0,0:0|0:0,0:0:0:0:
136,255,181384,1,2,3:2:0:0:
222,228,181598,1,0,3:0:0:0:
284,297,181812,2,0,P|318:290|350:274,1,70,10|2,0:0|0:0,0:0:0:0:
448,278,182241,6,0,L|466:137,1,140,6|10,3:2|0:0,0:0:0:0:
484,50,182884,1,0,0:0:0:0:
484,50,182991,1,8,0:3:0:0:
484,50,183098,2,0,L|414:66,1,70,2|4,3:2|3:0,0:0:0:0:
316,20,183527,1,4,0:3:0:0:
268,120,183741,1,8,0:3:0:0:
171,76,183955,5,4,0:0:0:0:
256,192,184062,12,2,185669,0:0:0:0:
458,12,188884,5,2,0:0:0:0:
458,12,189098,2,0,P|395:63|301:33,1,154.000004699707,6|10,3:2|0:0,0:0:0:0:
242,0,189741,2,0,L|224:75,1,77.0000023498536,0|2,0:0|3:2,0:0:0:0:
293,131,190169,1,0,3:0:0:0:
255,218,190384,1,10,0:0:0:0:
255,218,190598,1,0,0:0:0:0:
320,284,190812,6,0,P|258:327|176:318,1,154.000004699707,2|10,3:2|0:0,0:0:0:0:
111,381,191455,1,0,0:0:0:0:
111,381,191562,1,0,0:0:0:0:
111,381,191669,1,2,3:2:0:0:
87,295,191884,1,0,3:0:0:0:
0,255,192098,2,0,P|10:219|18:179,1,77.0000023498536,10|0,0:0|0:0,0:0:0:0:
0,84,192527,6,0,P|82:70|152:38,1,154.000004699707,6|10,3:2|0:0,0:0:0:0:
226,95,193169,2,0,P|238:132|241:172,1,77.0000023498536,0|2,0:0|3:2,0:0:0:0:
265,260,193598,1,0,3:0:0:0:
342,218,193812,2,0,P|379:206|419:203,1,77.0000023498536,10|0,0:0|0:0,0:0:0:0:
512,170,194241,6,0,P|442:171|388:100,1,154.000004699707,2|10,3:2|0:0,0:0:0:0:
389,17,194884,1,0,0:0:0:0:
389,17,194991,1,0,0:0:0:0:
389,17,195098,2,0,P|350:32|310:42,1,77.0000023498536,2|0,3:2|3:0,0:0:0:0:
230,9,195527,1,10,0:0:0:0:
187,94,195741,1,0,0:0:0:0:
281,132,195955,6,0,B|300:225|256:191|278:288,1,154.000004699707,2|10,3:2|0:0,0:0:0:0:
336,357,196598,2,0,P|293:367|248:383,1,77.0000023498536,0|2,0:0|3:2,0:0:0:0:
202,322,197027,1,0,3:0:0:0:
119,360,197241,1,10,0:0:0:0:
55,302,197455,1,0,0:0:0:0:
71,214,197669,6,0,B|106:212|136:200|136:200|156:184|156:184|185:173|233:170,1,154.000004699707,2|10,3:2|0:0,0:0:0:0:
317,149,198312,1,0,0:0:0:0:
317,149,198419,1,0,0:0:0:0:
317,149,198527,1,2,3:2:0:0:
373,229,198741,1,0,3:0:0:0:
472,178,198955,5,10,3:3:0:0:
477,157,199062,1,8,3:0:0:0:
483,141,199169,1,4,3:0:0:0:
490,126,199277,1,4,3:0:0:0:
497,113,199384,6,0,P|422:113|361:55,1,154.000004699707,6|10,3:2|0:0,0:0:0:0:
276,4,200027,2,0,P|267:42|258:87,1,77.0000023498536,0|2,0:0|3:2,0:0:0:0:
176,137,200455,1,0,3:0:0:0:
267,195,200669,2,0,P|258:233|249:278,1,77.0000023498536,10|0,0:0|0:0,0:0:0:0:
302,345,201098,6,0,P|248:309|147:310,1,154.000004699707,2|10,3:2|0:0,0:0:0:0:
77,364,201741,2,0,P|67:327|57:290,1,77.0000023498536,0|2,0:0|3:2,0:0:0:0:
5,226,202169,1,0,3:0:0:0:
41,148,202384,2,0,P|78:158|118:158,1,77.0000023498536,10|0,0:0|0:0,0:0:0:0:
184,217,202812,6,0,B|221:196|263:196|263:196|292:232|347:239,1,154.000004699707,2|10,3:2|0:0,0:0:0:0:
412,214,203455,1,0,0:0:0:0:
412,214,203562,1,0,0:0:0:0:
412,214,203669,2,0,P|416:175|429:138,1,77.0000023498536,2|0,3:2|3:0,0:0:0:0:
495,66,204098,2,0,P|455:59|410:36,1,77.0000023498536,10|0,0:0|0:0,0:0:0:0:
323,7,204527,6,0,B|289:47|235:68|235:68|190:74,1,154.000004699707,2|10,3:2|0:0,0:0:0:0:
100,32,205169,1,0,0:0:0:0:
23,77,205384,2,0,P|9:111|3:156,1,77.0000023498536,2|0,3:2|3:0,0:0:0:0:
64,229,205812,1,10,0:0:0:0:
157,190,206027,1,0,0:0:0:0:
227,266,206241,6,0,B|269:281|310:252|295:244|328:222|377:237,1,154.000004699707,6|10,3:2|0:0,0:0:0:0:
456,263,206884,2,0,P|464:222|475:187,1,77.0000023498536,0|2,0:0|3:2,0:0:0:0:
436,103,207312,1,0,3:0:0:0:
342,127,207527,2,0,P|350:86|361:51,1,77.0000023498536,10|0,0:0|0:0,0:0:0:0:
280,0,207955,6,0,P|233:41|134:32,1,154.000004699707,6|10,3:2|0:0,0:0:0:0:
64,96,208598,2,0,P|138:88|198:134,1,154.000004699707,4|4,3:2|3:0,0:0:0:0:
256,216,209241,1,4,3:0:0:0:
256,216,209669,5,14,3:2:0:0:
256,192,209777,12,2,213098,0:0:0:0:
320,344,213741,6,0,P|376:336|419:299,1,112,2|0,3:2|0:0,0:0:0:0:
417,301,214598,2,0,P|344:270|321:183,1,168,2|0,3:2|0:0,0:0:0:0:
366,114,215455,1,0,0:0:0:0:
366,114,215669,2,0,P|398:105|419:95,2,56,2|0|2,0:0|0:0|0:0,0:0:0:0:
303,51,216312,1,0,0:0:0:0:
218,82,216527,6,0,P|196:131|186:188,1,112,2|0,3:2|0:0,0:0:0:0:
74,162,217169,2,0,P|98:235|169:300,1,168,2|0,3:2|0:0,0:0:0:0:
112,378,218027,6,0,P|181:332|321:324,1,224,2|0,3:2|0:0,0:0:0:0:
319,323,219312,6,0,P|324:351|332:377,2,56,0|2|0,0:0|0:0|0:0,0:0:0:0:
376,256,219955,2,0,P|383:200|399:146,1,112,2|0,3:2|0:0,0:0:0:0:
449,52,220598,2,0,P|382:100|299:102,1,168,2|0,3:2|0:0,0:0:0:0:
216,16,221455,6,0,P|216:207|100:55,1,504,2|2,3:2|0:0,0:0:0:0:
256,192,223491,12,2,225098,0:0:0:0:
