osu file format v14

[General]
AudioFilename: audio.mp3
AudioLeadIn: 0
PreviewTime: 64399
Countdown: 0
SampleSet: Soft
StackLeniency: 0.7
Mode: 0
LetterboxInBreaks: 0
WidescreenStoryboard: 1

[Editor]
DistanceSpacing: 1
BeatDivisor: 4
GridSize: 16
TimelineZoom: 0.6999999

[Metadata]
Title:sign
TitleUnicode:sign
Artist:Yumeno Yuki
ArtistUnicode:夢乃ゆき
Creator:Lafayla
Version:Normal
Source:ソラコイ
Tags:Sorakoi VN Visual Novel Chelseasoft 北澤伸一郎 japanese
BeatmapID:1870437
BeatmapSetID:895149

[Difficulty]
HPDrainRate:4
CircleSize:3
OverallDifficulty:4
ApproachRate:5
SliderMultiplier:0.999999999999999
SliderTickRate:1

[Events]
//Background and Video events
0,0,"sign 4.jpg",0,0
Video,-1319,"lolis (1).avi"
//Break Periods
//Storyboard Layer 0 (Background)
//Storyboard Layer 1 (Fail)
//Storyboard Layer 2 (Pass)
//Storyboard Layer 3 (Foreground)
//Storyboard Sound Samples

[TimingPoints]
990,454.545454545455,4,2,1,70,1,0
990,-100,4,2,1,70,0,0
46217,-100,4,2,1,60,0,0
57353,-100,4,2,1,70,0,0
64626,-100,4,2,1,80,0,1
77353,-100,4,2,1,80,0,0
79171,-100,4,2,1,80,0,1
91899,-100,4,2,1,70,0,0
106444,-100,4,2,1,50,0,0
108262,-100,4,2,1,30,0,0

[Colours]
Combo1 : 236,185,240
Combo2 : 171,190,254
Combo3 : 255,170,172
Combo4 : 249,231,176

[HitObjects]
38,268,990,5,6,2:0:0:0:
38,268,1217,1,2,0:0:0:0:
129,227,1671,2,0,P|176:218|235:227,1,99.9999999999999,2|2,0:0|0:0,0:0:0:0:
318,182,2580,2,0,P|363:197|409:235,1,99.9999999999999,2|2,0:0|0:0,0:0:0:0:
440,263,3262,1,0,1:0:0:0:
440,263,3490,2,0,L|451:152,1,99.9999999999999,2|2,0:0|3:2,0:0:0:0:
459,114,4171,1,2,1:2:0:0:
386,45,4626,5,2,0:0:0:0:
386,45,4853,1,2,0:0:0:0:
286,55,5308,2,0,P|271:106|297:160,1,99.9999999999999,2|2,0:0|0:0,0:0:0:0:
331,237,6217,2,0,P|346:288|319:342,1,99.9999999999999,2|2,1:2|0:0,0:0:0:0:
292,362,6899,1,2,1:2:0:0:
292,362,7126,1,2,0:0:0:0:
205,312,7580,1,2,3:2:0:0:
205,312,7808,2,0,L|135:319,1,50,2|0,1:2|3:0,0:0:0:0:
105,322,8262,5,6,2:0:0:0:
105,322,8490,1,2,0:0:0:0:
31,254,8944,2,0,L|42:143,1,99.9999999999999,2|2,0:0|0:0,0:0:0:0:
11,58,9853,2,0,L|121:46,1,99.9999999999999,2|2,0:0|0:0,0:0:0:0:
146,13,10535,1,0,1:0:0:0:
146,13,10762,2,0,L|256:24,1,99.9999999999999,2|2,0:0|3:2,0:0:0:0:
294,33,11444,1,2,1:2:0:0:
279,131,11899,5,2,0:0:0:0:
279,131,12126,1,2,0:0:0:0:
211,207,12580,2,0,P|204:256|221:302,1,99.9999999999999,2|2,0:0|0:0,0:0:0:0:
256,338,13262,1,0,1:0:0:0:
256,338,13490,1,2,1:2:0:0:
405,329,14171,2,0,L|412:398,2,50,2|2|0,1:2|0:0|3:0,0:0:0:0:
469,252,15080,2,0,L|461:182,1,50,0|0,1:0|3:0,0:0:0:0:
442,156,15535,6,0,P|395:139|346:145,1,99.9999999999999,2|2,3:2|0:0,0:0:0:0:
298,160,16217,1,2,0:0:0:0:
211,110,16671,1,2,3:2:0:0:
211,110,16899,2,0,P|179:121|165:130,1,50,2|0,3:2|3:0,0:0:0:0:
115,127,17353,6,0,P|93:152|85:167,1,50,2|2,0:0|0:0,0:0:0:0:
68,213,17808,1,0,1:0:0:0:
81,311,18262,1,0,3:0:0:0:
179,292,18717,2,0,P|203:292|228:298,1,50,2|2,1:2|0:0,0:0:0:0:
268,328,19171,2,0,P|266:277|289:233,1,99.9999999999999,2|0,0:0|1:0,0:0:0:0:
337,225,19853,2,0,P|339:175|316:131,1,99.9999999999999,2|2,0:0|3:2,0:0:0:0:
276,101,20535,1,2,1:2:0:0:
336,21,20990,6,0,L|389:26,1,50,2|2,0:0|0:0,0:0:0:0:
434,35,21444,1,0,1:0:0:0:
489,118,21899,1,0,3:0:0:0:
434,201,22353,2,0,L|440:250,1,50,2|2,1:2|0:0,0:0:0:0:
468,291,22808,2,0,P|418:288|374:311,1,99.9999999999999,2|2,3:2|1:2,0:0:0:0:
337,345,23490,1,2,0:0:0:0:
241,317,23944,1,2,3:2:0:0:
241,317,24171,2,0,L|235:268,1,50,2|0,3:2|3:0,0:0:0:0:
263,226,24626,6,0,L|257:177,1,50,2|2,0:0|0:0,0:0:0:0:
253,126,25080,1,0,1:0:0:0:
294,35,25535,1,0,3:0:0:0:
196,10,25990,2,0,P|171:10|147:16,1,50,2|2,1:2|0:0,0:0:0:0:
103,40,26444,2,0,L|93:139,1,99.9999999999999,2|0,0:0|1:0,0:0:0:0:
88,189,27126,1,2,0:0:0:0:
39,330,27808,2,0,P|62:337|87:339,1,50,0|2,1:0|0:0,0:0:0:0:
137,332,28262,5,0,0:0:0:0:
203,257,28717,2,0,L|209:208,1,50,2|2,1:2|0:0,0:0:0:0:
197,158,29171,1,2,3:2:0:0:
197,158,29399,2,0,P|234:124|288:116,1,99.9999999999999,2|2,0:0|0:0,0:0:0:0:
332,120,30080,1,2,0:0:0:0:
426,86,30535,1,2,1:2:0:0:
426,86,30762,2,0,L|438:196,1,99.9999999999999,2|0,0:0|3:0,0:0:0:0:
420,232,31444,2,0,P|398:247|374:251,1,50,0|0,1:0|1:0,0:0:0:0:
329,235,31899,6,0,P|304:239|284:254,1,50,6|0,0:0|0:0,0:0:0:0:
252,292,32353,1,0,1:0:0:0:
167,237,32808,1,0,3:0:0:0:
231,161,33262,2,0,P|236:136|237:111,1,50,2|2,1:2|0:0,0:0:0:0:
265,70,33717,2,0,P|212:78|165:65,1,99.9999999999999,2|0,0:0|1:0,0:0:0:0:
137,26,34399,2,0,P|84:18|37:30,1,99.9999999999999,2|2,0:0|3:2,0:0:0:0:
8,68,35080,1,2,1:2:0:0:
53,157,35535,6,0,L|57:206,1,50,2|2,0:0|0:0,0:0:0:0:
64,256,35990,1,0,1:0:0:0:
78,355,36444,1,0,3:0:0:0:
176,336,36899,2,0,L|182:287,1,50,2|2,1:2|1:2,0:0:0:0:
227,265,37353,2,0,L|216:165,1,99.9999999999999,2|2,0:0|1:2,0:0:0:0:
208,116,38035,1,2,0:0:0:0:
286,54,38490,1,2,3:2:0:0:
286,54,38717,2,0,P|308:51|335:60,1,50,0|2,1:0|3:2,0:0:0:0:
382,47,39171,6,0,P|402:56|421:76,1,50,2|2,0:0|0:0,0:0:0:0:
448,117,39626,1,0,1:0:0:0:
378,188,40080,1,0,3:0:0:0:
448,258,40535,2,0,P|448:283|442:307,1,50,2|2,1:2|0:0,0:0:0:0:
468,349,40990,2,0,L|368:358,1,99.9999999999999,2|2,0:0|1:2,0:0:0:0:
319,371,41671,1,2,0:0:0:0:
241,242,42353,2,0,P|238:217|241:192,1,50,2|2,1:2|0:0,0:0:0:0:
257,144,42808,5,0,0:0:0:0:
210,55,43262,2,0,L|161:61,1,50,2|2,1:2|0:0,0:0:0:0:
112,47,43717,1,2,3:2:0:0:
112,47,43944,2,0,P|128:93|118:141,1,99.9999999999999,2|0,0:0|1:0,0:0:0:0:
87,180,44626,1,2,0:0:0:0:
61,276,45080,1,2,1:2:0:0:
61,276,45308,2,0,L|171:288,1,99.9999999999999,2|0,0:0|3:0,0:0:0:0:
185,330,45990,2,0,L|238:323,1,50,0|0,1:0|1:0,0:0:0:0:
282,309,46444,5,4,0:0:0:0:
333,223,46899,1,2,1:2:0:0:
333,223,47126,2,0,L|432:233,2,99.9999999999999,2|2|2,0:0|0:0|0:0,0:0:0:0:
296,188,48262,1,2,0:0:0:0:
250,98,48717,1,2,1:2:0:0:
250,98,48944,2,0,P|255:50|309:19,1,99.9999999999999,2|2,0:0|0:0,0:0:0:0:
345,14,49626,1,2,1:2:0:0:
435,56,50080,5,2,0:0:0:0:
432,156,50535,2,0,L|420:266,1,99.9999999999999,2|2,1:2|3:2,0:0:0:0:
423,305,51217,2,0,P|378:291|313:293,1,99.9999999999999,0|2,0:0|0:0,0:0:0:0:
276,299,51899,1,2,0:0:0:0:
282,199,52353,1,2,1:2:0:0:
282,199,52580,1,2,0:0:0:0:
212,127,53035,2,0,P|163:102|102:115,1,99.9999999999999,2|0,0:0|3:0,0:0:0:0:
75,129,53717,5,4,0:0:0:0:
38,222,54171,2,0,P|34:277|50:332,1,99.9999999999999,2|2,1:2|3:2,0:0:0:0:
87,346,54853,2,0,L|197:334,1,99.9999999999999,2|2,0:0|0:0,0:0:0:0:
236,328,55535,1,2,0:0:0:0:
305,256,55990,1,2,1:2:0:0:
305,256,56217,1,2,0:0:0:0:
392,305,56671,2,0,P|408:261|404:195,1,99.9999999999999,2|2,1:2|0:0,0:0:0:0:
393,160,57353,5,6,1:2:0:0:
429,66,57808,1,0,1:0:0:0:
429,66,58035,2,0,L|319:54,1,99.9999999999999,2|0,0:0|1:0,0:0:0:0:
279,51,58717,1,0,1:0:0:0:
183,80,59171,2,0,L|173:-8,2,74.9999999999999,2|2|2,0:0|0:0|0:0,0:0:0:0:
146,114,60080,2,0,L|155:202,2,74.9999999999999,2|2|2,1:2|0:0|0:0,0:0:0:0:
97,98,60990,5,2,1:2:0:0:
16,156,61444,2,0,P|9:217|28:266,1,99.9999999999999,0|0,1:0|1:0,0:0:0:0:
101,311,62353,1,2,1:2:0:0:
101,311,62580,2,0,L|211:299,1,99.9999999999999,6|0,1:2|3:0,0:0:0:0:
248,313,63262,2,0,P|253:287|255:260,1,50,0|0,3:0|3:0,0:0:0:0:
260,213,63717,1,0,1:0:0:0:
343,157,64171,1,0,1:0:0:0:
296,68,64626,6,0,P|272:62|247:60,1,50,6|0,0:0|0:0,0:0:0:0:
197,64,65080,1,2,1:2:0:0:
197,64,65308,2,0,P|152:85|103:82,1,99.9999999999999,2|2,0:0|0:0,0:0:0:0:
5,62,66217,2,0,L|16:175,1,99.9999999999999,2|2,0:0|0:0,0:0:0:0:
21,211,66899,1,2,1:2:0:0:
21,211,67126,1,2,0:0:0:0:
2,309,67580,2,0,P|52:310|101:298,1,99.9999999999999,2|2,0:0|0:0,0:0:0:0:
148,311,68262,6,0,L|153:260,1,50,2|2,0:0|0:0,0:0:0:0:
177,217,68717,1,2,1:2:0:0:
177,217,68944,2,0,P|225:205|275:206,1,99.9999999999999,2|2,0:0|0:0,0:0:0:0:
324,216,69626,1,2,1:2:0:0:
324,216,69853,1,2,0:0:0:0:
393,287,70308,1,2,0:0:0:0:
475,230,70762,1,2,0:0:0:0:
475,230,70990,2,0,L|464:130,1,99.9999999999999,2|2,3:2|1:2,0:0:0:0:
459,80,71671,1,2,3:2:0:0:
459,80,71899,5,2,2:2:0:0:
359,73,72353,1,2,1:2:0:0:
359,73,72580,2,0,P|340:119|339:169,1,99.9999999999999,2|2,0:0|0:0,0:0:0:0:
401,247,73490,1,2,0:0:0:0:
401,247,73717,2,0,L|490:256,2,74.9999999999999,2|2|2,2:2|0:0|0:0,0:0:0:0:
314,297,74853,1,0,0:0:0:0:
314,297,75080,2,0,P|291:285|273:265,1,50,0|2,1:0|0:0,0:0:0:0:
265,218,75535,6,0,L|254:118,1,99.9999999999999,2|2,0:0|1:2,0:0:0:0:
248,68,76217,1,2,0:0:0:0:
155,35,76671,2,0,P|103:33|57:59,1,99.9999999999999,2|2,0:0|0:0,0:0:0:0:
28,92,77353,1,6,0:0:0:0:
45,190,77808,1,2,0:0:0:0:
45,190,78035,1,2,1:2:0:0:
135,231,78490,2,0,P|186:228|230:200,1,99.9999999999999,2|2,1:2|0:0,0:0:0:0:
255,162,79171,6,0,P|279:156|304:154,1,50,6|2,0:0|0:0,0:0:0:0:
353,160,79626,1,2,1:2:0:0:
353,160,79853,2,0,P|374:204|371:253,1,99.9999999999999,2|2,0:0|0:0,0:0:0:0:
307,330,80762,2,0,L|208:340,1,99.9999999999999,2|2,0:0|0:0,0:0:0:0:
159,353,81444,1,2,1:2:0:0:
159,353,81671,1,2,0:0:0:0:
83,287,82126,2,0,L|72:187,1,99.9999999999999,2|2,0:0|0:0,0:0:0:0:
41,148,82808,6,0,P|47:118|61:101,1,50,2|0,0:0|0:0,0:0:0:0:
98,71,83262,1,2,1:2:0:0:
98,71,83490,2,0,L|197:81,1,99.9999999999999,2|2,0:0|0:0,0:0:0:0:
246,92,84171,1,2,1:2:0:0:
246,92,84399,1,2,0:0:0:0:
310,15,84853,1,2,0:0:0:0:
406,40,85308,1,2,0:0:0:0:
406,40,85535,2,0,L|416:139,1,99.9999999999999,2|2,3:2|1:2,0:0:0:0:
454,172,86217,1,2,3:2:0:0:
454,172,86444,6,0,L|448:222,1,50,2|2,0:0|0:0,0:0:0:0:
436,270,86899,1,2,1:2:0:0:
436,270,87126,2,0,P|388:255|339:261,1,99.9999999999999,2|2,0:0|0:0,0:0:0:0:
248,302,88035,1,2,0:0:0:0:
248,302,88262,2,0,L|255:376,2,74.9999999999999,2|2|2,0:0|0:0|0:0,0:0:0:0:
173,243,89399,1,0,0:0:0:0:
173,243,89626,2,0,P|171:217|180:191,1,50,0|2,1:0|0:0,0:0:0:0:
221,167,90080,6,0,P|218:114|205:69,1,99.9999999999999,2|2,0:0|0:0,0:0:0:0:
180,26,90762,1,2,0:0:0:0:
85,60,91217,2,0,P|71:107|69:157,1,99.9999999999999,2|2,0:0|3:2,0:0:0:0:
46,202,91899,6,0,P|54:225|55:250,1,50,6|2,0:0|0:0,0:0:0:0:
50,300,92353,1,2,1:2:0:0:
50,300,92580,2,0,L|149:310,1,99.9999999999999,2|2,0:0|0:0,0:0:0:0:
197,324,93262,1,2,1:2:0:0:
197,324,93490,1,2,0:0:0:0:
302,336,93944,1,2,0:0:0:0:
302,336,94171,2,0,P|321:298|317:238,1,99.9999999999999,2|2,1:2|3:2,0:0:0:0:
254,166,95080,2,0,P|263:140|279:122,1,50,2|2,1:2|0:0,0:0:0:0:
279,73,95535,6,0,P|299:55|322:48,1,50,2|2,0:0|0:0,0:0:0:0:
371,50,95990,1,2,1:2:0:0:
371,50,96217,2,0,P|415:74|433:126,1,99.9999999999999,2|2,0:0|0:0,0:0:0:0:
441,167,96899,1,2,1:2:0:0:
441,167,97126,1,2,1:2:0:0:
473,261,97580,2,0,L|422:266,1,50,0|0,0:0|1:0,0:0:0:0:
387,301,98035,2,0,P|337:298|289:285,1,99.9999999999999,2|2,0:0|0:0,0:0:0:0:
245,260,98717,1,2,1:2:0:0:
281,166,99171,5,2,0:0:0:0:
281,166,99399,1,2,0:0:0:0:
212,93,99853,2,0,P|160:75|113:87,1,99.9999999999999,2|2,0:0|0:0,0:0:0:0:
78,116,100535,1,2,1:2:0:0:
78,116,100762,2,0,L|67:227,1,99.9999999999999,2|2,0:0|0:0,0:0:0:0:
64,265,101444,1,0,1:0:0:0:
132,338,101899,2,0,P|183:336|229:322,1,99.9999999999999,2|2,3:2|1:2,0:0:0:0:
317,273,102808,5,2,0:0:0:0:
317,273,103035,1,0,0:0:0:0:
284,178,103490,2,0,P|282:128|317:90,1,99.9999999999999,2|0,0:0|0:0,0:0:0:0:
361,76,104171,1,2,1:2:0:0:
361,76,104399,2,0,L|460:85,1,99.9999999999999,2|0,0:0|0:0,0:0:0:0:
509,93,105080,1,0,3:0:0:0:
509,93,105308,1,0,0:0:0:0:
256,192,105421,12,0,109626,0:0:0:0:
