osu file format v14

[General]
AudioFilename: audio.mp3
AudioLeadIn: 0
PreviewTime: 64399
Countdown: 0
SampleSet: Soft
StackLeniency: 0.7
Mode: 0
LetterboxInBreaks: 0
WidescreenStoryboard: 0

[Editor]
Bookmarks: 18348,65621,92894
DistanceSpacing: 1.4
BeatDivisor: 4
GridSize: 16
TimelineZoom: 1

[Metadata]
Title:sign
TitleUnicode:sign
Artist:Yumeno Yuki
ArtistUnicode:夢乃ゆき
Creator:Lafayla
Version:Insane
Source:ソラコイ
Tags:Sorakoi VN Visual Novel Chelseasoft 北澤伸一郎 japanese
BeatmapID:1870436
BeatmapSetID:895149

[Difficulty]
HPDrainRate:6
CircleSize:4
OverallDifficulty:7.5
ApproachRate:8
SliderMultiplier:1.8
SliderTickRate:1

[Events]
//Background and Video events
0,0,"sign 3.jpg",0,0
Video,-1319,"lolis (1).avi"
//Break Periods
//Storyboard Layer 0 (Background)
//Storyboard Layer 1 (Fail)
//Storyboard Layer 2 (Pass)
//Storyboard Layer 3 (Foreground)
//Storyboard Sound Samples

[TimingPoints]
990,454.545454545455,4,2,1,70,1,0
990,-111.111111111111,4,2,1,70,0,0
46217,-125,4,2,1,60,0,0
57353,-125,4,2,1,70,0,0
64626,-100,4,2,1,80,0,1
77353,-100,4,2,1,80,0,0
79171,-100,4,2,1,80,0,1
91899,-111.111111111111,4,2,1,70,0,0
106444,-111.111111111111,4,2,1,50,0,0
108262,-111.111111111111,4,2,1,30,0,0

[Colours]
Combo1 : 236,185,240
Combo2 : 171,190,254
Combo3 : 255,170,172
Combo4 : 249,231,176

[HitObjects]
259,42,308,5,4,3:0:0:0:
313,226,535,1,4,3:0:0:0:
471,126,762,5,0,3:0:0:0:
471,126,876,1,0,3:0:0:0:
471,126,990,2,0,P|423:131|378:126,1,80.9999975280763,6|2,2:0|0:0,0:0:0:0:
227,55,1444,1,0,1:0:0:0:
118,32,1671,2,0,B|111:91|111:91|138:124|138:124|129:204,1,161.999995056153,2|2,0:0|0:0,0:0:0:0:
68,276,2353,1,0,1:0:0:0:
258,202,2580,6,0,P|344:222|339:315,1,161.999995056153,2|2,0:0|0:0,0:0:0:0:
305,367,3262,1,0,1:0:0:0:
246,233,3490,1,2,0:0:0:0:
384,316,3717,1,0,3:0:0:0:
384,316,3830,1,0,3:0:0:0:
384,316,3944,1,2,3:2:0:0:
512,145,4171,2,0,P|459:172|400:162,1,121.499996292114,2|0,1:2|0:0,0:0:0:0:
440,202,4626,6,0,P|394:196|348:166,1,80.9999975280763,2|2,0:0|0:0,0:0:0:0:
271,85,5080,1,0,1:0:0:0:
113,211,5308,2,0,B|155:238|155:238|275:226,1,161.999995056153,2|2,0:0|0:0,0:0:0:0:
399,161,5990,1,0,1:0:0:0:
477,210,6217,6,0,L|468:294,1,80.9999975280763,2|0,1:2|0:0,0:0:0:0:
339,378,6671,1,2,0:0:0:0:
291,241,6899,1,2,1:2:0:0:
291,241,7126,1,2,0:0:0:0:
216,320,7353,1,0,3:0:0:0:
216,320,7467,1,0,3:0:0:0:
216,320,7580,1,2,3:2:0:0:
240,106,7808,1,2,1:2:0:0:
97,194,8035,5,0,3:0:0:0:
97,194,8149,1,0,3:0:0:0:
97,194,8262,2,0,P|100:157|86:114,1,80.9999975280763,6|2,2:0|0:0,0:0:0:0:
25,32,8717,1,0,1:0:0:0:
233,6,8944,2,0,P|195:76|207:155,1,161.999995056153,2|2,0:0|0:0,0:0:0:0:
307,277,9626,1,0,1:0:0:0:
409,296,9853,6,0,L|389:114,1,161.999995056153,2|2,0:0|0:0,0:0:0:0:
371,27,10535,1,0,1:0:0:0:
247,54,10762,1,2,0:0:0:0:
360,154,10990,1,0,3:0:0:0:
367,160,11103,1,0,3:0:0:0:
367,160,11217,1,2,3:2:0:0:
244,266,11444,2,0,L|230:130,1,121.499996292114,2|0,1:2|0:0,0:0:0:0:
199,80,11899,6,0,L|190:160,1,80.9999975280763,2|2,0:0|0:0,0:0:0:0:
141,292,12353,1,0,1:0:0:0:
310,353,12580,2,0,P|334:281|242:242,1,161.999995056153,2|2,0:0|0:0,0:0:0:0:
289,134,13262,1,0,1:0:0:0:
474,146,13490,6,0,B|411:138|411:138|375:160|375:160|311:154,1,161.999995056153,2|0,1:2|0:0,0:0:0:0:
173,228,14171,1,2,1:2:0:0:
173,228,14399,2,0,L|259:237,1,80.9999975280763,2|0,0:0|3:0,0:0:0:0:
253,236,14740,1,0,3:0:0:0:
253,236,14853,1,0,3:0:0:0:
352,152,15080,1,0,1:0:0:0:
444,265,15308,5,0,3:0:0:0:
444,265,15421,1,0,3:0:0:0:
444,265,15535,2,0,P|448:223|468:182,1,80.9999975280763,2|0,3:2|0:0,0:0:0:0:
340,42,15990,2,0,P|356:78|359:119,1,80.9999975280763,2|2,0:0|0:0,0:0:0:0:
167,204,16444,5,0,3:0:0:0:
160,165,16558,1,0,3:0:0:0:
176,128,16671,1,2,3:2:0:0:
210,107,16785,1,0,3:0:0:0:
250,106,16899,1,2,3:2:0:0:
295,241,17126,1,0,3:0:0:0:
357,71,17353,5,2,0:0:0:0:
357,71,17580,1,2,0:0:0:0:
219,102,17808,2,0,L|211:21,1,80.9999975280763,0|0,1:0|0:0,0:0:0:0:
118,155,18262,2,0,L|124:235,1,80.9999975280763,0|0,3:0|0:0,0:0:0:0:
213,370,18717,1,2,1:2:0:0:
257,278,18944,1,2,0:0:0:0:
423,313,19171,6,0,P|385:327|346:320,1,80.9999975280763,2|0,0:0|0:0,0:0:0:0:
237,255,19626,1,0,1:0:0:0:
293,130,19853,1,2,0:0:0:0:
122,157,20080,1,0,3:0:0:0:
122,157,20194,1,0,3:0:0:0:
122,157,20308,1,2,3:2:0:0:
70,58,20535,2,0,P|108:44|147:51,1,80.9999975280763,2|0,1:2|0:0,0:0:0:0:
293,119,20990,5,2,0:0:0:0:
293,119,21217,1,2,0:0:0:0:
421,45,21444,2,0,B|448:87|448:87|436:207,1,161.999995056153,0|0,1:0|3:0,0:0:0:0:
499,351,22126,1,2,0:0:0:0:
452,222,22353,1,2,1:2:0:0:
336,363,22580,1,2,0:0:0:0:
328,270,22808,6,0,P|259:235|202:285,1,161.999995056153,2|2,3:2|1:2,0:0:0:0:
165,140,23490,1,2,0:0:0:0:
85,265,23717,1,0,3:0:0:0:
86,280,23830,1,0,3:0:0:0:
88,296,23944,1,2,3:2:0:0:
90,312,24058,1,0,3:0:0:0:
91,328,24171,1,2,3:2:0:0:
25,174,24399,6,0,L|65:170,1,40.4999987640381,0|0,3:0|3:0,3:0:0:0:
253,144,24626,1,2,0:0:0:0:
253,144,24853,1,2,0:0:0:0:
174,14,25080,2,0,P|154:49|151:89,1,80.9999975280763,0|0,1:0|0:0,0:0:0:0:
32,92,25535,2,0,P|33:132|50:168,1,80.9999975280763,0|0,3:0|0:0,0:0:0:0:
156,244,25990,1,2,1:2:0:0:
178,102,26217,1,2,0:0:0:0:
354,161,26444,6,0,P|315:173|275:167,1,80.9999975280763,2|0,0:0|0:0,0:0:0:0:
156,77,26899,1,0,1:0:0:0:
237,15,27126,1,2,0:0:0:0:
285,177,27353,1,0,3:0:0:0:
285,177,27467,1,0,3:0:0:0:
285,178,27580,1,0,3:0:0:0:
391,171,27808,2,0,P|429:177|463:200,1,80.9999975280763,0|2,1:0|0:0,0:0:0:0:
510,342,28262,5,0,0:0:0:0:
498,198,28490,1,2,0:0:0:0:
342,305,28717,2,0,P|382:306|421:295,1,80.9999975280763,2|2,1:2|0:0,0:0:0:0:
296,183,29171,2,0,P|255:181|216:192,1,80.9999975280763,2|2,3:2|0:0,0:0:0:0:
105,283,29626,1,0,1:0:0:0:
92,152,29853,1,2,0:0:0:0:
225,348,30080,6,0,B|233:285|233:285|211:249|211:249|217:186,1,161.999995056153,2|2,0:0|1:2,0:0:0:0:
233,96,30762,1,2,0:0:0:0:
331,224,30990,1,0,3:0:0:0:
331,224,31103,1,0,3:0:0:0:
331,224,31217,1,0,3:0:0:0:
338,55,31444,1,0,1:0:0:0:
481,173,31671,5,0,1:0:0:0:
481,173,31785,1,0,1:0:0:0:
481,173,31899,2,0,P|443:169|401:156,1,80.9999975280763,6|0,0:0|0:0,0:0:0:0:
243,91,32353,1,0,1:0:0:0:
271,65,32808,2,0,P|233:69|191:82,1,80.9999975280763,0|0,3:0|0:0,0:0:0:0:
74,147,33262,1,2,1:2:0:0:
180,240,33490,1,2,0:0:0:0:
148,318,33717,6,0,P|206:273|282:309,1,161.999995056153,2|0,0:0|1:0,0:0:0:0:
392,384,34399,2,0,L|401:300,1,80.9999975280763,2|0,0:0|3:0,0:0:0:0:
401,303,34740,1,0,3:0:0:0:
401,303,34853,1,2,3:2:0:0:
512,182,35080,2,0,P|477:194|432:196,1,80.9999975280763,2|2,1:2|0:0,0:0:0:0:
237,159,35535,5,2,0:0:0:0:
237,159,35762,1,2,0:0:0:0:
382,42,35990,2,0,L|402:224,1,161.999995056153,0|0,1:0|3:0,0:0:0:0:
334,292,36671,1,2,0:0:0:0:
260,181,36899,1,2,1:2:0:0:
127,273,37126,1,2,1:2:0:0:
53,154,37353,6,0,P|90:169|130:173,1,80.9999975280763,2|2,0:0|0:0,0:0:0:0:
264,182,37808,1,2,1:2:0:0:
356,150,38035,2,0,L|367:249,1,80.9999975280763,2|0,0:0|0:3,0:0:0:0:
365,231,38376,1,0,3:0:0:0:
365,231,38490,1,2,3:2:0:0:
307,359,38717,1,0,1:0:0:0:
470,311,38944,5,2,3:2:0:0:
470,311,39058,1,0,3:0:0:0:
470,311,39171,2,0,P|480:271|473:231,1,80.9999975280763,2|2,0:0|0:0,0:0:0:0:
399,102,39626,1,0,1:0:0:0:
368,85,40080,2,0,L|286:92,1,80.9999975280763,0|0,3:0|0:0,0:0:0:0:
98,36,40535,1,2,1:2:0:0:
47,139,40762,1,2,0:0:0:0:
158,299,40990,6,0,B|166:236|166:236|144:200|144:200|150:137,1,161.999995056153,2|2,0:0|1:2,0:0:0:0:
282,33,41671,1,2,0:0:0:0:
263,191,41899,1,0,3:0:0:0:
263,191,42012,1,0,3:0:0:0:
263,191,42126,1,0,3:0:0:0:
390,95,42353,2,0,L|382:177,1,80.9999975280763,2|2,1:2|0:0,0:0:0:0:
316,279,42808,5,0,0:0:0:0:
423,152,43035,1,2,0:0:0:0:
488,230,43262,2,0,P|487:271|469:308,1,80.9999975280763,2|2,1:2|0:0,0:0:0:0:
323,384,43717,1,2,3:2:0:0:
323,384,43944,2,0,P|306:347|306:307,1,80.9999975280763,2|0,0:0|1:0,0:0:0:0:
342,165,44399,1,0,1:0:0:0:
278,99,44626,6,0,P|240:84|200:84,1,80.9999975280763,2|2,0:0|0:0,0:0:0:0:
89,136,45080,1,2,1:2:0:0:
172,263,45308,2,0,L|179:182,1,80.9999975280763,2|0,0:0|3:0,0:0:0:0:
179,182,45649,1,0,3:0:0:0:
179,182,45762,1,0,3:0:0:0:
278,279,45990,1,0,1:0:0:0:
326,108,46217,5,0,1:0:0:0:
326,108,46330,1,0,1:0:0:0:
326,108,46444,2,0,L|333:189,1,72,4|2,0:0|0:0,0:0:0:0:
408,313,46899,1,2,1:2:0:0:
493,224,47126,2,0,P|459:211|424:214,1,72,2|2,0:0|3:2,0:0:0:0:
313,162,47580,2,0,P|237:187|159:167,1,144,2|2,0:0|0:0,0:0:0:0:
56,29,48262,6,0,L|72:190,1,144,2|2,0:0|1:2,0:0:0:0:
23,290,48944,2,0,P|64:278|112:281,1,72,2|0,0:0|3:0,0:0:0:0:
232,295,49399,1,2,0:0:0:0:
316,343,49626,2,0,L|323:271,1,72,2|0,1:2|0:0,0:0:0:0:
391,128,50080,5,2,0:0:0:0:
422,234,50308,1,2,0:0:0:0:
304,177,50535,2,0,P|265:171|227:180,1,72,2|2,1:2|0:0,0:0:0:0:
207,209,50876,1,2,0:0:0:0:
207,209,50990,2,0,P|169:217|131:212,1,72,2|0,3:2|0:0,0:0:0:0:
24,139,51444,2,0,L|29:210,1,72,2|2,1:2|0:0,0:0:0:0:
75,37,51899,6,0,P|150:41|173:121,1,144,2|2,0:0|1:2,0:0:0:0:
136,213,52580,1,2,0:0:0:0:
268,173,52808,1,0,3:0:0:0:
268,173,52921,1,0,3:0:0:0:
268,173,53035,2,0,P|306:165|344:170,1,72,2|0,0:0|3:0,0:0:0:0:
338,168,53376,1,0,3:0:0:0:
338,168,53490,1,0,3:0:0:0:
467,273,53717,6,0,B|461:216|461:216|480:183|480:183|476:124,1,144,4|2,0:0|1:2,0:0:0:0:
371,16,54399,1,2,0:0:0:0:
371,16,54512,1,2,0:0:0:0:
371,16,54626,2,0,L|361:101,1,72,2|2,3:2|0:0,0:0:0:0:
319,197,55080,1,0,1:0:0:0:
229,113,55308,1,2,0:0:0:0:
78,229,55535,6,0,B|123:205|123:205|242:218,1,144,2|2,0:0|1:2,0:0:0:0:
360,179,56217,2,0,P|341:209|335:244,1,72,2|0,0:0|3:0,0:0:0:0:
246,368,56671,1,2,1:2:0:0:
246,368,56899,2,0,P|238:333|220:301,1,72,0|2,1:0|0:0,0:0:0:0:
182,283,57240,1,2,0:0:0:0:
182,283,57353,6,0,L|108:290,1,72,6|0,1:2|0:0,0:0:0:0:
23,211,57808,1,0,1:0:0:0:
163,147,58035,2,0,L|239:154,1,72,2|0,0:0|3:0,0:0:0:0:
346,220,58490,1,0,1:0:0:0:
346,220,58717,1,0,1:0:0:0:
296,317,58944,1,2,0:0:0:0:
476,292,59171,6,0,P|472:238|448:190,1,108,2|2,0:0|0:0,0:0:0:0:
260,52,59853,1,2,0:0:0:0:
260,52,60080,2,0,P|235:99|232:153,1,108,2|2,1:2|0:0,0:0:0:0:
301,346,60762,1,2,0:0:0:0:
201,355,60990,5,2,1:2:0:0:
170,350,61444,1,0,1:0:0:0:
136,345,61899,1,0,1:0:0:0:
360,268,62353,5,2,1:2:0:0:
360,268,62580,1,6,1:2:0:0:
135,201,63035,5,0,3:0:0:0:
218,96,63262,1,0,3:0:0:0:
207,262,63490,1,0,3:0:0:0:
115,102,63717,1,0,1:0:0:0:
88,76,64171,1,0,1:0:0:0:
61,62,64626,6,0,P|36:99|31:146,1,90,6|0,0:0|0:0,0:0:0:0:
60,284,65080,1,2,1:2:0:0:
250,234,65308,2,0,P|200:165|120:196,1,180,2|2,0:0|0:0,0:0:0:0:
74,311,65990,1,0,1:0:0:0:
257,365,66217,6,0,B|317:371|317:371|357:347|357:347|430:353,1,180,2|2,0:0|0:0,0:0:0:0:
512,206,66899,1,2,1:2:0:0:
512,206,67126,2,0,L|421:196,1,90,2|0,0:0|3:0,0:0:0:0:
277,156,67580,1,2,0:0:0:0:
328,256,67808,1,0,1:0:0:0:
444,84,68035,1,2,0:0:0:0:
444,84,68149,1,2,0:0:0:0:
444,84,68262,6,0,L|352:75,1,90,2|2,0:0|0:0,0:0:0:0:
234,7,68717,1,2,1:2:0:0:
221,190,68944,2,0,P|218:150|185:109,1,90,2|0,0:0|3:0,0:0:0:0:
61,53,69399,1,2,0:0:0:0:
0,170,69626,1,2,1:2:0:0:
98,286,69853,6,0,L|108:192,1,90,2|0,0:0|0:0,0:0:0:0:
224,339,70308,2,0,L|214:244,1,90,2|0,0:0|1:0,0:0:0:0:
179,80,70762,1,2,0:0:0:0:
179,80,70990,2,0,P|214:97|268:91,1,90,2|0,3:2|0:0,0:0:0:0:
404,57,71444,1,2,1:2:0:0:
498,97,71671,5,2,3:2:0:0:
498,97,71785,1,0,3:0:0:0:
498,97,71899,2,0,L|507:186,1,90,2|0,2:2|0:0,0:0:0:0:
445,380,72353,1,2,1:2:0:0:
335,332,72580,2,0,P|290:327|250:346,1,90,2|0,0:0|3:2,0:0:0:0:
53,343,73035,2,0,P|97:347|137:328,1,90,2|0,0:0|1:0,0:0:0:0:
267,186,73490,1,2,0:0:0:0:
116,46,73717,6,0,L|105:149,1,90,2|0,2:2|0:0,0:0:0:0:
105,195,74058,1,2,0:0:0:0:
105,195,74171,2,0,P|143:171|192:168,1,90,0|2,1:0|0:0,0:0:0:0:
329,200,74626,1,0,3:0:0:0:
191,280,74853,1,0,0:0:0:0:
317,384,75080,2,0,P|318:343|351:299,1,90,0|2,1:0|0:0,0:0:0:0:
489,188,75535,6,0,B|420:181|420:181|382:203|382:203|315:196,1,180,2|2,0:0|1:2,0:0:0:0:
142,133,76217,2,0,L|231:123,1,90,2|0,0:0|3:0,0:0:0:0:
362,70,76671,1,2,0:0:0:0:
298,238,76899,1,0,1:0:0:0:
237,98,77126,1,2,0:0:0:0:
43,171,77353,6,0,P|131:223|222:198,1,180,6|2,0:0|0:0,0:0:0:0:
392,90,78035,1,2,1:2:0:0:
420,67,78490,1,2,1:2:0:0:
454,54,78944,5,2,0:0:0:0:
454,54,79058,1,2,0:0:0:0:
454,54,79171,2,0,L|463:146,1,90,6|2,0:0|0:0,0:0:0:0:
389,287,79626,1,2,1:2:0:0:
220,200,79853,2,0,B|273:172|273:172|414:187,1,180,2|2,0:0|0:0,0:0:0:0:
486,246,80535,1,2,1:2:0:0:
392,384,80762,6,0,L|381:285,1,90,2|0,0:0|0:0,0:0:0:0:
276,137,81217,1,2,0:0:0:0:
225,294,81444,1,2,1:2:0:0:
53,236,81671,2,0,P|98:176|199:211,1,180,2|2,0:0|0:0,0:0:0:0:
261,307,82353,1,0,1:0:0:0:
315,165,82580,5,2,0:0:0:0:
315,165,82694,1,2,0:0:0:0:
315,165,82808,2,0,L|305:66,1,90,2|0,0:0|0:0,0:0:0:0:
182,17,83262,1,2,1:2:0:0:
94,160,83490,2,0,P|140:149|207:169,1,90,2|0,0:0|3:0,0:0:0:0:
181,155,83830,1,0,3:0:0:0:
181,155,83944,1,2,0:0:0:0:
340,95,84171,1,2,1:2:0:0:
494,215,84399,6,0,B|425:221|425:221|387:199|387:199|320:206,1,180,2|2,0:0|0:0,0:0:0:0:
260,317,85080,1,0,1:0:0:0:
155,195,85308,1,2,0:0:0:0:
62,295,85535,2,0,P|43:254|46:209,1,90,2|0,3:2|0:0,0:0:0:0:
116,57,85990,1,2,1:2:0:0:
191,221,86217,5,2,3:2:0:0:
191,221,86330,1,0,3:2:0:0:
191,221,86444,2,0,L|201:122,1,90,2|2,0:0|0:0,0:0:0:0:
276,49,86899,1,2,1:2:0:0:
480,160,87126,2,0,B|426:132|426:132|285:147,1,180,2|2,0:0|0:0,0:0:0:0:
175,226,87808,2,0,L|264:235,1,90,0|2,1:0|0:0,0:0:0:0:
408,326,88262,6,0,P|413:281|430:239,1,90,2|0,0:0|0:0,0:0:0:0:
471,208,88603,1,2,0:0:0:0:
471,208,88717,2,0,P|465:163|448:121,1,90,0|2,1:0|0:0,0:0:0:0:
348,14,89171,1,0,3:0:0:0:
334,159,89399,1,0,0:0:0:0:
232,11,89626,1,0,1:0:0:0:
99,106,89853,5,2,3:2:0:0:
99,106,89967,1,2,3:2:0:0:
99,106,90080,2,0,P|173:153|259:109,1,180,2|2,0:0|0:0,0:0:0:0:
319,28,90762,1,2,0:0:0:0:
288,240,90990,1,4,0:0:0:0:
288,240,91217,1,2,0:0:0:0:
508,57,91671,1,2,3:2:0:0:
508,57,91785,1,0,3:0:0:0:
508,57,91899,6,0,L|402:68,1,80.9999975280763,6|2,0:0|0:0,0:0:0:0:
308,29,92353,1,2,1:2:0:0:
232,165,92580,2,0,P|318:179|347:113,1,161.999995056153,2|2,0:0|0:0,0:0:0:0:
293,8,93262,1,2,1:2:0:0:
158,32,93490,6,0,P|117:30|79:17,1,80.9999975280763,2|0,0:0|3:0,0:0:0:0:
4,157,93944,1,2,0:0:0:0:
4,157,94171,2,0,P|42:143|82:142,1,80.9999975280763,2|0,1:2|0:0,0:0:0:0:
246,163,94626,1,2,3:2:0:0:
246,163,94740,1,0,3:0:0:0:
246,163,94853,1,0,3:0:0:0:
163,315,95080,2,0,L|154:233,1,80.9999975280763,2|2,1:2|0:0,0:0:0:0:
154,235,95421,1,2,0:0:0:0:
154,235,95535,5,2,0:0:0:0:
283,332,95762,1,2,0:0:0:0:
347,255,95990,1,2,1:2:0:0:
428,373,96217,2,0,B|422:308|422:308|442:272|442:272|436:209,1,161.999995056153,2|2,0:0|0:0,0:0:0:0:
496,108,96899,1,2,1:2:0:0:
308,20,97126,6,0,P|369:66|357:142,1,161.999995056153,2|0,1:2|0:0,0:0:0:0:
231,231,97808,1,0,1:0:0:0:
125,250,98035,2,0,L|138:137,1,80.9999975280763,2|0,0:0|3:0,0:0:0:0:
134,169,98376,1,0,3:0:0:0:
134,169,98490,1,2,0:0:0:0:
230,78,98717,1,2,1:2:0:0:
83,67,98944,5,0,3:0:0:0:
83,67,99058,1,0,3:0:0:0:
83,67,99171,2,0,P|31:70|-14:94,1,80.9999975280763,2|2,0:0|0:0,0:0:0:0:
0,246,99626,1,0,1:0:0:0:
0,246,99853,2,0,P|65:213|148:250,1,161.999995056153,2|2,0:0|0:0,0:0:0:0:
248,383,100535,1,2,1:2:0:0:
248,383,100762,6,0,L|264:217,1,161.999995056153,2|2,0:0|0:0,0:0:0:0:
340,61,101444,2,0,L|348:145,1,80.9999975280763,0|0,1:0|0:0,0:0:0:0:
426,281,101899,1,2,3:2:0:0:
426,281,102012,1,0,3:2:0:0:
426,281,102126,1,0,3:2:0:0:
381,150,102353,1,2,1:2:0:0:
286,254,102580,5,2,0:0:0:0:
286,254,102694,1,2,0:0:0:0:
286,254,102808,2,0,P|252:264|194:255,1,80.9999975280763,2|0,0:0|0:0,0:0:0:0:
95,202,103262,1,0,1:0:0:0:
211,82,103490,2,0,B|256:58|256:58|375:71,1,161.999995056153
460,163,104171,1,2,1:2:0:0:
401,288,104399,6,0,P|336:244|350:167,1,161.999995056153,2|0,0:0|0:0,0:0:0:0:
474,67,105080,1,0,3:0:0:0:
474,67,105308,1,0,0:0:0:0:
256,192,105421,12,0,109626,0:0:0:0:
