osu file format v14

[General]
AudioFilename: audio.mp3
AudioLeadIn: 0
PreviewTime: 64399
Countdown: 0
SampleSet: Soft
StackLeniency: 0.7
Mode: 0
LetterboxInBreaks: 0
WidescreenStoryboard: 1

[Editor]
Bookmarks: 18348
DistanceSpacing: 1.8
BeatDivisor: 4
GridSize: 16
TimelineZoom: 1.3

[Metadata]
Title:sign
TitleUnicode:sign
Artist:Yumeno Yuki
ArtistUnicode:夢乃ゆき
Creator:Lafayla
Version:Hard
Source:ソラコイ
Tags:Sorakoi VN Visual Novel Chelseasoft 北澤伸一郎 japanese
BeatmapID:1870435
BeatmapSetID:895149

[Difficulty]
HPDrainRate:5
CircleSize:3.5
OverallDifficulty:6
ApproachRate:7
SliderMultiplier:1.4
SliderTickRate:1

[Events]
//Background and Video events
0,0,"sign 1.jpg",0,0
Video,-1319,"lolis (1).avi"
//Break Periods
//Storyboard Layer 0 (Background)
//Storyboard Layer 1 (Fail)
//Storyboard Layer 2 (Pass)
//Storyboard Layer 3 (Foreground)
//Storyboard Sound Samples

[TimingPoints]
990,454.545454545455,4,2,1,70,1,0
990,-100,4,2,1,70,0,0
46217,-100,4,2,1,60,0,0
57353,-100,4,2,1,70,0,0
64626,-90.9090909090909,4,2,1,80,0,1
77353,-90.9090909090909,4,2,1,80,0,0
79171,-90.9090909090909,4,2,1,80,0,1
91899,-100,4,2,1,70,0,0
106444,-111.111111111111,4,2,1,50,0,0
108262,-111.111111111111,4,2,1,30,0,0

[Colours]
Combo1 : 236,185,240
Combo2 : 171,190,254
Combo3 : 255,170,172
Combo4 : 249,231,176

[HitObjects]
18,185,990,6,0,P|15:220|26:259,1,70,6|2,2:0|0:0,0:0:0:0:
92,323,1444,1,0,1:0:0:0:
165,258,1671,2,0,P|228:234|284:272,1,140,2|2,0:0|0:0,0:0:0:0:
342,350,2353,1,0,1:0:0:0:
434,382,2580,6,0,L|448:238,1,140,2|2,0:0|0:0,0:0:0:0:
403,154,3262,1,0,1:0:0:0:
492,113,3490,1,2,0:0:0:0:
434,34,3717,2,0,L|439:-14,2,35,0|0|2,3:0|3:0|3:2,0:0:0:0:
333,50,4171,2,0,P|285:53|221:68,1,105,2|0,1:2|0:0,0:0:0:0:
190,79,4626,6,0,P|193:44|182:5,1,70,2|2,0:0|0:0,0:0:0:0:
86,8,5080,1,0,1:0:0:0:
29,88,5308,2,0,P|22:164|30:253,1,140,2|2,0:0|0:0,0:0:0:0:
46,323,5990,1,0,1:0:0:0:
143,314,6217,6,0,P|178:311|217:322,1,70,2|0,1:2|0:0,0:0:0:0:
300,360,6671,1,2,0:0:0:0:
339,270,6899,1,2,1:2:0:0:
444,295,7126,2,0,L|437:225,1,70,2|0,0:0|3:0,0:0:0:0:
437,225,7467,1,0,3:0:0:0:
437,225,7580,1,2,3:2:0:0:
489,142,7808,1,2,1:2:0:0:
430,63,8035,5,0,3:0:0:0:
430,63,8149,1,0,3:0:0:0:
430,63,8262,2,0,L|360:70,1,70,6|2,2:0|0:0,0:0:0:0:
274,116,8717,1,0,1:0:0:0:
332,195,8944,2,0,B|352:233|352:233|341:332,1,140,2|2,0:0|0:0,0:0:0:0:
257,380,9626,1,0,1:0:0:0:
158,377,9853,6,0,P|108:331|127:241,1,140,2|2,0:0|0:0,0:0:0:0:
156,176,10535,1,0,1:0:0:0:
64,140,10762,1,2,0:0:0:0:
107,52,10990,2,0,L|103:18,2,35,0|0|2,3:0|3:0|3:2,0:0:0:0:
201,79,11444,2,0,P|251:87|293:58,1,105,2|0,1:2|0:0,0:0:0:0:
333,29,11899,6,0,P|330:63|339:97,1,70,2|2,0:0|0:0,0:0:0:0:
394,178,12353,1,0,1:0:0:0:
495,154,12580,2,0,L|477:318,1,140,2|2,0:0|0:0,0:0:0:0:
433,379,13262,1,0,1:0:0:0:
355,318,13490,6,0,B|303:312|303:312|273:330|273:330|220:325,1,140,2|0,1:2|0:0,0:0:0:0:
127,356,14171,1,2,1:2:0:0:
106,260,14399,1,2,0:0:0:0:
8,274,14626,2,0,L|4:308,2,35,0|0|0,3:0|3:0|3:0,0:0:0:0:
2,176,15080,1,0,1:0:0:0:
93,139,15308,5,0,3:0:0:0:
93,139,15421,1,0,3:0:0:0:
93,139,15535,2,0,P|134:147|176:163,1,70,2|0,3:2|0:0,0:0:0:0:
175,253,15990,2,0,P|209:246|242:236,1,70,2|2,0:0|0:0,0:0:0:0:
340,235,16444,2,0,P|348:220|363:210,3,35,0|0|2|0,3:0|3:0|3:2|3:0,0:0:0:0:
366,160,16899,2,0,P|363:125|348:93,1,70,2|0,3:2|3:0,0:0:0:0:
271,33,17353,5,2,0:0:0:0:
188,86,17580,1,2,0:0:0:0:
95,53,17808,2,0,P|43:95|48:163,1,140,0|0,1:0|3:0,0:0:0:0:
170,316,18717,1,2,1:2:0:0:
170,316,18944,1,2,0:0:0:0:
170,316,19171,6,0,L|240:309,1,70,2|0,0:0|0:0,0:0:0:0:
327,353,19626,1,0,1:0:0:0:
358,260,19853,1,2,0:0:0:0:
455,267,20080,2,0,L|459:301,2,35,0|0|0,3:0|3:0|3:0,0:0:0:0:
477,171,20535,2,0,L|468:92,1,70,2|0,1:2|0:0,0:0:0:0:
410,23,20990,5,2,0:0:0:0:
338,89,21217,1,2,0:0:0:0:
253,38,21444,2,0,L|83:56,1,140,0|0,1:0|3:0,0:0:0:0:
34,110,22126,1,2,0:0:0:0:
35,207,22353,2,0,P|68:217|102:223,1,70,2|2,1:2|0:0,0:0:0:0:
189,270,22808,6,0,P|254:231|322:216,1,140,2|2,3:2|1:2,0:0:0:0:
393,155,23490,1,2,0:0:0:0:
461,224,23717,2,0,P|465:240|465:258,3,35,0|0|2|0,3:0|3:0|3:2|3:0,0:0:0:0:
487,301,24171,2,0,P|455:315|420:319,1,70,2|0,3:2|3:0,0:0:0:0:
323,312,24626,5,2,0:0:0:0:
247,373,24853,1,2,0:0:0:0:
173,308,25080,2,0,B|120:301|120:301|94:278|94:278|30:271,1,140,0|0,1:0|3:0,0:0:0:0:
6,78,25990,1,2,1:2:0:0:
6,78,26217,1,2,0:0:0:0:
6,78,26444,6,0,L|75:70,1,70,2|0,0:0|0:0,0:0:0:0:
165,108,26899,1,0,1:0:0:0:
211,21,27126,1,2,0:0:0:0:
285,84,27353,2,0,L|281:118,2,35,0|0|0,3:0|3:0|3:0,0:0:0:0:
377,49,27808,2,0,L|446:57,1,70,0|2,1:0|0:0,0:0:0:0:
501,138,28262,5,0,0:0:0:0:
428,203,28490,1,2,0:0:0:0:
457,296,28717,2,0,P|423:308|388:307,1,70,2|2,1:2|0:0,0:0:0:0:
297,273,29171,2,0,P|262:272|229:284,1,70,2|2,3:2|0:0,0:0:0:0:
148,338,29626,1,0,1:0:0:0:
115,245,29853,1,2,0:0:0:0:
24,282,30080,6,0,P|-8:219|2:150,1,140,2|2,0:0|1:2,0:0:0:0:
58,72,30762,1,2,0:0:0:0:
142,120,30990,2,0,L|138:154,2,35,0|0|0,3:0|3:0|3:0,0:0:0:0:
200,44,31444,1,0,1:0:0:0:
307,47,31671,5,0,1:0:0:0:
307,47,31785,1,0,1:0:0:0:
307,47,31899,2,0,P|303:85|290:127,1,70,6|0,0:0|0:0,0:0:0:0:
239,195,32353,1,0,1:0:0:0:
42,201,32808,2,0,P|45:239|58:281,1,70,0|0,3:0|0:0,0:0:0:0:
121,339,33262,1,2,1:2:0:0:
207,292,33490,1,2,0:0:0:0:
250,379,33717,6,0,L|396:363,1,140,2|0,0:0|1:0,0:0:0:0:
381,265,34399,1,2,0:0:0:0:
473,234,34626,2,0,L|507:238,2,35,0|0|2,3:0|3:0|3:2,0:0:0:0:
439,142,35080,2,0,L|431:73,1,70,2|2,1:2|0:0,0:0:0:0:
330,27,35535,6,0,L|322:96,1,70,2|2,0:0|0:0,0:0:0:0:
347,191,35990,2,0,B|309:211|309:211|210:200,1,140,0|0,1:0|3:0,0:0:0:0:
192,104,36671,1,2,0:0:0:0:
99,72,36899,2,0,P|85:103|81:138,1,70,2|2,1:2|1:2,0:0:0:0:
0,202,37353,6,0,P|15:233|18:268,1,70,2|2,0:0|0:0,0:0:0:0:
25,366,37808,1,2,1:2:0:0:
116,332,38035,2,0,L|187:324,1,70,2|0,0:0|0:3,0:0:0:0:
186,324,38376,1,0,3:0:0:0:
186,324,38490,1,2,3:2:0:0:
236,240,38717,1,0,1:0:0:0:
342,269,38944,5,2,3:2:0:0:
342,269,39058,1,0,3:0:0:0:
342,269,39171,2,0,L|334:198,1,70,2|2,0:0|0:0,0:0:0:0:
319,102,39626,1,0,1:0:0:0:
502,33,40080,2,0,L|495:103,1,70,0|0,3:0|0:0,0:0:0:0:
437,182,40535,1,2,1:2:0:0:
511,245,40762,1,2,0:0:0:0:
462,330,40990,6,0,B|408:334|408:334|378:317|378:317|314:323,1,140,2|2,0:0|1:2,0:0:0:0:
240,275,41671,1,2,0:0:0:0:
176,350,41899,2,0,L|180:384,2,35,0|0|0,3:0|3:0|3:0,0:0:0:0:
81,325,42353,2,0,L|88:256,1,70,2|2,1:2|0:0,0:0:0:0:
102,158,42808,5,0,0:0:0:0:
11,120,43035,1,2,0:0:0:0:
50,30,43262,2,0,P|80:19|119:23,1,70,2|2,1:2|0:0,0:0:0:0:
207,61,43717,1,2,3:2:0:0:
302,38,43944,2,0,L|311:127,1,70,2|0,0:0|1:0,0:0:0:0:
309,205,44399,1,0,1:0:0:0:
406,199,44626,6,0,P|440:199|472:214,1,70,2|2,0:0|0:0,0:0:0:0:
482,311,45080,1,2,1:2:0:0:
385,329,45308,2,0,P|350:328|318:314,1,70,2|0,0:0|3:0,0:0:0:0:
318,314,45649,1,0,3:0:0:0:
318,314,45762,1,0,3:0:0:0:
294,218,45990,1,0,1:0:0:0:
196,218,46217,5,0,1:0:0:0:
196,218,46330,1,0,1:0:0:0:
196,218,46444,2,0,L|200:132,1,70,4|2,0:0|0:0,0:0:0:0:
169,54,46899,1,2,1:2:0:0:
72,36,47126,2,0,B|52:74|52:74|63:173,1,140,2|2,0:0|0:0,0:0:0:0:
44,267,47808,1,0,1:0:0:0:
213,365,48262,6,0,P|278:382|329:338,1,140,2|2,0:0|1:2,0:0:0:0:
426,327,48944,2,0,L|417:238,1,70,2|0,0:0|3:0,0:0:0:0:
443,162,49399,1,2,0:0:0:0:
396,75,49626,2,0,P|361:69|326:72,1,70,2|0,1:2|0:0,0:0:0:0:
238,115,50080,5,2,0:0:0:0:
230,18,50308,1,2,0:0:0:0:
137,50,50535,2,0,P|116:78|105:112,1,70,2|2,1:2|0:0,0:0:0:0:
91,159,50876,1,2,0:0:0:0:
91,159,50990,2,0,P|57:151|22:156,1,70,2|0,3:2|0:0,0:0:0:0:
8,253,51444,2,0,L|14:326,1,70,2|2,1:2|0:0,0:0:0:0:
111,330,51899,6,0,B|165:326|165:326|195:343|195:343|259:337,1,140,2|2,0:0|1:2,0:0:0:0:
342,356,52580,1,2,0:0:0:0:
390,270,52808,2,0,L|424:274,2,35,0|0|2,3:0|3:0|0:0,0:0:0:0:
307,217,53262,2,0,L|273:221,2,35,0|0|2,3:0|3:0|3:2,0:0:0:0:
357,132,53717,6,0,P|420:100|489:110,1,140,4|2,0:0|1:2,0:0:0:0:
511,204,54399,1,2,0:0:0:0:
511,204,54512,1,2,0:0:0:0:
511,204,54626,2,0,L|507:290,1,70,2|2,3:2|0:0,0:0:0:0:
454,356,55080,1,0,1:0:0:0:
383,287,55308,1,2,0:0:0:0:
314,357,55535,6,0,L|168:373,1,140,2|2,0:0|1:2,0:0:0:0:
76,373,56217,2,0,P|56:344|49:310,1,70,2|0,0:0|3:0,0:0:0:0:
46,212,56671,1,2,1:2:0:0:
140,188,56899,2,0,P|132:154|113:125,1,70,0|2,1:0|0:0,0:0:0:0:
46,52,57353,6,0,P|75:32|109:25,1,70,6|0,1:2|0:0,0:0:0:0:
206,29,57808,1,0,1:0:0:0:
244,119,58035,2,0,L|237:189,1,70,2|0,0:0|3:0,0:0:0:0:
245,292,58490,2,0,B|283:272|283:272|382:283,1,140,2|2,1:2|0:0,0:0:0:0:
474,257,59171,6,0,L|487:361,2,105,2|2|2,0:0|0:0|0:0,0:0:0:0:
407,184,60080,2,0,L|421:63,2,105,2|2|2,1:2|0:0|0:0,0:0:0:0:
331,247,60990,5,2,1:2:0:0:
297,258,61444,1,0,1:0:0:0:
263,269,61899,1,0,1:0:0:0:
71,308,62353,5,2,1:2:0:0:
64,211,62580,1,6,1:2:0:0:
66,178,63035,2,0,P|32:180|0:193,2,70,0|0|0,3:0|3:0|3:0,0:0:0:0:
163,191,63717,1,0,1:0:0:0:
244,12,64171,1,0,1:0:0:0:
56,116,64626,6,0,L|48:199,1,77.0000023498536,6|0,0:0|0:0,0:0:0:0:
4,290,65080,1,2,1:2:0:0:
104,330,65308,2,0,B|161:325|161:325|192:343|192:343|259:337,1,154.000004699707,2|2,0:0|0:0,0:0:0:0:
358,361,65990,1,0,1:0:0:0:
465,355,66217,6,0,P|489:282|409:225,1,154.000004699707,2|2,0:0|0:0,0:0:0:0:
488,131,66899,1,2,1:2:0:0:
397,72,67126,2,0,P|360:76|324:90,1,77.0000023498536,2|0,0:0|3:0,0:0:0:0:
228,142,67580,1,2,0:0:0:0:
197,38,67808,1,0,1:0:0:0:
89,38,68035,5,2,0:0:0:0:
89,38,68149,1,2,0:0:0:0:
89,38,68262,2,0,P|86:84|81:121,1,77.0000023498536,2|2,0:0|0:0,0:0:0:0:
25,207,68717,1,2,1:2:0:0:
52,311,68944,2,0,P|90:315|128:317,1,77.0000023498536,2|0,0:0|3:0,0:0:0:0:
236,316,69399,1,2,0:0:0:0:
243,208,69626,1,2,1:2:0:0:
343,246,69853,6,0,L|429:255,1,77.0000023498536,2|0,0:0|0:0,0:0:0:0:
488,157,70308,2,0,L|401:147,1,77.0000023498536,2|0,0:0|1:0,0:0:0:0:
374,47,70762,1,2,0:0:0:0:
268,22,70990,2,0,P|250:57|249:95,1,77.0000023498536,2|0,3:2|0:0,0:0:0:0:
268,199,71444,1,2,1:2:0:0:
162,179,71671,5,2,3:2:0:0:
162,179,71785,1,0,3:0:0:0:
162,179,71899,2,0,P|123:180|85:185,1,77.0000023498536,2|0,2:2|0:0,0:0:0:0:
20,270,72353,1,2,1:2:0:0:
73,363,72580,2,0,P|149:371|188:281,1,154.000004699707,2|2,0:0|0:0,0:0:0:0:
177,206,73262,1,0,1:0:0:0:
283,190,73490,1,2,0:0:0:0:
343,279,73717,6,0,L|352:365,1,77.0000023498536,2|0,2:2|0:0,0:0:0:0:
399,380,74058,1,2,0:0:0:0:
399,380,74171,2,0,L|407:303,1,77.0000023498536,0|2,1:0|0:0,0:0:0:0:
411,195,74626,1,0,3:0:0:0:
511,156,74853,1,0,0:0:0:0:
435,78,75080,2,0,P|396:67|358:70,1,77.0000023498536,0|2,1:0|0:0,0:0:0:0:
259,16,75535,6,0,L|242:169,1,154.000004699707,2|2,0:0|1:2,0:0:0:0:
144,122,76217,2,0,P|103:124|58:131,1,77.0000023498536,2|0,0:0|3:0,0:0:0:0:
2,215,76671,1,2,0:0:0:0:
103,253,76899,1,0,1:0:0:0:
55,349,77126,1,2,0:0:0:0:
159,375,77353,6,0,P|235:376|309:349,1,154.000004699707,6|2,0:0|0:0,0:0:0:0:
395,287,78035,1,2,1:2:0:0:
433,299,78490,1,2,1:2:0:0:
249,185,78944,5,2,0:0:0:0:
249,185,79058,1,2,0:0:0:0:
249,185,79171,2,0,L|241:108,1,77.0000023498536,6|2,0:0|0:0,0:0:0:0:
317,31,79626,1,2,1:2:0:0:
424,31,79853,2,0,B|419:90|419:90|438:123|438:123|431:193,1,154.000004699707,2|2,0:0|0:0,0:0:0:0:
368,266,80535,1,2,1:2:0:0:
414,362,80762,6,0,L|315:372,1,77.0000023498536,2|0,0:0|0:0,0:0:0:0:
250,305,81217,1,2,0:0:0:0:
166,372,81444,1,2,1:2:0:0:
61,346,81671,2,0,P|32:277|78:193,1,154.000004699707,2|2,0:0|0:0,0:0:0:0:
143,138,82353,1,0,1:0:0:0:
93,42,82580,5,2,0:0:0:0:
93,42,82694,1,2,0:0:0:0:
93,42,82808,2,0,L|192:32,1,77.0000023498536,2|0,0:0|0:0,0:0:0:0:
263,86,83262,1,2,1:2:0:0:
363,46,83490,2,0,P|373:92|373:145,1,77.0000023498536,2|0,0:0|3:0,0:0:0:0:
362,228,83944,1,2,0:0:0:0:
468,245,84171,1,2,1:2:0:0:
432,347,84399,6,0,B|383:372|383:372|255:358,1,154.000004699707,2|2,0:0|0:0,0:0:0:0:
219,276,85080,1,0,1:0:0:0:
151,360,85308,1,2,0:0:0:0:
60,302,85535,2,0,P|45:257|39:204,1,77.0000023498536,2|0,3:2|0:0,0:0:0:0:
29,120,85990,1,2,1:2:0:0:
135,133,86217,1,2,3:2:0:0:
126,25,86444,6,0,P|166:18|225:25,1,77.0000023498536,2|2,0:0|0:0,0:0:0:0:
307,47,86899,1,2,1:2:0:0:
409,12,87126,2,0,L|427:190,1,154.000004699707,2|2,0:0|0:0,0:0:0:0:
450,270,87808,2,0,P|406:270|352:291,1,77.0000023498536,0|2,1:0|0:0,0:0:0:0:
282,222,88262,6,0,P|248:241|221:268,1,77.0000023498536,2|0,0:0|0:0,0:0:0:0:
192,314,88603,1,2,0:0:0:0:
192,314,88717,2,0,P|164:286|131:267,1,77.0000023498536,0|2,1:0|0:0,0:0:0:0:
27,241,89171,1,0,3:0:0:0:
91,153,89399,1,0,0:0:0:0:
39,58,89626,2,0,P|77:53|115:51,1,77.0000023498536,0|2,1:0|3:2,0:0:0:0:
220,28,90080,6,0,P|229:103|320:140,1,154.000004699707,2|2,0:0|0:0,0:0:0:0:
479,247,90990,2,0,P|471:172|408:133,1,154.000004699707,4|0,0:0|0:0,0:0:0:0:
252,128,91671,5,2,3:2:0:0:
252,128,91785,1,0,3:0:0:0:
252,128,91899,2,0,L|260:209,2,70,6|2|2,0:0|0:0|1:2,0:0:0:0:
302,44,92580,2,0,B|264:24|264:24|165:35,1,140,2|2,0:0|0:0,0:0:0:0:
73,6,93262,1,2,1:2:0:0:
0,72,93490,6,0,P|6:109|19:146,1,70,2|0,0:0|3:0,0:0:0:0:
72,220,93944,1,2,0:0:0:0:
161,180,94171,2,0,P|171:213|178:247,1,70,2|0,1:2|0:0,0:0:0:0:
172,349,94626,1,2,3:2:0:0:
172,349,94740,1,0,3:0:0:0:
172,349,94853,1,0,3:0:0:0:
269,361,95080,2,0,L|343:353,1,70,2|2,1:2|0:0,0:0:0:0:
387,347,95421,1,2,0:0:0:0:
387,347,95535,6,0,P|386:310|397:277,1,70,2|2,0:0|0:0,0:0:0:0:
454,199,95990,1,2,1:2:0:0:
422,106,96217,2,0,B|368:101|368:101|338:118|338:118|286:113,1,140,2|2,0:0|0:0,0:0:0:0:
198,156,96899,1,2,1:2:0:0:
147,71,97126,6,0,P|64:57|36:121,1,140,2|0,1:2|0:0,0:0:0:0:
22,192,97808,1,0,1:0:0:0:
108,237,98035,2,0,L|254:221,1,140,2|2,0:0|0:0,0:0:0:0:
247,123,98717,1,2,1:2:0:0:
347,93,98944,5,0,3:0:0:0:
347,93,99058,1,0,3:0:0:0:
347,93,99171,2,0,P|381:95|412:111,1,70,2|2,0:0|0:0,0:0:0:0:
479,184,99626,1,0,1:0:0:0:
465,281,99853,2,0,P|410:298|323:303,1,140,2|2,0:0|0:0,0:0:0:0:
223,296,100535,1,2,1:2:0:0:
149,361,100762,6,0,P|98:319|120:228,1,140,2|2,0:0|0:0,0:0:0:0:
63,154,101444,2,0,L|132:147,1,70,0|0,1:0|0:0,0:0:0:0:
230,134,101899,1,2,3:2:0:0:
230,134,102012,1,0,3:2:0:0:
230,134,102126,1,0,3:2:0:0:
223,232,102353,1,2,1:2:0:0:
316,261,102580,5,2,0:0:0:0:
316,261,102694,1,2,0:0:0:0:
316,261,102808,2,0,P|351:264|390:253,1,70,2|0,0:0|0:0,0:0:0:0:
472,217,103262,1,0,1:0:0:0:
462,119,103490,2,0,B|424:99|424:99|325:110,1,140,0|0,0:0|0:0,0:0:0:0:
244,58,104171,1,2,1:2:0:0:
152,93,104399,6,0,L|165:232,1,140,2|0,0:0|0:0,0:0:0:0:
176,330,105080,1,0,3:0:0:0:
176,330,105308,1,0,0:0:0:0:
256,192,105421,12,0,109626,0:0:0:0:
