osu file format v14

[General]
AudioFilename: audio.mp3
AudioLeadIn: 0
PreviewTime: 72997
Countdown: 0
SampleSet: Soft
StackLeniency: 0.7
Mode: 0
LetterboxInBreaks: 0
WidescreenStoryboard: 0

[Editor]
DistanceSpacing: 0.1
BeatDivisor: 4
GridSize: 32
TimelineZoom: 0.9999996

[Metadata]
Title:Missing
TitleUnicode:Missing
Artist:Yumeno Yuki
ArtistUnicode:夢乃ゆき
Creator:Garden
Version:Melancholy
Source:この恋、青春により。
Tags:kono koi seishun ni yori koiyori mme more visual novel eroge insert song ending ed japanese video game jpop
BeatmapID:2146965
BeatmapSetID:1026628

[Difficulty]
HPDrainRate:6
CircleSize:4
OverallDifficulty:7
ApproachRate:8
SliderMultiplier:1.8
SliderTickRate:1

[Events]
//Background and Video events
0,0,"kk.jpg",0,0
//Break Periods
//Storyboard Layer 0 (Background)
//Storyboard Layer 1 (Fail)
//Storyboard Layer 2 (Pass)
//Storyboard Layer 3 (Foreground)
//Storyboard Layer 4 (Overlay)
//Storyboard Sound Samples

[TimingPoints]
-1327,535.714285714286,4,2,1,60,1,0
280,-142.857142857143,4,2,1,60,0,0
815,-100,4,2,1,60,0,0
22243,-111.111111111111,4,2,1,40,0,0
39386,-111.111111111111,4,2,1,30,0,0
56529,-111.111111111111,4,2,1,50,0,0
71127,-111.111111111111,4,2,1,20,0,0
72466,-111.111111111111,4,2,1,10,0,0
73136,-111.111111111111,4,2,1,40,0,0
73672,-100,4,2,1,60,0,0
95100,-111.111111111111,4,2,1,40,0,0
129386,-111.111111111111,4,2,1,50,0,0
143984,-111.111111111111,4,2,1,20,0,0
145323,-111.111111111111,4,2,1,10,0,0
145993,-111.111111111111,4,2,1,40,0,0
146529,-100,4,2,1,60,0,0
170100,-71.4285714285714,4,2,1,60,0,0
170904,-111.111111111111,4,2,1,60,0,0
171707,-100,4,2,1,60,0,0
176529,-111.111111111111,4,2,1,40,0,0
178136,-111.111111111111,4,2,1,50,0,0
178672,-111.111111111111,4,2,1,40,0,0
180011,-111.111111111111,4,2,1,30,0,0
180815,-200,4,2,1,60,0,0
181350,-200,4,2,1,45,0,0
181886,-200,4,2,1,30,0,0
182957,-125,4,2,1,40,0,0
189386,-66.6666666666667,4,2,1,60,0,0
190190,-100,4,2,1,60,0,0
190725,-66.6666666666667,4,2,1,60,0,0
191529,-90.9090909090909,4,2,1,60,0,0
197422,-111.111111111111,4,2,1,60,0,0
197957,-90.9090909090909,4,2,1,60,0,0
219386,-111.111111111111,4,2,1,40,0,0
233047,-111.111111111111,4,2,1,50,0,0
233315,-111.111111111111,4,2,1,30,0,0
233582,-111.111111111111,4,2,1,50,0,0
233850,-111.111111111111,4,2,1,30,0,0
234118,-111.111111111111,4,2,1,50,0,0
234252,-111.111111111111,4,2,1,10,0,0
237198,-111.111111111111,4,2,1,5,0,0

[Colours]
Combo1 : 201,147,255
Combo2 : 255,145,200
Combo3 : 255,206,157
Combo4 : 255,128,128

[HitObjects]
165,327,280,6,0,L|101:321,1,62.9999980773926,2|0,0:0|0:0,0:0:0:0:
103,322,815,6,0,P|97:280|86:234,1,90,4|0,1:0|0:0,0:0:0:0:
12,204,1217,2,0,L|24:149,1,45,2|8,0:0|0:0,0:0:0:0:
125,39,1619,2,0,P|169:82|247:80,1,135,2|0,1:2|0:0,0:0:0:0:
268,69,2155,1,2,0:0:0:0:
454,132,2423,1,8,0:0:0:0:
269,177,2690,1,2,3:2:0:0:
373,39,2958,6,0,P|360:87|354:134,1,90,4|0,3:2|0:0,0:0:0:0:
511,291,3494,1,8,0:0:0:0:
511,291,3628,2,0,P|481:259|483:212,1,90,2|0,0:0|0:0,0:0:0:0:
504,193,4030,2,0,B|412:180|435:264|340:244,1,180,2|0,1:2|3:0,0:0:0:0:
252,209,4833,1,10,0:0:0:0:
134,335,5101,6,0,P|176:327|240:319,1,90,4|0,3:2|0:0,0:0:0:0:
282,378,5503,2,0,L|329:385,1,45,2|8,0:0|0:0,0:0:0:0:
450,200,5905,2,0,P|406:245|413:324,1,135,2|0,1:2|0:0,0:0:0:0:
424,341,6440,1,2,0:0:0:0:
310,202,6708,1,8,0:0:0:0:
503,285,6976,1,2,0:0:0:0:
323,103,7244,6,0,P|280:116|236:126,1,90,4|0,3:2|0:0,0:0:0:0:
408,32,7780,1,8,0:0:0:0:
408,32,7914,2,0,L|457:41,1,45,2|0,0:0|0:0,0:0:0:0:
300,87,8181,2,0,B|222:103|145:131,1,135,2|0,1:2|3:0,0:0:0:0:
77,169,8851,1,2,3:2:0:0:
188,27,9119,1,0,1:0:0:0:
142,242,9387,6,0,P|117:262|60:267,1,90,4|0,3:2|0:0,0:0:0:0:
28,255,9789,2,0,L|16:308,1,45,2|8,0:0|0:0,0:0:0:0:
215,339,10190,2,0,P|274:304|361:322,1,135,2|0,1:2|0:0,0:0:0:0:
366,324,10726,1,2,0:0:0:0:
320,159,10994,1,8,0:0:0:0:
505,221,11262,1,2,3:2:0:0:
402,227,11530,6,0,P|409:183|427:140,1,90,4|0,3:2|0:0,0:0:0:0:
512,0,12065,1,8,0:0:0:0:
512,0,12199,2,0,P|475:37|405:30,1,90,2|0,0:0|0:0,0:0:0:0:
363,80,12601,2,0,P|322:68|272:62,1,90,2|0,1:2|0:0,0:0:0:0:
182,118,13137,1,2,3:2:0:0:
76,24,13405,1,8,0:0:0:0:
124,220,13673,6,0,P|184:156|268:171,1,180,4|8,3:2|0:0,0:0:0:0:
216,252,14476,2,0,P|129:261|36:281,1,180,2|2,1:2|0:0,0:0:0:0:
38,280,15280,1,8,0:0:0:0:
200,355,15548,6,0,B|298:368|272:292|375:306,1,180,4|2,3:2|0:0,0:0:0:0:
402,303,16217,1,2,0:0:0:0:
402,303,16351,2,0,P|430:347|426:383,1,90,10|0,0:0|0:0,0:0:0:0:
216,252,16887,2,0,P|222:202|235:155,1,90,2|0,1:2|0:0,0:0:0:0:
404,81,17423,1,2,3:2:0:0:
330,211,17690,1,8,0:0:0:0:
223,35,17958,5,4,3:2:0:0:
417,174,18226,2,0,P|462:162|505:155,1,90,2|8,0:0|0:0,0:0:0:0:
303,96,18762,2,0,B|246:135|246:135|198:123|121:113,1,180,2|2,1:2|0:0,0:0:0:0:
136,115,19565,1,8,0:0:0:0:
21,292,19833,6,0,P|107:295|163:207,1,180,4|0,3:2|0:0,0:0:0:0:
225,324,20637,1,8,0:0:0:0:
64,202,20905,1,0,3:0:0:0:
303,96,21173,1,0,1:0:0:0:
286,88,21708,2,0,P|276:141|273:188,1,90,0|2,3:2|0:0,0:0:0:0:
287,211,22110,1,2,0:0:0:0:
287,211,22244,5,4,0:0:0:0:
367,172,22512,1,2,0:0:0:0:
389,85,22780,1,8,0:0:0:0:
338,11,23048,2,0,P|260:34|175:46,1,161.999995056153,2|0,0:0|0:0,0:0:0:0:
88,0,23851,1,8,0:0:0:0:
19,124,24119,1,2,3:2:0:0:
19,124,24253,1,2,3:2:0:0:
19,124,24387,6,0,P|59:107|107:100,1,80.9999975280763,2|0,3:2|0:0,0:0:0:0:
267,116,24923,2,0,P|227:133|179:140,1,80.9999975280763,10|0,0:0|3:0,0:0:0:0:
106,200,25458,2,0,P|89:284|80:366,1,161.999995056153,2|0,3:2|3:0,0:0:0:0:
172,384,26262,1,10,0:0:0:0:
172,384,26396,1,2,0:0:0:0:
172,384,26530,5,2,3:2:0:0:
221,309,26798,1,2,0:0:0:0:
301,346,27065,1,8,0:0:0:0:
354,275,27333,2,0,P|435:253|496:315,1,161.999995056153,2|0,0:0|0:0,0:0:0:0:
356,172,28137,1,8,0:0:0:0:
453,130,28405,1,2,3:2:0:0:
453,130,28539,1,2,3:2:0:0:
453,130,28673,6,0,L|460:228,1,80.9999975280763,2|0,3:2|0:0,0:0:0:0:
345,76,29208,1,10,0:0:0:0:
500,0,29476,1,0,3:0:0:0:
356,172,29744,2,0,B|267:184|300:118|202:130,1,161.999995056153,2|2,1:2|3:2,0:0:0:0:
67,161,30548,1,10,0:0:0:0:
67,161,30681,1,2,0:0:0:0:
67,161,30815,5,4,3:2:0:0:
140,210,31083,1,2,0:0:0:0:
104,291,31351,1,8,0:0:0:0:
30,242,31619,2,0,P|36:195|59:70,1,161.999995056153,2|0,0:0|0:0,0:0:0:0:
186,5,32423,1,8,0:0:0:0:
160,108,32690,1,2,3:2:0:0:
160,108,32824,1,2,3:2:0:0:
160,108,32958,6,0,P|201:97|249:90,1,80.9999975280763,2|0,3:2|0:0,0:0:0:0:
383,0,33494,2,0,P|342:11|294:18,1,80.9999975280763,10|0,0:0|3:0,0:0:0:0:
297,167,34030,2,0,P|382:142|468:133,1,161.999995056153,2|0,3:2|3:0,0:0:0:0:
454,133,34833,1,8,0:0:0:0:
334,254,35101,6,0,P|279:197|198:216,1,161.999995056153,2|8,0:0|0:0,0:0:0:0:
106,171,35905,2,0,P|123:257|134:339,1,161.999995056153,2|0,0:0|0:0,0:0:0:0:
133,330,36708,1,8,0:0:0:0:
250,295,36976,6,0,B|348:275|321:350|414:330,1,161.999995056153,2|0,3:2|0:0,0:0:0:0:
512,305,37780,2,0,P|501:344|495:384,1,80.9999975280763,8|0,0:0|3:0,0:0:0:0:
390,236,38315,2,0,P|407:168|423:72,1,161.999995056153,0|0,1:0|3:0,0:0:0:0:
503,204,39119,1,0,1:0:0:0:
315,117,39387,6,0,P|273:129|225:135,1,80.9999975280763,4|0,0:1|0:0,0:0:0:0:
339,24,39923,1,2,0:0:0:0:
0,135,41530,5,2,0:0:0:0:
85,159,41798,1,2,0:0:0:0:
142,90,42065,1,2,0:0:0:0:
196,384,43673,5,2,0:0:0:0:
139,315,43940,1,2,0:0:0:0:
158,228,44208,1,2,0:0:0:0:
498,188,45815,5,2,0:0:0:0:
414,158,46083,1,2,0:0:0:0:
360,229,46351,1,2,0:0:0:0:
139,315,47958,6,0,P|192:319|231:332,1,80.9999975280763,2|0,0:0|0:0,0:0:0:0:
55,381,48494,1,2,0:0:0:0:
360,229,49565,1,2,0:0:0:0:
97,151,50101,5,2,0:0:0:0:
154,219,50369,1,2,0:0:0:0:
239,194,50637,1,2,0:0:0:0:
512,131,52244,5,2,0:0:0:0:
448,67,52512,1,2,0:0:0:0:
362,91,52780,1,2,0:0:0:0:
297,17,54387,5,2,0:0:0:0:
368,70,54655,1,2,0:0:0:0:
322,146,54923,1,2,0:0:0:0:
399,189,55190,2,0,P|443:255|423:351,1,161.999995056153,2|0,0:0|0:0,0:0:0:0:
345,278,55994,1,2,0:0:0:0:
345,278,56530,6,0,P|304:280|265:291,1,80.9999975280763,4|0,3:2|0:0,0:0:0:0:
97,206,57065,1,0,1:0:0:0:
130,384,57333,1,0,3:0:0:0:
130,384,57467,2,0,P|168:328|155:254,1,121.499996292114,2|0,3:2|0:0,0:0:0:0:
0,167,58137,2,0,L|14:258,1,80.9999975280763,2|0,1:2|0:0,0:0:0:0:
112,64,58673,6,0,L|98:158,1,80.9999975280763,2|0,3:2|0:0,0:0:0:0:
22,19,59208,1,0,1:0:0:0:
207,123,59476,1,0,3:0:0:0:
207,123,59610,2,0,P|270:117|314:51,1,121.499996292114,2|0,3:2|0:0,0:0:0:0:
468,0,60280,1,2,1:2:0:0:
388,135,60548,1,4,0:3:0:0:
499,240,60815,6,0,P|491:191|489:132,1,80.9999975280763,4|0,3:2|0:0,0:0:0:0:
385,256,61351,2,0,P|391:295|395:336,1,80.9999975280763,0|0,1:0|3:0,0:0:0:0:
372,353,61753,2,0,P|336:320|248:336,1,121.499996292114,2|0,3:2|0:0,0:0:0:0:
175,367,62423,1,2,1:2:0:0:
263,224,62690,1,4,0:3:0:0:
71,304,62958,6,0,P|76:343|78:391,1,80.9999975280763,2|0,3:2|0:0,0:0:0:0:
266,322,63494,1,0,1:0:0:0:
171,269,63762,1,0,3:0:0:0:
171,269,63896,2,0,P|166:204|157:138,1,121.499996292114,2|0,3:2|0:0,0:0:0:0:
98,68,64565,1,2,1:2:0:0:
254,128,64833,1,4,0:3:0:0:
80,226,65101,6,0,P|37:218|-14:216,1,80.9999975280763,4|0,3:2|0:0,0:0:0:0:
259,126,65637,2,0,P|304:134|353:136,1,80.9999975280763,0|0,1:0|3:0,0:0:0:0:
359,157,66039,2,0,P|433:150|460:97,1,121.499996292114,2|0,3:2|0:0,0:0:0:0:
373,46,66708,1,2,1:2:0:0:
289,229,66976,1,0,3:0:0:0:
289,229,67110,1,0,3:0:0:0:
289,229,67244,6,0,L|295:321,1,80.9999975280763,2|0,3:2|0:0,0:0:0:0:
359,157,67780,1,0,1:0:0:0:
193,291,68048,1,0,3:0:0:0:
193,291,68181,2,0,P|116:288|84:251,1,121.499996292114,2|0,3:2|0:0,0:0:0:0:
10,322,68851,1,2,1:2:0:0:
170,196,69119,1,8,0:3:0:0:
52,100,69387,6,0,P|73:182|89:269,1,161.999995056153,4|0,3:2|1:0,0:0:0:0:
271,94,70190,2,0,P|218:36|141:49,1,161.999995056153,4|0,3:2|1:0,0:0:0:0:
256,192,70994,1,4,1:0:0:0:
256,192,71128,12,0,72467,0:0:0:0:
482,246,73137,6,0,P|441:208|369:219,1,121.499996292114,12|0,1:3|0:0,0:0:0:0:
351,229,73673,6,0,P|339:272|332:322,1,90,4|0,1:0|0:0,0:0:0:0:
253,340,74074,2,0,P|250:364|245:384,1,45,2|8,0:0|0:0,0:0:0:0:
77,276,74476,2,0,P|152:278|198:234,1,135,2|0,1:2|0:0,0:0:0:0:
209,212,75012,1,2,0:0:0:0:
213,113,75280,2,0,P|256:123|301:127,1,90,10|0,0:0|3:0,0:0:0:0:
72,102,75815,6,0,P|105:134|107:196,1,90,4|0,3:2|0:0,0:0:0:0:
174,327,76351,1,8,0:0:0:0:
174,327,76485,2,0,P|181:280|200:225,1,90,2|0,0:0|0:0,0:0:0:0:
209,212,76887,2,0,P|266:277|353:276,1,180,0|0,1:0|3:0,0:0:0:0:
493,125,77690,1,8,0:0:0:0:
455,303,77958,6,0,P|449:260|437:208,1,90,4|0,3:2|0:0,0:0:0:0:
355,191,78360,2,0,L|363:137,1,45,2|8,0:0|0:0,0:0:0:0:
280,24,78762,2,0,P|232:69|166:67,1,135,2|0,1:2|0:0,0:0:0:0:
137,55,79298,1,2,0:0:0:0:
258,156,79565,1,8,0:0:0:0:
63,265,79833,1,2,3:2:0:0:
201,352,80101,6,0,P|197:305|186:263,1,90,4|0,3:2|0:0,0:0:0:0:
54,220,80637,1,8,0:0:0:0:
54,220,80771,2,0,P|59:241|63:267,1,45,2|0,0:0|0:0,0:0:0:0:
220,370,81039,2,0,P|209:326|196:218,1,135,2|0,1:2|3:0,0:0:0:0:
309,274,81708,1,2,3:2:0:0:
110,359,81976,1,0,1:0:0:0:
287,173,82244,6,0,P|330:184|374:191,1,90,4|0,3:2|0:0,0:0:0:0:
445,242,82646,2,0,P|473:235|497:232,1,45,2|8,0:0|0:0,0:0:0:0:
504,0,83048,2,0,P|449:60|457:131,1,135,2|0,1:2|0:0,0:0:0:0:
458,140,83583,1,2,0:0:0:0:
363,281,83851,2,0,P|320:290|275:303,1,90,8|0,0:0|3:0,0:0:0:0:
378,381,84387,5,4,3:2:0:0:
453,245,84655,1,2,0:0:0:0:
222,384,84923,1,8,0:0:0:0:
222,384,85056,2,0,P|172:376|141:342,1,90,2|0,0:0|0:0,0:0:0:0:
114,356,85458,2,0,P|132:267|142:178,1,180,2|0,1:2|3:0,0:0:0:0:
142,178,86262,1,10,0:0:0:0:
96,87,86530,6,0,P|172:158|245:139,1,180,4|8,3:2|0:0,0:0:0:0:
376,224,87333,2,0,P|299:234|196:260,1,180,2|2,1:2|0:0,0:0:0:0:
199,258,88137,1,8,0:0:0:0:
406,326,88405,6,0,P|474:273|467:187,1,180,4|2,3:2|0:0,0:0:0:0:
442,167,89074,1,2,0:0:0:0:
442,167,89208,2,0,P|391:160|358:129,1,90,10|0,0:0|3:0,0:0:0:0:
309,299,89744,2,0,P|291:350|280:398,1,90,2|0,1:2|0:0,0:0:0:0:
231,233,90280,1,2,3:2:0:0:
406,326,90548,1,8,0:0:0:0:
184,384,90815,5,4,3:2:0:0:
406,326,91083,2,0,P|450:333|495:337,1,90,2|8,0:0|0:0,0:0:0:0:
235,237,91619,2,0,B|184:271|184:271|137:261|47:249,1,180,2|2,1:2|0:0,0:0:0:0:
66,251,92423,1,8,0:0:0:0:
189,145,92690,6,0,P|247:209|334:204,1,180,4|0,3:2|0:0,0:0:0:0:
437,29,93494,1,8,0:0:0:0:
287,116,93762,1,0,3:0:0:0:
512,188,94030,1,2,1:2:0:0:
496,185,94565,2,0,P|488:231|474:279,1,90,0|8,3:0|0:0,0:0:0:0:
406,384,95101,5,4,0:0:0:0:
353,311,95369,1,2,0:0:0:0:
265,293,95637,1,8,0:0:0:0:
189,339,95905,2,0,P|125:321|18:308,1,161.999995056153,2|0,0:0|0:0,0:0:0:0:
156,155,96708,1,8,0:0:0:0:
6,204,96976,1,2,3:2:0:0:
6,204,97110,1,2,3:2:0:0:
6,204,97244,6,0,P|47:214|97:219,1,80.9999975280763,2|0,3:2|0:0,0:0:0:0:
304,93,97780,2,0,P|262:82|213:78,1,80.9999975280763,10|0,0:0|3:0,0:0:0:0:
138,23,98315,2,0,P|186:84|156:155,1,161.999995056153,2|0,3:2|3:0,0:0:0:0:
85,218,99119,1,10,0:0:0:0:
85,218,99253,1,2,0:0:0:0:
85,218,99387,5,2,3:2:0:0:
161,263,99655,1,2,0:0:0:0:
89,315,99923,1,8,0:0:0:0:
166,358,100190,2,0,B|258:369|225:297|326:314,1,161.999995056153,2|0,0:0|0:0,0:0:0:0:
477,191,100994,1,8,0:0:0:0:
415,342,101262,1,2,3:2:0:0:
415,342,101396,1,2,3:2:0:0:
415,342,101530,6,0,P|410:300|398:238,1,80.9999975280763,2|0,3:2|0:0,0:0:0:0:
343,184,102065,1,10,0:0:0:0:
501,289,102333,1,0,3:0:0:0:
408,116,102601,2,0,P|315:147|233:162,1,161.999995056153,2|2,1:2|3:2,0:0:0:0:
75,302,103405,1,10,0:0:0:0:
75,302,103539,1,2,0:0:0:0:
75,302,103673,5,4,3:2:0:0:
148,251,103940,1,2,0:0:0:0:
116,168,104208,1,8,0:0:0:0:
46,224,104476,2,0,P|32:314|24:394,1,161.999995056153,2|0,0:0|0:0,0:0:0:0:
237,263,105280,1,8,0:0:0:0:
133,373,105548,1,2,3:2:0:0:
133,373,105681,1,2,3:2:0:0:
133,373,105815,6,0,P|174:362|218:355,1,80.9999975280763,2|0,3:2|0:0,0:0:0:0:
344,155,106351,2,0,P|303:166|255:173,1,80.9999975280763,10|0,0:0|3:0,0:0:0:0:
307,384,106887,2,0,P|304:309|236:263,1,161.999995056153,2|0,3:2|3:0,0:0:0:0:
237,263,107690,1,8,0:0:0:0:
377,244,107958,6,0,P|390:164|407:85,1,161.999995056153,2|8,0:0|0:0,0:0:0:0:
175,30,108762,2,0,P|223:96|322:83,1,161.999995056153,2|0,0:0|0:0,0:0:0:0:
297,98,109565,1,8,0:0:0:0:
435,159,109833,6,0,B|347:149|377:217|277:201,1,161.999995056153,2|0,3:2|0:0,0:0:0:0:
260,312,110637,2,0,P|301:305|345:301,1,80.9999975280763,8|0,0:0|3:0,0:0:0:0:
184,166,111173,2,0,P|164:244|150:324,1,161.999995056153,0|0,1:0|3:0,0:0:0:0:
71,219,111976,1,0,1:0:0:0:
220,72,112244,6,0,P|164:127|82:122,1,161.999995056153,4|8,0:1|0:0,0:0:0:0:
85,123,113048,1,0,0:0:0:0:
131,33,113315,2,0,P|215:48|297:55,1,161.999995056153,2|8,0:0|0:0,0:0:0:0:
291,54,114119,1,0,3:0:0:0:
401,10,114387,6,0,P|388:72|383:136,1,121.499996292114,2|0,3:2|0:0,0:0:0:0:
397,160,114923,1,10,0:0:0:0:
496,214,115190,2,0,P|417:206|356:256,1,161.999995056153,2|0,0:0|0:0,0:0:0:0:
260,231,115994,1,8,0:0:0:0:
260,231,116530,6,0,P|249:276|246:314,1,80.9999975280763,2|0,3:2|0:0,0:0:0:0:
322,372,117065,1,8,0:0:0:0:
246,310,117333,2,0,P|178:298|85:296,1,161.999995056153,2|0,0:0|0:0,0:0:0:0:
5,148,118137,2,0,P|43:155|96:157,1,80.9999975280763,8|0,0:0|3:0,0:0:0:0:
165,213,118673,6,0,P|118:149|133:72,1,161.999995056153,2|8,3:2|0:0,0:0:0:0:
260,190,119476,2,0,P|246:280|240:365,1,161.999995056153,2|0,0:0|0:0,0:0:0:0:
131,384,120280,2,0,P|137:348|138:295,1,80.9999975280763,8|0,0:0|0:0,0:0:0:0:
337,360,120815,5,2,3:2:0:0:
337,360,121351,2,0,P|383:348|428:344,1,80.9999975280763,8|0,0:0|0:0,0:0:0:0:
512,214,121887,2,0,P|444:240|344:251,1,161.999995056153,2|8,0:0|0:0,0:0:0:0:
269,205,122690,1,0,3:0:0:0:
351,153,122958,6,0,P|381:97|360:39,1,121.499996292114,2|0,3:2|0:0,0:0:0:0:
340,16,123494,1,10,0:0:0:0:
268,87,123762,2,0,P|184:92|79:109,1,161.999995056153,2|0,0:0|0:0,0:0:0:0:
13,165,124565,1,8,0:0:0:0:
13,165,125101,6,0,P|21:115|29:70,1,80.9999975280763,2|0,3:2|0:0,0:0:0:0:
150,0,125637,1,8,0:0:0:0:
150,0,125905,2,0,P|136:72|133:103,1,80.9999975280763,2|0,0:0|0:0,0:0:0:0:
237,125,126440,2,0,B|325:135|301:62|405:85,1,161.999995056153,2|0,0:0|3:0,0:0:0:0:
501,244,127244,6,0,P|472:197|352:193,1,161.999995056153,2|8,3:2|0:0,0:0:0:0:
285,224,128048,2,0,P|269:303|259:383,1,161.999995056153,2|4,0:0|0:3,0:0:0:0:
360,384,128851,1,12,0:3:0:0:
172,271,129119,1,0,1:0:0:0:
372,180,129387,6,0,P|414:185|451:193,1,80.9999975280763,4|0,3:2|0:0,0:0:0:0:
296,120,129923,1,0,1:0:0:0:
344,38,130190,1,0,3:0:0:0:
343,38,130324,2,0,P|283:29|224:19,1,121.499996292114,2|0,3:2|0:0,0:0:0:0:
162,216,130994,2,0,P|196:184|196:137,1,80.9999975280763,2|0,1:2|0:0,0:0:0:0:
113,4,131530,6,0,P|121:44|128:94,1,80.9999975280763,2|0,3:2|0:0,0:0:0:0:
296,120,132065,1,0,1:0:0:0:
221,271,132333,1,0,3:0:0:0:
221,271,132467,2,0,P|211:213|198:144,1,121.499996292114,2|0,3:2|0:0,0:0:0:0:
111,235,133137,1,2,1:2:0:0:
317,301,133405,1,4,0:3:0:0:
111,235,133673,6,0,P|69:246|18:257,1,80.9999975280763,4|0,3:2|0:0,0:0:0:0:
296,120,134208,2,0,P|335:111|374:100,1,80.9999975280763,0|0,1:0|3:0,0:0:0:0:
403,102,134610,2,0,P|371:155|381:217,1,121.499996292114,2|0,3:2|0:0,0:0:0:0:
512,345,135280,1,2,1:2:0:0:
473,172,135548,1,4,0:3:0:0:
348,317,135815,6,0,P|387:306|427:302,1,80.9999975280763,2|0,3:2|0:0,0:0:0:0:
267,384,136351,1,0,1:0:0:0:
150,271,136619,1,0,3:0:0:0:
150,271,136753,2,0,P|216:266|281:250,1,121.499996292114,2|0,3:2|0:0,0:0:0:0:
460,219,137423,1,2,1:2:0:0:
297,156,137690,1,4,0:3:0:0:
348,317,137958,6,0,P|354:279|367:228,1,80.9999975280763,4|0,3:2|0:0,0:0:0:0:
335,57,138494,2,0,P|329:95|316:146,1,80.9999975280763,0|0,1:0|3:0,0:0:0:0:
297,156,138896,2,0,P|257:123|175:131,1,121.499996292114,2|0,3:2|0:0,0:0:0:0:
151,34,139565,1,2,1:2:0:0:
45,213,139833,1,0,3:0:0:0:
45,213,139967,1,0,3:0:0:0:
45,213,140101,6,0,L|129:201,1,80.9999975280763,2|0,3:2|0:0,0:0:0:0:
297,156,140637,1,0,1:0:0:0:
266,321,140905,1,0,3:0:0:0:
266,321,141039,2,0,P|226:282|225:210,1,121.499996292114,2|0,3:2|0:0,0:0:0:0:
138,332,141708,1,2,1:2:0:0:
323,237,141976,1,8,0:3:0:0:
94,121,142244,5,4,3:2:0:0:
99,105,142780,1,0,1:0:0:0:
189,66,143048,2,0,P|95:61|53:5,1,161.999995056153,4|0,3:2|1:0,0:0:0:0:
256,192,143851,1,4,1:0:0:0:
256,192,143985,12,0,145324,0:0:0:0:
71,318,145994,6,0,P|112:280|184:291,1,121.499996292114,12|0,1:3|0:0,0:0:0:0:
203,295,146530,6,0,P|205:258|216:205,1,90,4|0,1:0|0:0,0:0:0:0:
288,158,146931,2,0,L|281:110,1,45,2|8,0:0|0:0,0:0:0:0:
457,231,147333,2,0,P|405:271|339:266,1,135,2|0,1:2|0:0,0:0:0:0:
313,249,147869,1,2,0:0:0:0:
424,134,148137,2,0,P|467:144|512:148,1,90,10|0,0:0|3:0,0:0:0:0:
390,0,148673,6,0,P|357:32|355:94,1,90,4|0,3:2|0:0,0:0:0:0:
218,235,149208,1,8,0:0:0:0:
218,235,149342,2,0,P|222:187|232:135,1,90,2|0,0:0|0:0,0:0:0:0:
248,120,149744,2,0,B|145:104|185:179|75:164,1,180,0|0,1:0|3:0,0:0:0:0:
171,342,150548,1,8,0:0:0:0:
0,296,150815,6,0,P|43:286|88:279,1,90,4|0,3:2|0:0,0:0:0:0:
162,236,151217,2,0,L|216:242,1,45,2|8,0:0|0:0,0:0:0:0:
81,164,151619,2,0,P|43:112|54:38,1,135,2|0,1:2|0:0,0:0:0:0:
71,20,152155,1,2,0:0:0:0:
193,140,152423,1,8,0:0:0:0:
0,233,152690,1,2,3:2:0:0:
178,42,152958,6,0,P|222:50|266:67,1,90,4|0,3:2|0:0,0:0:0:0:
399,134,153494,1,8,0:0:0:0:
399,134,153628,2,0,L|346:147,1,45,2|0,0:0|0:0,0:0:0:0:
162,28,153896,2,0,P|232:40|292:63,1,135,2|0,1:2|3:0,0:0:0:0:
268,189,154565,1,2,3:2:0:0:
398,33,154833,1,0,1:0:0:0:
373,232,155101,6,0,P|362:186|355:136,1,90,4|0,3:2|0:0,0:0:0:0:
439,110,155503,2,0,P|442:134|446:156,1,45,2|8,0:0|0:0,0:0:0:0:
283,278,155905,2,0,P|232:240|148:254,1,135,2|0,1:2|0:0,0:0:0:0:
136,260,156440,1,2,0:0:0:0:
261,384,156708,2,0,P|304:371|354:367,1,90,8|0,0:0|3:0,0:0:0:0:
469,181,157244,5,4,3:2:0:0:
283,278,157512,1,2,0:0:0:0:
446,384,157780,1,8,0:0:0:0:
446,384,157914,2,0,P|453:338|464:282,1,90,2|0,0:0|0:0,0:0:0:0:
430,274,158315,2,0,P|386:237|390:122,1,180,2|0,1:2|3:0,0:0:0:0:
389,122,159119,1,10,0:0:0:0:
242,75,159387,6,0,B|347:86|302:18|408:27,1,180,4|8,3:2|0:0,0:0:0:0:
295,169,160190,2,0,P|242:112|131:150,1,180,2|2,1:2|0:0,0:0:0:0:
148,128,160994,1,8,0:0:0:0:
31,21,161262,6,0,P|50:99|64:201,1,180,4|2,3:2|0:0,0:0:0:0:
62,237,161931,1,2,0:0:0:0:
62,237,162065,2,0,P|113:244|146:275,1,90,10|0,0:0|3:0,0:0:0:0:
300,384,162601,2,0,P|286:340|280:289,1,90,2|0,1:2|0:0,0:0:0:0:
176,377,163137,1,2,3:2:0:0:
394,286,163405,1,8,0:0:0:0:
229,181,163673,5,4,3:2:0:0:
229,181,163940,2,0,P|271:192|316:203,1,90,2|8,0:0|0:0,0:0:0:0:
494,72,164476,1,0,1:0:0:0:
512,93,164610,2,0,P|478:133|385:122,1,135,2|0,3:2|0:0,0:0:0:0:
280,296,165280,1,8,0:0:0:0:
476,222,165548,1,0,1:0:0:0:
299,115,165815,5,4,3:2:0:0:
299,115,166083,2,0,P|312:165|315:235,1,90,2|8,0:0|0:0,0:0:0:0:
105,192,166619,1,0,1:0:0:0:
95,218,166753,2,0,P|176:221|211:172,1,135,2|0,3:2|0:0,0:0:0:0:
315,203,167423,1,8,0:0:0:0:
133,117,167690,1,0,1:0:0:0:
322,24,167958,5,4,3:2:0:0:
322,24,168226,2,0,P|279:34|230:40,1,90,2|8,0:0|0:0,0:0:0:0:
315,203,168762,1,0,1:0:0:0:
341,212,168896,2,0,P|385:262|365:351,1,135,2|0,3:2|0:0,0:0:0:0:
281,295,169565,1,8,0:0:0:0:
465,197,169833,2,0,L|499:202,2,22.5,0|0|0,1:0|1:0|1:0,0:0:0:0:
387,150,170101,6,0,P|326:166|264:176,1,125.999996154785,4|0,1:2|0:0,0:0:0:0:
233,197,170503,2,0,P|201:153|111:158,1,125.999996154785,4|0,1:2|0:0,0:0:0:0:
96,134,170905,6,0,P|112:223|120:299,1,161.999995056153,4|0,3:2|3:0,0:0:0:0:
228,295,171708,2,0,P|219:340|215:392,1,90,2|0,1:2|3:0,0:0:0:0:
413,281,172244,5,4,3:2:0:0:
413,281,172512,2,0,P|380:311|319:306,1,90,2|8,0:0|0:0,0:0:0:0:
182,186,173048,1,0,1:0:0:0:
167,209,173181,2,0,P|246:214|312:226,1,135,2|0,3:2|0:0,0:0:0:0:
413,281,173851,1,8,0:0:0:0:
304,114,174119,1,0,1:0:0:0:
486,204,174387,5,4,3:2:0:0:
486,204,174655,2,0,P|453:180|396:177,1,90,2|8,0:0|0:0,0:0:0:0:
311,16,175190,1,0,1:0:0:0:
333,0,175324,2,0,P|320:84|314:139,1,135,2|0,3:2|0:0,0:0:0:0:
223,40,175994,1,8,0:0:0:0:
405,174,176262,2,0,L|441:169,2,22.5,0|0|0,1:0|1:0|1:0,0:0:0:0:
318,229,176530,5,4,3:2:0:0:
302,233,177065,1,2,0:0:0:0:
286,237,177601,1,2,0:0:0:0:
270,242,178137,2,0,L|280:332,1,80.9999975280763,2|0,3:2|3:0,0:0:0:0:
40,338,178673,6,0,P|90:278|169:281,1,161.999995056153,4|0,3:2|0:0,0:0:0:0:
350,140,179476,2,0,P|298:200|201:183,1,161.999995056153,2|2,0:0|0:0,0:0:0:0:
189,181,180146,1,2,0:0:0:0:
189,181,180280,2,0,L|197:120,1,40.4999987640381,2|2,0:0|0:0,0:0:0:0:
126,90,180548,2,0,L|132:49,1,40.4999987640381,2|2,0:0|0:0,0:0:0:0:
265,84,180815,6,0,B|360:60|339:136|433:120,1,180,2|0,0:0|0:0,0:0:0:0:
433,119,182958,6,0,L|426:37,1,72,2|0,0:0|0:0,0:0:0:0:
342,93,183494,2,0,L|348:164,1,72,8|0,0:0|0:0,0:0:0:0:
512,258,184030,2,0,L|505:176,1,72,2|0,0:0|0:0,0:0:0:0:
421,232,184565,2,0,L|427:303,1,72,8|0,0:0|0:0,0:0:0:0:
412,331,184967,1,2,0:0:0:0:
412,331,185101,6,0,P|381:313|345:311,1,72,2|0,0:0|0:0,0:0:0:0:
220,222,185637,2,0,P|251:240|287:242,1,72,8|0,0:0|0:0,0:0:0:0:
290,381,186173,2,0,P|259:363|223:361,1,72,2|0,0:0|0:0,0:0:0:0:
98,272,186708,2,0,P|128:289|164:291,1,72,8|0,0:0|0:0,0:0:0:0:
23,212,187244,6,0,L|31:139,1,72,2|0,0:0|0:0,0:0:0:0:
229,72,187780,2,0,L|221:143,1,72,8|0,0:0|0:0,0:0:0:0:
121,178,188315,2,0,L|129:105,1,72,2|0,0:0|0:0,0:0:0:0:
318,46,188851,1,8,0:3:0:0:
318,46,189387,6,0,P|398:49|434:106,1,135.000005149842,4|0,3:2|0:0,0:0:0:0:
507,128,189789,6,0,P|441:123|395:170,1,135.000005149842,4|0,3:2|0:0,0:0:0:0:
314,209,190190,6,0,P|379:204|425:251,1,135.000005149842,4|0,1:0|0:0,0:0:0:0:
474,329,190726,6,0,P|441:332|407:339,1,67.5000025749208,2|0,1:2|0:0,0:0:0:0:
247,310,190994,1,4,3:2:0:0:
247,310,191262,6,0,P|280:307|313:299,1,67.5000025749208,2|0,1:2|0:0,0:0:0:0:
472,194,191530,6,0,P|422:206|362:214,1,99.0000030212403,4|0,3:2|0:0,0:0:0:0:
344,199,191931,2,0,P|347:171|356:143,1,49.5000015106202,2|8,0:0|0:0,0:0:0:0:
203,0,192333,2,0,P|268:61|255:117,1,148.50000453186,2|0,1:2|0:0,0:0:0:0:
240,141,192869,1,2,0:0:0:0:
350,9,193137,1,8,0:0:0:0:
150,92,193405,1,2,0:0:0:0:
344,199,193673,6,0,P|392:186|441:183,1,99.0000030212403,2|0,3:2|0:0,0:0:0:0:
278,384,194208,1,8,0:0:0:0:
278,384,194342,2,0,P|245:347|259:281,1,99.0000030212403,2|0,0:0|0:0,0:0:0:0:
265,271,194744,2,0,B|149:289|191:202|67:229,1,198.000006042481,2|2,1:2|3:2,0:0:0:0:
80,226,195548,1,8,0:0:0:0:
3,302,195815,6,0,P|56:215|32:120,1,198.000006042481,4|8,3:2|0:0,0:0:0:0:
236,174,196619,2,0,B|347:180|290:103|416:111,1,198.000006042481,2|2,1:2|0:0,0:0:0:0:
414,111,197423,2,0,P|418:75|431:32,1,80.9999975280763,8|2,0:0|3:0,0:0:0:0:
491,186,197958,6,0,P|459:212|378:207,1,99.0000030212403,4|0,1:0|0:0,0:0:0:0:
327,250,198360,2,0,P|317:280|313:306,1,49.5000015106202,2|8,0:0|0:0,0:0:0:0:
179,384,198762,2,0,P|114:327|51:333,1,148.50000453186,2|0,1:2|0:0,0:0:0:0:
25,346,199298,1,2,0:0:0:0:
217,272,199565,2,0,P|223:231|245:162,1,99.0000030212403,10|0,0:0|3:0,0:0:0:0:
289,92,200101,5,4,3:2:0:0:
129,200,200369,1,0,0:0:0:0:
327,250,200637,1,8,0:0:0:0:
327,250,200771,2,0,P|380:235|428:235,1,99.0000030212403,2|0,0:0|0:0,0:0:0:0:
456,246,201173,2,0,P|517:177|485:80,1,198.000006042481,0|0,1:0|3:0,0:0:0:0:
488,83,201976,1,8,0:0:0:0:
306,27,202244,6,0,P|354:19|402:5,1,99.0000030212403,4|0,3:2|0:0,0:0:0:0:
404,100,202646,2,0,P|379:104|341:116,1,49.5000015106202,2|8,0:0|0:0,0:0:0:0:
219,181,203048,2,0,B|309:164|276:223|358:215,1,148.50000453186,2|0,1:2|0:0,0:0:0:0:
390,209,203583,1,2,0:0:0:0:
232,272,203851,1,8,0:0:0:0:
355,110,204119,1,2,3:2:0:0:
152,20,204387,6,0,P|167:67|176:115,1,99.0000030212403,4|0,3:2|0:0,0:0:0:0:
355,110,204923,1,8,0:0:0:0:
355,110,205056,2,0,P|330:105|304:98,1,49.5000015106202,2|0,0:0|0:0,0:0:0:0:
135,0,205324,2,0,P|149:71|169:144,1,148.50000453186,2|0,1:2|3:0,0:0:0:0:
54,123,205994,1,2,3:2:0:0:
234,21,206262,1,0,1:0:0:0:
186,241,206530,6,0,P|135:239|93:209,1,99.0000030212403,4|0,3:2|0:0,0:0:0:0:
24,253,206931,2,0,P|20:285|13:316,1,49.5000015106202,2|8,0:0|0:0,0:0:0:0:
213,344,207333,2,0,P|273:303|345:312,1,148.50000453186,2|0,1:2|0:0,0:0:0:0:
375,332,207869,1,2,0:0:0:0:
503,265,208137,1,8,0:0:0:0:
317,200,208405,1,0,3:0:0:0:
470,384,208673,6,0,P|473:334|485:277,1,99.0000030212403,4|2,3:2|0:0,0:0:0:0:
346,71,209208,1,8,0:0:0:0:
346,71,209342,2,0,P|387:115|384:161,1,99.0000030212403,2|0,0:0|0:0,0:0:0:0:
317,200,209744,2,0,P|268:189|218:185,1,99.0000030212403,2|0,1:2|0:0,0:0:0:0:
118,211,210280,1,0,3:0:0:0:
234,84,210548,1,10,0:0:0:0:
169,296,210815,6,0,P|66:304|21:227,1,198.000006042481,4|8,3:2|0:0,0:0:0:0:
219,185,211619,2,0,P|198:291|191:384,1,198.000006042481,2|2,1:2|0:0,0:0:0:0:
191,380,212423,1,8,0:0:0:0:
302,254,212690,6,0,B|419:232|373:315|492:300,1,198.000006042481,4|2,3:2|0:0,0:0:0:0:
512,328,213360,1,2,0:0:0:0:
512,328,213494,2,0,P|461:334|409:346,1,99.0000030212403,10|0,0:0|3:0,0:0:0:0:
229,165,214030,2,0,P|280:159|332:147,1,99.0000030212403,2|0,1:2|0:0,0:0:0:0:
441,161,214565,1,2,3:2:0:0:
302,254,214833,1,8,0:0:0:0:
407,66,215101,5,4,3:2:0:0:
302,254,215369,2,0,P|284:310|289:358,1,99.0000030212403,2|8,0:0|0:0,0:0:0:0:
109,197,215905,2,0,B|140:134|140:134|128:67|79:20,1,198.000006042481,2|2,1:2|0:0,0:0:0:0:
81,22,216708,1,8,0:0:0:0:
233,185,216976,6,0,P|331:154|440:143,1,198.000006042481,4|0,3:2|0:0,0:0:0:0:
446,22,217780,2,0,P|398:36|349:42,1,99.0000030212403,8|0,0:0|3:0,0:0:0:0:
496,232,218315,1,2,1:2:0:0:
476,240,218851,2,0,P|463:291|455:346,1,99.0000030212403,0|8,3:0|0:0,0:0:0:0:
455,336,219253,1,2,0:0:0:0:
455,336,219387,5,4,0:0:0:0:
377,380,219655,1,2,0:0:0:0:
292,351,219923,1,8,0:0:0:0:
260,267,220190,2,0,P|179:279|94:304,1,161.999995056153,2|0,0:0|0:0,0:0:0:0:
138,195,220994,1,8,0:0:0:0:
50,146,221262,1,2,3:2:0:0:
50,146,221396,1,2,3:2:0:0:
50,146,221530,6,0,P|41:191|32:234,1,80.9999975280763,2|0,3:2|0:0,0:0:0:0:
227,168,222065,2,0,P|235:122|245:80,1,80.9999975280763,10|0,0:0|3:0,0:0:0:0:
11,53,222601,2,0,P|64:111|144:103,1,161.999995056153,2|0,3:2|3:0,0:0:0:0:
200,32,223405,1,10,0:0:0:0:
200,32,223539,1,2,0:0:0:0:
200,32,223673,5,2,3:2:0:0:
271,85,223940,1,2,0:0:0:0:
326,15,224208,1,8,0:0:0:0:
395,70,224476,2,0,P|417:143|432:235,1,161.999995056153,2|0,0:0|0:0,0:0:0:0:
231,267,225280,1,8,0:0:0:0:
333,295,225548,1,2,3:2:0:0:
333,295,225681,1,2,3:2:0:0:
333,295,225815,6,0,P|329:259|318:195,1,80.9999975280763,2|0,3:2|0:0,0:0:0:0:
221,161,226351,1,10,0:0:0:0:
431,227,226619,1,0,3:0:0:0:
231,267,226887,2,0,B|142:271|175:216|70:225,1,161.999995056153,2|2,1:2|3:2,0:0:0:0:
163,68,227690,1,10,0:0:0:0:
163,68,227824,1,2,0:0:0:0:
163,68,227958,5,4,3:2:0:0:
98,129,228226,1,2,0:0:0:0:
15,96,228494,1,8,0:0:0:0:
76,31,228762,2,0,P|167:38|244:50,1,161.999995056153,2|0,0:0|0:0,0:0:0:0:
322,0,229565,1,8,0:0:0:0:
412,140,229833,1,2,3:2:0:0:
412,140,229967,1,2,3:2:0:0:
412,140,230101,6,0,P|403:98|398:52,1,80.9999975280763,2|0,3:2|0:0,0:0:0:0:
222,161,230637,2,0,P|231:203|236:249,1,80.9999975280763,10|0,0:0|3:0,0:0:0:0:
463,231,231173,2,0,P|407:175|330:187,1,161.999995056153,2|0,3:2|3:0,0:0:0:0:
257,257,231976,1,8,0:0:0:0:
257,257,232110,1,2,0:0:0:0:
257,257,232244,5,4,3:2:0:0:
214,146,232512,1,2,0:0:0:0:
346,271,232780,1,8,0:0:0:0:
140,327,233048,2,0,P|145:285|160:237,1,80.9999975280763,2|0,3:2|0:0,0:0:0:0:
372,57,233583,2,0,P|366:98|352:147,1,80.9999975280763,2|0,1:2|0:0,0:0:0:0:
256,192,234119,5,4,3:2:0:0:
256,192,234253,12,0,237199,0:0:0:0:
