osu file format v14

[General]
AudioFilename: audio.mp3
AudioLeadIn: 0
PreviewTime: 72997
Countdown: 0
SampleSet: Soft
StackLeniency: 0.7
Mode: 0
LetterboxInBreaks: 0
WidescreenStoryboard: 0

[Editor]
DistanceSpacing: 1.3
BeatDivisor: 4
GridSize: 32
TimelineZoom: 1.3

[Metadata]
Title:Missing
TitleUnicode:Missing
Artist:Yumeno Yuki
ArtistUnicode:夢乃ゆき
Creator:Garden
Version:Hard
Source:この恋、青春により。
Tags:kono koi seishun ni yori koiyori mme more visual novel eroge insert song ending ed japanese video game jpop
BeatmapID:2595849
BeatmapSetID:1026628

[Difficulty]
HPDrainRate:5
CircleSize:4
OverallDifficulty:6
ApproachRate:6.5
SliderMultiplier:1.4
SliderTickRate:1

[Events]
//Background and Video events
0,0,"kk.jpg",0,0
//Break Periods
2,95301,102430
2,182958,187876
//Storyboard Layer 0 (Background)
//Storyboard Layer 1 (Fail)
//Storyboard Layer 2 (Pass)
//Storyboard Layer 3 (Foreground)
//Storyboard Layer 4 (Overlay)
//Storyboard Sound Samples

[TimingPoints]
-1327,535.714285714286,4,2,1,60,1,0
280,-142.857142857143,4,2,1,60,0,0
815,-100,4,2,1,60,0,0
22243,-100,4,2,1,40,0,0
39386,-100,4,2,1,30,0,0
56529,-100,4,2,1,50,0,0
71127,-100,4,2,1,20,0,0
72466,-100,4,2,1,10,0,0
73136,-100,4,2,1,40,0,0
73672,-100,4,2,1,60,0,0
95100,-100,4,2,1,40,0,0
129386,-100,4,2,1,50,0,0
143984,-100,4,2,1,20,0,0
145323,-100,4,2,1,10,0,0
145993,-100,4,2,1,40,0,0
146529,-100,4,2,1,60,0,0
170100,-100,4,2,1,60,0,0
170904,-100,4,2,1,60,0,0
171707,-100,4,2,1,60,0,0
176529,-100,4,2,1,40,0,0
178136,-100,4,2,1,50,0,0
178672,-100,4,2,1,40,0,0
180011,-100,4,2,1,30,0,0
180815,-133.333333333333,4,2,1,60,0,0
181350,-133.333333333333,4,2,1,45,0,0
181886,-133.333333333333,4,2,1,30,0,0
182957,-100,4,2,1,40,0,0
189386,-100,4,2,1,60,0,0
190190,-100,4,2,1,60,0,0
190725,-100,4,2,1,60,0,0
191529,-100,4,2,1,60,0,0
197422,-100,4,2,1,60,0,0
197957,-80,4,2,1,60,0,0
219386,-100,4,2,1,40,0,0
233047,-100,4,2,1,50,0,0
233315,-100,4,2,1,30,0,0
233582,-100,4,2,1,50,0,0
233850,-100,4,2,1,30,0,0
234118,-100,4,2,1,50,0,0
234252,-100,4,2,1,10,0,0
237198,-100,4,2,1,5,0,0

[Colours]
Combo1 : 201,147,255
Combo2 : 255,145,200
Combo3 : 255,206,157
Combo4 : 255,128,128

[HitObjects]
71,211,280,6,0,P|46:215|22:218,1,48.9999985046387,2|0,0:0|0:0,0:0:0:0:
67,297,815,6,0,P|140:289|214:276,1,140,4|8,1:0|0:0,0:0:0:0:
267,344,1619,2,0,P|253:276|300:216,1,140,2|2,1:2|0:0,0:0:0:0:
378,194,2423,2,0,P|382:160|395:111,1,70,8|2,0:0|3:2,0:0:0:0:
466,74,2958,5,4,3:2:0:0:
387,27,3226,1,0,0:0:0:0:
315,81,3494,1,8,0:0:0:0:
315,81,3628,2,0,P|270:90|221:94,1,70,2|0,0:0|0:0,0:0:0:0:
219,115,4030,2,0,P|155:129|84:76,1,140,2|0,1:2|3:0,0:0:0:0:
34,23,4833,1,10,0:0:0:0:
93,92,5101,6,0,P|103:171|109:248,1,140,4|8,3:2|0:0,0:0:0:0:
67,313,5905,2,0,P|130:267|195:280,1,140,2|2,1:2|0:0,0:0:0:0:
241,349,6708,2,0,P|284:338|332:330,1,70,8|2,0:0|0:0,0:0:0:0:
358,256,7244,5,4,3:2:0:0:
431,310,7512,1,0,0:0:0:0:
481,234,7780,2,0,P|494:188|509:111,2,105,8|2|0,0:0|1:2|3:0,0:0:0:0:
431,310,8851,1,2,3:2:0:0:
358,256,9119,1,0,1:0:0:0:
394,172,9387,6,0,P|403:138|425:27,1,140,4|8,3:2|0:0,0:0:0:0:
335,12,10190,2,0,P|271:15|222:90,1,140,2|2,1:2|0:0,0:0:0:0:
231,161,10994,2,0,P|195:165|145:175,1,70,8|2,0:0|3:2,0:0:0:0:
73,147,11530,5,4,3:2:0:0:
24,223,11798,1,0,0:0:0:0:
91,292,12065,1,8,0:0:0:0:
91,292,12199,2,0,P|149:283|212:278,1,105,2|2,0:0|1:2,0:0:0:0:
195,279,13137,5,2,3:2:0:0:
275,321,13405,1,8,0:0:0:0:
331,249,13673,2,0,P|337:195|353:79,1,140,4|8,3:2|0:0,0:0:0:0:
436,132,14476,2,0,P|426:201|418:270,1,140,2|2,1:2|0:0,0:0:0:0:
500,311,15280,1,8,0:0:0:0:
423,359,15548,6,0,B|354:335|365:394|263:368,1,140,4|2,3:2|0:0,0:0:0:0:
210,324,16351,2,0,P|215:288|227:242,1,70,10|0,0:0|0:0,0:0:0:0:
314,248,16887,2,0,P|321:213|327:179,1,70,2|0,1:2|0:0,0:0:0:0:
250,130,17423,1,2,3:2:0:0:
329,85,17690,1,8,0:0:0:0:
256,40,17958,5,4,3:2:0:0:
256,40,18226,2,0,P|207:45|155:51,1,70,2|8,0:0|0:0,0:0:0:0:
99,18,18762,2,0,P|145:46|129:138,1,140,2|2,1:2|0:0,0:0:0:0:
70,181,19565,1,8,0:0:0:0:
138,240,19833,6,0,P|213:226|307:214,1,140,4|0,3:2|0:0,0:0:0:0:
366,206,20637,2,0,P|355:256|347:305,1,70,8|0,0:0|3:0,0:0:0:0:
432,317,21173,1,0,1:0:0:0:
476,140,21708,1,0,3:2:0:0:
414,87,21976,1,2,0:0:0:0:
414,87,22110,1,2,0:0:0:0:
414,87,22244,6,0,P|376:92|329:101,1,70,4|2,0:0|0:0,0:0:0:0:
264,54,22780,1,8,0:0:0:0:
200,119,23048,2,0,P|186:188|179:264,1,140,2|0,0:0|0:0,0:0:0:0:
260,297,23851,1,8,0:0:0:0:
191,355,24119,1,2,3:2:0:0:
191,355,24253,1,2,3:2:0:0:
191,355,24387,6,0,P|150:360|99:372,1,70,2|0,3:2|0:0,0:0:0:0:
36,332,24923,1,10,0:0:0:0:
88,257,25190,1,0,3:0:0:0:
4,222,25458,2,0,P|8:169|24:52,1,140,2|0,3:2|3:0,0:0:0:0:
116,72,26262,1,10,0:0:0:0:
116,72,26396,1,2,0:0:0:0:
116,72,26530,6,0,P|106:116|102:164,1,70,2|2,3:2|0:0,0:0:0:0:
158,213,27065,1,8,0:0:0:0:
223,150,27333,2,0,P|285:124|352:145,1,140,2|0,0:0|0:0,0:0:0:0:
414,211,28137,1,8,0:0:0:0:
362,287,28405,1,2,3:2:0:0:
362,287,28539,1,2,3:2:0:0:
362,287,28673,6,0,L|291:296,1,70,2|0,3:2|0:0,0:0:0:0:
330,378,29208,2,0,L|399:369,1,70,10|0,0:0|3:0,0:0:0:0:
490,378,29744,2,0,P|495:316|505:238,1,140,2|2,1:2|3:2,0:0:0:0:
510,154,30548,1,10,0:0:0:0:
510,154,30681,1,2,0:0:0:0:
510,154,30815,6,0,P|472:161|423:166,1,70,4|2,3:2|0:0,0:0:0:0:
360,123,31351,1,8,0:0:0:0:
293,184,31619,2,0,P|225:193|172:147,1,140,2|0,0:0|0:0,0:0:0:0:
178,58,32423,1,8,0:0:0:0:
94,74,32690,1,2,3:2:0:0:
94,74,32824,1,2,3:2:0:0:
94,74,32958,6,0,P|80:121|71:171,1,70,2|0,3:2|0:0,0:0:0:0:
6,200,33494,2,0,P|13:234|23:267,1,70,10|0,0:0|3:0,0:0:0:0:
90,330,34030,2,0,P|134:296|225:315,1,140,2|0,3:2|3:0,0:0:0:0:
286,361,34833,1,8,0:0:0:0:
364,314,35101,6,0,P|373:244|381:175,1,140,2|8,0:0|0:0,0:0:0:0:
456,122,35905,2,0,P|389:137|330:102,1,140,2|0,0:0|0:0,0:0:0:0:
312,12,36708,1,8,0:0:0:0:
237,65,36976,6,0,P|167:60|75:53,1,140,2|0,3:2|0:0,0:0:0:0:
62,139,37780,2,0,P|103:141|152:146,1,70,8|0,0:0|3:0,0:0:0:0:
219,167,38315,2,0,P|255:216|229:296,1,140,0|0,1:0|3:0,0:0:0:0:
164,344,39119,1,0,1:0:0:0:
85,298,39387,5,4,0:1:0:0:
99,205,41530,6,0,L|30:215,2,70,2|2|2,0:0|0:0|0:0,0:0:0:0:
218,54,43673,6,0,L|149:64,2,70,2|2|2,0:0|0:0|0:0,0:0:0:0:
346,208,45815,6,0,L|277:218,2,70,2|2|2,0:0|0:0|0:0,0:0:0:0:
410,15,47958,6,0,L|395:98,1,70,2|2,0:0|0:0,0:0:0:0:
461,149,48494,1,2,0:0:0:0:
461,149,49565,1,2,0:0:0:0:
327,272,50101,6,0,L|342:189,1,70,2|2,0:0|0:0,0:0:0:0:
276,138,50637,1,2,0:0:0:0:
132,51,52244,6,0,L|117:134,1,70,2|2,0:0|0:0,0:0:0:0:
183,185,52780,1,2,0:0:0:0:
76,367,54387,6,0,L|91:284,1,70,2|2,0:0|0:0,0:0:0:0:
25,233,54923,1,2,0:0:0:0:
102,185,55190,2,0,P|174:175|254:169,1,140,2|0,0:0|0:0,0:0:0:0:
311,226,55994,1,2,0:0:0:0:
311,226,56530,6,0,P|355:219|408:215,1,70,4|0,3:2|0:0,0:0:0:0:
459,262,57065,1,0,1:0:0:0:
415,343,57333,1,0,3:0:0:0:
415,343,57467,2,0,P|356:350|287:361,1,105,2|0,3:2|0:0,0:0:0:0:
235,305,58137,1,2,1:2:0:0:
176,374,58405,1,0,0:0:0:0:
104,317,58673,6,0,P|109:257|126:163,1,140,2|0,3:2|1:0,0:0:0:0:
42,145,59476,1,0,3:0:0:0:
42,145,59610,2,0,P|14:102|34:44,1,105,2|0,3:2|0:0,0:0:0:0:
104,4,60280,1,2,1:2:0:0:
159,76,60548,1,4,0:3:0:0:
236,27,60815,6,0,P|274:20|323:16,1,70,4|0,3:2|0:0,0:0:0:0:
387,55,61351,1,0,1:0:0:0:
314,109,61619,1,0,3:0:0:0:
314,109,61753,2,0,P|285:157|303:221,1,105,2|0,3:2|0:0,0:0:0:0:
357,267,62423,1,2,1:2:0:0:
413,195,62690,1,4,0:3:0:0:
479,256,62958,6,0,P|470:296|465:340,1,70,2|0,3:2|0:0,0:0:0:0:
392,378,63494,1,0,1:0:0:0:
314,340,63762,1,0,3:0:0:0:
314,340,63896,2,0,P|264:334|197:334,1,105,2|0,3:2|0:0,0:0:0:0:
134,280,64565,1,2,1:2:0:0:
206,226,64833,1,4,0:3:0:0:
130,174,65101,6,0,P|134:139|140:104,1,70,4|0,3:2|0:0,0:0:0:0:
75,39,65637,1,0,1:0:0:0:
18,111,65905,1,0,3:0:0:0:
18,111,66039,2,0,P|8:166|4:229,1,105,2|0,3:2|0:0,0:0:0:0:
87,250,66708,1,2,1:2:0:0:
24,316,66976,1,0,3:0:0:0:
108,350,67244,6,0,P|148:342|190:338,1,70,2|0,3:2|0:0,0:0:0:0:
259,379,67780,1,0,1:0:0:0:
332,324,68048,1,0,3:0:0:0:
332,324,68181,2,0,P|359:278|337:223,1,105,2|0,3:2|0:0,0:0:0:0:
384,149,68851,2,0,P|427:140|485:129,1,70,2|8,1:2|0:3,0:0:0:0:
470,45,69387,6,0,P|398:57|310:76,1,140,4|0,3:2|1:0,0:0:0:0:
252,26,70190,2,0,P|187:80|195:144,1,140,4|0,3:2|1:0,0:0:0:0:
256,192,70994,5,4,1:0:0:0:
256,192,71128,12,0,72467,0:0:0:0:
438,279,73137,5,12,1:3:0:0:
438,279,73673,6,0,P|402:283|342:295,1,70,4|0,1:0|0:0,0:0:0:0:
338,302,74074,2,0,L|331:349,1,35,2|8,0:0|0:0,0:0:0:0:
235,352,74476,2,0,P|240:306|256:211,1,140,2|2,1:2|0:0,0:0:0:0:
330,149,75280,1,10,0:0:0:0:
403,213,75548,1,0,3:0:0:0:
478,150,75815,6,0,P|489:117|483:83,1,70,4|0,3:2|0:0,0:0:0:0:
415,19,76351,1,8,0:0:0:0:
415,19,76485,2,0,P|380:24|327:34,1,70,2|0,0:0|0:0,0:0:0:0:
324,58,76887,2,0,P|271:14|205:27,1,140,0|0,1:0|3:0,0:0:0:0:
134,95,77690,1,8,0:0:0:0:
207,159,77958,6,0,P|199:198|192:247,1,70,4|0,3:2|0:0,0:0:0:0:
211,257,78360,2,0,L|256:248,1,35,2|8,0:0|0:0,0:0:0:0:
305,327,78762,2,0,P|242:338|157:355,1,140,2|2,1:2|0:0,0:0:0:0:
72,380,79565,1,8,0:0:0:0:
12,302,79833,1,2,3:2:0:0:
105,273,80101,6,0,P|117:237|121:191,1,70,4|0,3:2|0:0,0:0:0:0:
33,172,80637,1,8,0:0:0:0:
33,172,80771,2,0,B|15:143|15:143|27:92,1,70,2|2,0:0|1:2,0:0:0:0:
137,14,81440,1,0,3:0:0:0:
215,71,81708,2,0,P|207:107|201:151,1,70,2|0,3:2|1:0,0:0:0:0:
281,197,82244,6,0,P|315:201|345:184,1,70,4|0,3:2|0:0,0:0:0:0:
361,159,82646,2,0,L|405:150,1,35,2|8,0:0|0:0,0:0:0:0:
476,95,83048,2,0,P|408:105|354:63,1,140,2|2,1:2|0:0,0:0:0:0:
280,0,83851,1,8,0:0:0:0:
201,58,84119,1,0,3:0:0:0:
276,120,84387,6,0,P|271:154|262:188,1,70,4|2,3:2|0:0,0:0:0:0:
184,246,84923,1,8,0:0:0:0:
184,246,85056,2,0,P|146:251|99:259,1,70,2|0,0:0|0:0,0:0:0:0:
92,288,85458,2,0,P|130:342|209:341,1,140,2|0,1:2|3:0,0:0:0:0:
274,281,86262,1,10,0:0:0:0:
361,324,86530,6,0,P|370:254|383:185,1,140,4|8,3:2|0:0,0:0:0:0:
443,108,87333,2,0,P|477:102|512:98,1,70,2|0,1:2|0:0,0:0:0:0:
460,14,87869,2,0,P|425:18|390:23,1,70,2|8,0:0|0:0,0:0:0:0:
336,105,88405,6,0,P|261:116|207:69,1,140,4|2,3:2|0:0,0:0:0:0:
124,37,89208,2,0,P|116:73|113:106,1,70,10|0,0:0|3:0,0:0:0:0:
28,156,89744,2,0,P|23:190|20:225,1,70,2|0,1:2|0:0,0:0:0:0:
102,281,90280,1,2,3:2:0:0:
166,207,90548,1,8,0:0:0:0:
253,251,90815,6,0,P|294:250|328:227,1,70,4|2,3:2|0:0,0:0:0:0:
346,142,91351,1,8,0:0:0:0:
439,171,91619,2,0,P|423:246|410:331,1,140,2|2,1:2|0:0,0:0:0:0:
486,374,92423,1,8,0:0:0:0:
413,308,92690,6,0,P|356:284|269:315,1,140,4|0,3:2|0:0,0:0:0:0:
210,369,93494,2,0,P|179:362|129:354,1,70,8|0,0:0|3:0,0:0:0:0:
85,274,94030,1,2,1:2:0:0:
234,147,94565,5,0,3:0:0:0:
296,221,94833,1,8,0:0:0:0:
387,184,95101,1,4,0:0:0:0:
387,184,103405,6,0,L|396:236,2,35,10|2|4,0:0|0:0|3:2,0:0:0:0:
473,153,103940,2,0,L|481:83,1,70,2|8,0:0|0:0,0:0:0:0:
409,27,104476,2,0,P|341:20|290:65,1,140,2|0,0:0|0:0,0:0:0:0:
305,155,105280,1,8,0:0:0:0:
232,206,105548,1,2,3:2:0:0:
232,206,105681,1,2,3:2:0:0:
232,206,105815,6,0,L|139:196,1,70,2|0,3:2|0:0,0:0:0:0:
123,280,106351,2,0,L|192:287,1,70,10|0,0:0|3:0,0:0:0:0:
264,343,106887,2,0,P|333:355|399:292,1,140,2|0,3:2|3:0,0:0:0:0:
383,225,107690,1,8,0:0:0:0:
471,244,107958,6,0,P|479:181|496:89,1,140,2|8,0:0|0:0,0:0:0:0:
434,34,108762,2,0,P|366:27|316:73,1,140,2|0,0:0|0:0,0:0:0:0:
344,160,109565,1,8,0:0:0:0:
272,221,109833,6,0,P|211:213|110:208,1,140,2|0,3:2|0:0,0:0:0:0:
43,238,110637,2,0,P|47:203|50:169,1,70,8|0,0:0|3:0,0:0:0:0:
0,90,111173,1,0,1:0:0:0:
164,13,111708,1,0,3:0:0:0:
215,87,111976,1,0,1:0:0:0:
293,40,112244,6,0,P|360:29|415:69,2,140,4|8|2,0:1|0:0|0:0,0:0:0:0:
293,40,113851,2,0,P|287:73|283:117,1,70,8|0,0:0|3:0,0:0:0:0:
359,160,114387,6,0,P|403:201|382:295,1,140,2|8,3:2|0:0,0:0:0:0:
446,353,115190,2,0,P|394:325|283:323,1,140,2|0,0:0|0:0,0:0:0:0:
229,348,115994,1,8,0:0:0:0:
104,222,116530,5,2,3:2:0:0:
104,222,117065,1,8,0:0:0:0:
173,163,117333,2,0,P|167:103|163:23,1,140,2|0,0:0|0:0,0:0:0:0:
253,8,118137,2,0,P|254:48|257:89,1,70,8|0,0:0|3:0,0:0:0:0:
340,113,118673,6,0,P|405:108|466:161,1,140,2|8,3:2|0:0,0:0:0:0:
508,229,119476,2,0,P|477:233|427:247,1,70,2|0,0:0|0:0,0:0:0:0:
411,332,120012,1,0,0:0:0:0:
411,332,120280,2,0,P|379:327|320:320,1,70,8|0,0:0|0:0,0:0:0:0:
265,372,120815,5,2,3:2:0:0:
94,308,121351,2,0,P|97:275|107:236,1,70,8|0,0:0|0:0,0:0:0:0:
181,188,121887,2,0,P|236:228|303:216,1,140,2|8,0:0|0:0,0:0:0:0:
379,166,122690,1,0,3:0:0:0:
330,89,122958,6,0,P|274:48|207:60,1,140,2|8,3:2|0:0,0:0:0:0:
128,14,123762,2,0,P|114:93|104:175,1,140,2|0,0:0|0:0,0:0:0:0:
30,202,124565,1,8,0:0:0:0:
133,357,125101,5,2,3:2:0:0:
133,357,125637,1,8,0:0:0:0:
203,299,125905,2,0,P|271:292|346:281,2,140,2|2|0,0:0|0:0|3:0,0:0:0:0:
117,268,127244,6,0,P|83:215|110:143,1,140,2|8,3:2|0:0,0:0:0:0:
197,152,128048,2,0,P|204:82|214:13,1,140,2|4,0:0|0:3,0:0:0:0:
305,13,128851,2,0,P|300:48|295:99,1,70,12|0,0:3|1:0,0:0:0:0:
358,149,129387,5,4,3:2:0:0:
428,91,129655,1,0,0:0:0:0:
491,155,129923,2,0,P|481:198|475:241,1,70,0|0,1:0|3:0,0:0:0:0:
494,252,130324,2,0,P|449:247|389:290,1,105,2|0,3:2|0:0,0:0:0:0:
356,356,130994,2,0,P|324:351|270:346,1,70,2|0,1:2|0:0,0:0:0:0:
210,296,131530,5,2,3:2:0:0:
149,364,131798,1,0,0:0:0:0:
75,310,132065,2,0,L|85:226,1,70,0|0,1:0|3:0,0:0:0:0:
57,217,132467,2,0,P|25:188|41:111,1,105,2|0,3:2|0:0,0:0:0:0:
81,56,133137,1,2,1:2:0:0:
154,110,133405,1,4,0:3:0:0:
218,45,133673,6,0,P|251:40|297:38,1,70,4|0,3:2|0:0,0:0:0:0:
363,87,134208,1,0,1:0:0:0:
288,137,134476,1,0,3:0:0:0:
288,137,134610,2,0,P|259:186|279:247,1,105,2|0,3:2|0:0,0:0:0:0:
355,254,135280,2,0,P|347:293|340:338,1,70,2|4,1:2|0:3,0:0:0:0:
420,370,135815,5,2,3:2:0:0:
490,312,136083,1,0,0:0:0:0:
440,235,136351,2,0,P|443:205|453:149,1,70,0|0,1:0|3:0,0:0:0:0:
473,139,136753,2,0,P|418:135|381:95,1,105,2|0,3:2|0:0,0:0:0:0:
356,14,137423,1,2,1:2:0:0:
284,70,137690,1,4,0:3:0:0:
309,157,137958,6,0,P|266:161|215:174,1,70,4|0,3:2|0:0,0:0:0:0:
194,246,138494,1,0,1:0:0:0:
113,215,138762,1,0,3:0:0:0:
113,215,138896,2,0,P|117:168|129:111,1,105,2|0,3:2|0:0,0:0:0:0:
32,115,139565,2,0,P|24:157|21:199,1,70,2|0,1:2|3:0,0:0:0:0:
39,273,140101,5,2,3:2:0:0:
113,215,140369,1,0,0:0:0:0:
125,305,140637,2,0,P|164:298|210:297,1,70,0|0,1:0|3:0,0:0:0:0:
223,311,141039,2,0,P|277:318|320:279,1,105,2|0,3:2|0:0,0:0:0:0:
352,205,141708,1,2,1:2:0:0:
432,247,141976,1,8,0:3:0:0:
477,168,142244,6,0,P|480:98|425:55,1,140,4|0,3:2|1:0,0:0:0:0:
356,2,143048,2,0,P|338:80|330:148,1,140,4|0,3:2|1:0,0:0:0:0:
256,192,143851,5,4,1:0:0:0:
256,192,143985,12,0,145324,0:0:0:0:
103,292,145994,5,12,1:3:0:0:
103,292,146530,6,0,P|137:286|172:282,1,70,4|0,1:0|0:0,0:0:0:0:
203,286,146931,2,0,L|196:333,1,35,2|8,0:0|0:0,0:0:0:0:
285,364,147333,2,0,P|290:318|306:223,1,140,2|2,1:2|0:0,0:0:0:0:
400,199,148137,1,10,0:0:0:0:
427,104,148405,1,0,3:0:0:0:
346,48,148673,6,0,P|318:54|269:57,1,70,4|0,3:2|0:0,0:0:0:0:
194,108,149208,1,8,0:0:0:0:
194,108,149342,2,0,P|159:113|124:73,1,70,2|0,0:0|0:0,0:0:0:0:
108,71,149744,2,0,P|117:149|121:210,1,140,0|0,1:0|3:0,0:0:0:0:
52,280,150548,1,8,0:0:0:0:
136,329,150815,6,0,P|181:337|228:349,1,70,4|0,3:2|0:0,0:0:0:0:
239,349,151217,2,0,P|237:336|233:305,1,35,2|8,0:0|0:0,0:0:0:0:
312,254,151619,2,0,P|352:187|334:132,1,140,2|2,1:2|0:0,0:0:0:0:
253,75,152423,1,8,0:0:0:0:
318,2,152690,1,2,3:2:0:0:
399,56,152958,6,0,P|434:52|475:46,1,70,4|0,3:2|0:0,0:0:0:0:
503,144,153494,1,8,0:0:0:0:
503,144,153628,2,0,B|508:179|508:179|484:216,1,70,2|2,0:0|1:2,0:0:0:0:
350,259,154298,1,0,3:0:0:0:
372,354,154565,2,0,P|337:357|290:367,1,70,2|0,3:2|1:0,0:0:0:0:
205,349,155101,6,0,P|189:314|195:279,1,70,4|0,3:2|0:0,0:0:0:0:
219,263,155503,2,0,L|223:223,1,35,2|8,0:0|0:0,0:0:0:0:
297,164,155905,2,0,P|238:185|165:143,1,140,2|2,1:2|0:0,0:0:0:0:
132,62,156708,1,8,0:0:0:0:
42,101,156976,1,0,3:0:0:0:
85,188,157244,6,0,P|85:219|80:259,1,70,4|2,3:2|0:0,0:0:0:0:
25,340,157780,1,8,0:0:0:0:
25,340,157914,2,0,P|61:345|100:356,1,70,2|0,0:0|0:0,0:0:0:0:
124,365,158315,2,0,P|184:319|266:343,1,140,2|0,1:2|3:0,0:0:0:0:
331,372,159119,1,10,0:0:0:0:
401,304,159387,6,0,P|410:234|423:165,1,140,4|8,3:2|0:0,0:0:0:0:
350,99,160190,2,0,P|315:102|280:109,1,70,2|0,1:2|0:0,0:0:0:0:
254,203,160726,2,0,P|288:198|323:194,1,70,2|8,0:0|0:0,0:0:0:0:
410,240,161262,6,0,P|341:237|294:286,1,140,4|2,3:2|0:0,0:0:0:0:
227,358,162065,2,0,P|194:362|158:368,1,70,10|0,0:0|3:0,0:0:0:0:
70,324,162601,2,0,P|72:289|84:250,1,70,2|0,1:2|0:0,0:0:0:0:
154,188,163137,1,2,3:2:0:0:
226,254,163405,1,8,0:0:0:0:
308,200,163673,6,0,P|314:163|322:119,1,70,4|2,3:2|0:0,0:0:0:0:
395,68,164208,1,8,0:0:0:0:
306,37,164476,1,0,1:0:0:0:
306,37,164610,2,0,P|251:45|195:48,1,105,2|0,3:2|0:0,0:0:0:0:
134,119,165280,1,8,0:0:0:0:
61,52,165548,1,0,1:0:0:0:
134,119,165815,6,0,P|124:157|121:197,1,70,4|2,3:2|0:0,0:0:0:0:
187,259,166351,1,8,0:0:0:0:
252,186,166619,1,0,1:0:0:0:
252,186,166753,2,0,P|297:161|361:175,1,105,2|0,3:2|0:0,0:0:0:0:
430,230,167423,1,8,0:0:0:0:
503,165,167690,1,0,1:0:0:0:
430,230,167958,6,0,P|423:266|419:299,1,70,4|2,3:2|0:0,0:0:0:0:
351,370,168494,1,8,0:0:0:0:
282,307,168762,1,0,1:0:0:0:
282,307,168896,2,0,P|230:312|163:324,1,105,2|0,3:2|0:0,0:0:0:0:
98,379,169565,1,8,0:0:0:0:
31,321,169833,1,0,1:0:0:0:
31,321,169967,1,0,1:0:0:0:
31,321,170101,6,0,P|14:285|40:239,1,70,4|0,1:2|0:0,0:0:0:0:
50,243,170503,2,0,B|80:221|80:221|92:139,1,105,4|4,1:2|3:2,0:0:0:0:
222,8,171440,1,0,3:0:0:0:
293,74,171708,2,0,P|287:119|278:166,1,70,2|0,1:2|3:0,0:0:0:0:
197,191,172244,5,4,3:2:0:0:
280,242,172512,2,0,P|317:233|379:229,1,70,2|8,0:0|0:0,0:0:0:0:
446,263,173048,1,0,1:0:0:0:
446,263,173181,2,0,P|480:223|462:154,1,105,2|0,3:2|0:0,0:0:0:0:
387,132,173851,2,0,P|394:94|405:43,1,70,8|0,0:0|1:0,0:0:0:0:
319,7,174387,5,4,3:2:0:0:
270,92,174655,2,0,P|228:96|178:107,1,70,2|8,0:0|0:0,0:0:0:0:
108,83,175190,1,0,1:0:0:0:
108,83,175324,2,0,P|77:131|95:188,1,105,2|0,3:2|0:0,0:0:0:0:
170,224,175994,1,8,0:0:0:0:
138,321,176262,1,0,1:0:0:0:
138,321,176396,1,0,1:0:0:0:
138,321,176530,6,0,P|237:308|284:304,1,140,4|2,3:2|0:0,0:0:0:0:
411,161,177601,2,0,P|341:170|272:177,1,140,2|2,0:0|3:2,0:0:0:0:
226,90,178405,1,0,3:0:0:0:
138,135,178673,6,0,P|154:207|167:293,1,140,4|0,3:2|0:0,0:0:0:0:
124,361,179476,2,0,P|180:321|247:330,1,140,2|2,0:0|0:0,0:0:0:0:
338,369,180280,2,0,L|355:315,3,35,2|2|2|2,0:0|0:0|0:0|0:0,0:0:0:0:
373,310,180815,6,0,P|460:285|399:229,1,210.000008010865,2|0,0:0|0:0,0:0:0:0:
399,228,188851,5,8,0:3:0:0:
399,228,189387,6,0,L|409:154,1,70,4|0,3:2|0:0,0:0:0:0:
425,125,189789,2,0,B|386:142|386:142|355:137|297:116,1,105,4|4,3:2|1:0,0:0:0:0:
158,23,190726,1,2,1:2:0:0:
240,75,190994,1,4,3:2:0:0:
160,126,191262,1,2,1:2:0:0:
160,126,191396,1,0,0:0:0:0:
160,126,191530,6,0,P|150:169|146:209,1,70,4|0,3:2|0:0,0:0:0:0:
177,208,191931,2,0,P|173:230|170:257,1,35,2|8,0:0|0:0,0:0:0:0:
120,326,192333,2,0,P|178:289|246:297,1,140,2|2,1:2|0:0,0:0:0:0:
325,356,193137,1,8,0:0:0:0:
408,304,193405,1,2,0:0:0:0:
369,213,193673,6,0,P|373:178|378:143,1,70,2|0,3:2|0:0,0:0:0:0:
473,109,194208,1,8,0:0:0:0:
473,109,194342,2,0,P|480:69|461:39,1,70,2|0,0:0|0:0,0:0:0:0:
439,25,194744,2,0,P|370:36|274:61,1,140,2|2,1:2|3:2,0:0:0:0:
243,131,195548,1,8,0:0:0:0:
147,107,195815,6,0,P|150:74|156:30,1,70,4|0,3:2|0:0,0:0:0:0:
63,0,196351,1,8,0:0:0:0:
11,83,196619,2,0,P|8:160|0:241,1,140,2|2,1:2|0:0,0:0:0:0:
100,228,197423,2,0,P|96:262|93:297,1,70,8|2,0:0|3:0,0:0:0:0:
180,176,197958,6,0,P|222:170|260:190,1,87.5,4|0,1:0|0:0,0:0:0:0:
282,218,198360,2,0,L|331:211,1,43.75,2|8,0:0|0:0,0:0:0:0:
415,281,198762,2,0,P|422:198|437:96,1,175,2|2,1:2|0:0,0:0:0:0:
325,73,199565,1,10,0:0:0:0:
413,0,199833,1,0,3:0:0:0:
325,73,200101,6,0,P|279:73|217:82,1,87.5,4|0,3:2|0:0,0:0:0:0:
141,27,200637,1,8,0:0:0:0:
141,27,200771,2,0,P|129:69|124:129,1,87.5,2|0,0:0|0:0,0:0:0:0:
155,129,201173,2,0,P|207:175|185:284,1,175,0|0,1:0|3:0,0:0:0:0:
91,316,201976,1,8,0:0:0:0:
185,379,202244,6,0,P|229:371|293:364,1,87.5,4|0,3:2|0:0,0:0:0:0:
306,361,202646,2,0,P|308:340|313:318,1,43.75,2|8,0:0|0:0,0:0:0:0:
426,297,203048,2,0,P|470:227|432:153,1,175,2|2,1:2|0:0,0:0:0:0:
327,111,203851,1,8,0:0:0:0:
342,223,204119,1,2,3:2:0:0:
430,152,204387,6,0,P|442:105|450:50,1,87.5,4|0,3:2|0:0,0:0:0:0:
344,37,204923,1,8,0:0:0:0:
344,37,205056,2,0,L|331:85,1,43.75,2|0,0:0|0:0,0:0:0:0:
327,111,205324,2,0,P|265:114|183:132,1,131.25,2|0,1:2|3:0,0:0:0:0:
92,173,205994,1,2,3:2:0:0:
105,59,206262,1,0,1:0:0:0:
197,127,206530,6,0,P|203:174|206:230,1,87.5,4|0,3:2|0:0,0:0:0:0:
239,215,206931,2,0,P|239:242|242:278,1,43.75,2|8,0:0|0:0,0:0:0:0:
172,350,207333,2,0,P|246:307|330:323,1,175,2|2,1:2|0:0,0:0:0:0:
431,376,208137,1,8,0:0:0:0:
502,287,208405,1,0,3:0:0:0:
402,231,208673,6,0,P|408:182|417:130,1,87.5,4|2,3:2|0:0,0:0:0:0:
489,59,209208,1,8,0:0:0:0:
489,59,209342,2,0,P|459:32|397:36,1,87.5,2|0,0:0|0:0,0:0:0:0:
386,49,209744,2,0,P|302:29|208:16,1,175,2|0,1:2|3:0,0:0:0:0:
125,88,210548,1,10,0:0:0:0:
232,124,210815,6,0,P|221:168|212:209,1,87.5,4|0,3:2|0:0,0:0:0:0:
297,286,211351,1,8,0:0:0:0:
386,216,211619,2,0,P|434:195|484:208,1,87.5,2|0,1:2|0:0,0:0:0:0:
487,312,212155,2,0,P|448:331|405:328,1,87.5,2|8,0:0|0:0,0:0:0:0:
297,286,212690,6,0,P|309:200|330:99,1,175,4|2,3:2|0:0,0:0:0:0:
243,35,213494,2,0,P|207:47|151:62,1,87.5,10|0,0:0|3:0,0:0:0:0:
135,171,214030,2,0,P|171:159|227:144,1,87.5,2|0,1:2|0:0,0:0:0:0:
326,113,214565,1,2,3:2:0:0:
304,224,214833,1,8,0:0:0:0:
413,191,215101,5,4,3:2:0:0:
304,224,215369,2,0,P|289:265|280:308,1,87.5,2|8,0:0|0:0,0:0:0:0:
176,353,215905,2,0,P|77:343|39:273,1,175,2|2,1:2|0:0,0:0:0:0:
102,189,216708,1,8,0:0:0:0:
22,108,216976,6,0,P|122:86|210:73,1,175,4|0,3:2|0:0,0:0:0:0:
304,48,217780,2,0,P|295:95|287:148,1,87.5,8|0,0:0|3:0,0:0:0:0:
391,184,218315,1,2,1:2:0:0:
198,304,218851,1,0,3:0:0:0:
306,364,219119,1,8,0:0:0:0:
306,364,219253,1,2,0:0:0:0:
306,364,219387,6,0,P|343:354|381:351,1,70,4|2,0:0|0:0,0:0:0:0:
462,377,219923,1,8,0:0:0:0:
493,291,220190,2,0,P|500:225|508:133,1,140,2|0,0:0|0:0,0:0:0:0:
447,82,220994,1,8,0:0:0:0:
379,141,221262,1,2,3:2:0:0:
379,141,221396,1,2,3:2:0:0:
379,141,221530,6,0,P|372:178|368:233,1,70,2|0,3:2|0:0,0:0:0:0:
395,297,222065,2,0,P|360:299|325:305,1,70,10|0,0:0|3:0,0:0:0:0:
249,355,222601,2,0,P|173:361|123:306,1,140,2|0,3:2|3:0,0:0:0:0:
128,236,223405,1,10,0:0:0:0:
128,236,223539,1,2,0:0:0:0:
128,236,223673,6,0,P|88:242|56:246,1,70,2|2,3:2|0:0,0:0:0:0:
4,172,224208,1,8,0:0:0:0:
81,124,224476,2,0,P|156:117|241:110,1,140,2|0,0:0|0:0,0:0:0:0:
290,170,225280,1,8,0:0:0:0:
354,106,225548,1,2,3:2:0:0:
354,106,225681,1,2,3:2:0:0:
354,106,225815,6,0,P|360:66|369:21,1,70,2|0,3:2|0:0,0:0:0:0:
450,69,226351,2,0,P|444:103|438:138,1,70,2|0,3:2|0:0,0:0:0:0:
511,192,226887,2,0,P|449:184|379:241,1,140,2|2,1:2|3:2,0:0:0:0:
395,324,227690,1,10,0:0:0:0:
395,324,227824,1,2,0:0:0:0:
395,324,227958,6,0,P|357:330|300:344,1,70,4|2,3:2|0:0,0:0:0:0:
246,381,228494,1,8,0:0:0:0:
199,302,228762,2,0,P|205:244|220:152,1,140,2|0,0:0|0:0,0:0:0:0:
300,123,229565,1,8,0:0:0:0:
274,45,229833,1,2,3:2:0:0:
274,45,229967,1,2,3:2:0:0:
274,45,230101,6,0,P|232:47|187:55,1,70,2|0,3:2|0:0,0:0:0:0:
127,2,230637,2,0,P|97:6|56:11,1,70,10|0,0:0|3:0,0:0:0:0:
2,83,231173,2,0,P|8:171|65:201,1,140,2|0,3:2|3:0,0:0:0:0:
143,208,231976,1,8,0:0:0:0:
143,208,232110,1,2,0:0:0:0:
143,208,232244,6,0,P|134:249|131:296,1,70,4|2,3:2|0:0,0:0:0:0:
172,358,232780,1,8,0:0:0:0:
248,309,233048,2,0,P|282:303|317:299,1,70,2|0,3:2|0:0,0:0:0:0:
415,203,233583,2,0,P|380:209|346:213,1,70,2|0,1:2|0:0,0:0:0:0:
256,192,234119,5,4,3:2:0:0:
256,192,234253,12,0,237199,0:0:0:0:
