osu file format v14

[General]
AudioFilename: audio.mp3
AudioLeadIn: 0
PreviewTime: 130054
Countdown: 0
SampleSet: Soft
StackLeniency: 0.7
Mode: 0
LetterboxInBreaks: 0
WidescreenStoryboard: 1

[Editor]
DistanceSpacing: 1.6
BeatDivisor: 4
GridSize: 32
TimelineZoom: 1.8

[Metadata]
Title:Futatsu no Hikari
TitleUnicode:二つの光
Artist:Yumeno Yuki
ArtistUnicode:夢乃ゆき
Creator:Lasse
Version:Hard
Source:クダンノフォークロア
Tags:kudan no folklore SukeraSparo opening visual novel japanese pop full version
BeatmapID:2320919
BeatmapSetID:1109096

[Difficulty]
HPDrainRate:4
CircleSize:3.8
OverallDifficulty:6.7
ApproachRate:8
SliderMultiplier:2.13999990463257
SliderTickRate:1

[Events]
//Background and Video events
0,0,"nofeetsry.jpg",0,0
//Break Periods
2,171118,175121
//Storyboard Layer 0 (Background)
//Storyboard Layer 1 (Fail)
//Storyboard Layer 2 (Pass)
//Storyboard Layer 3 (Foreground)
//Storyboard Layer 4 (Overlay)
//Storyboard Sound Samples

[TimingPoints]
2406,594.059405940594,4,2,35,30,1,0
2406,-153.846153846154,4,2,35,30,0,0
11910,-142.857142857143,4,2,35,34,0,0
21415,-125,4,2,35,36,0,0
37752,-125,4,2,35,34,0,0
38049,-125,4,2,35,38,0,0
38940,-100,4,2,35,44,0,0
39386,-100,4,2,35,30,0,0
39534,-100,4,2,35,46,0,0
39683,-100,4,2,35,30,0,0
39831,-100,4,2,35,44,0,0
39980,-100,4,2,35,30,0,0
40128,-100,4,2,35,42,0,0
40277,-100,4,2,35,30,0,0
40425,-105.263157894737,4,2,35,48,0,0
49930,-100,4,2,35,52,0,0
51118,-111.111111111111,4,2,35,52,0,0
52306,-100,4,2,35,52,0,0
54683,-100,4,2,35,54,0,0
56168,-100,4,2,35,56,0,0
57059,-90.9090909090909,4,2,35,58,0,0
58247,-90.9090909090909,4,2,35,60,0,0
58841,-90.9090909090909,4,2,35,62,0,0
59435,-83.3333333333333,4,2,35,64,0,0
59881,-83.3333333333333,4,2,35,66,0,0
60326,-83.3333333333333,4,2,33,68,0,0
60475,-83.3333333333333,4,2,35,68,0,0
61217,-83.3333333333333,4,2,35,70,0,0
61811,-76.9230769230769,4,2,34,70,0,1
61960,-76.9230769230769,4,2,35,70,0,1
68940,-71.4285714285714,4,2,35,70,0,1
69831,-71.4285714285714,4,2,33,70,0,1
70128,-71.4285714285714,4,2,35,70,0,1
71019,-83.3333333333333,4,2,35,70,0,1
71316,-76.9230769230769,4,2,35,70,0,1
78445,-71.4285714285714,4,2,35,70,0,1
78891,-76.9230769230769,4,2,35,70,0,1
79930,-83.3333333333333,4,2,35,70,0,1
80821,-125,4,2,35,50,0,0
80896,-125,4,2,35,5,0,0
81712,-125,4,2,35,30,0,0
81787,-125,4,2,35,5,0,0
82604,-125,4,2,35,35,0,0
83198,-125,4,2,35,32,0,0
85574,-138.888888888889,4,2,35,38,0,0
86019,-138.888888888889,4,2,35,34,0,0
86465,-138.888888888889,4,2,35,32,0,0
86910,-138.888888888889,4,2,35,30,0,0
87653,-138.888888888889,4,2,35,34,0,0
87950,-138.888888888889,4,2,99,30,0,0
89584,-133.333333333333,4,2,35,55,0,0
90178,-111.111111111111,4,2,35,54,0,0
90326,-117.647058823529,4,2,35,64,0,0
91811,-117.647058823529,4,2,35,50,0,0
92108,-117.647058823529,4,2,35,58,0,0
92554,-117.647058823529,4,2,35,52,0,0
93000,-117.647058823529,4,2,35,62,0,0
94188,-117.647058823529,4,2,35,56,0,0
95079,-117.647058823529,4,2,35,64,0,0
96564,-117.647058823529,4,2,35,50,0,0
96861,-117.647058823529,4,2,35,56,0,0
97752,-117.647058823529,4,2,35,60,0,0
98346,-117.647058823529,4,2,35,62,0,0
98940,-117.647058823529,4,2,35,56,0,0
99237,-117.647058823529,4,2,35,60,0,0
99386,-117.647058823529,4,2,33,62,0,0
99683,-117.647058823529,4,2,33,55,0,0
99831,-117.647058823529,4,2,35,64,0,0
101316,-117.647058823529,4,2,35,50,0,0
101514,-117.647058823529,4,2,35,54,0,0
101613,-117.647058823529,4,2,35,58,0,0
102059,-117.647058823529,4,2,35,52,0,0
102505,-117.647058823529,4,2,35,62,0,0
103693,-117.647058823529,4,2,35,54,0,0
103841,-117.647058823529,4,2,35,56,0,0
103990,-100,4,2,33,58,0,0
104287,-100,4,2,33,52,0,0
104584,-117.647058823529,4,2,35,64,0,0
106069,-117.647058823529,4,2,35,50,0,0
106267,-117.647058823529,4,2,35,54,0,0
106366,-117.647058823529,4,2,35,58,0,0
106514,-117.647058823529,4,2,35,56,0,0
106663,-117.647058823529,4,2,35,54,0,0
106812,-117.647058823529,4,2,35,52,0,0
106960,-117.647058823529,4,2,35,54,0,0
107258,-117.647058823529,4,2,35,62,0,0
108148,-117.647058823529,4,2,35,64,0,0
108346,-117.647058823529,4,2,35,58,0,0
108446,-117.647058823529,4,2,81,60,0,0
108742,-117.647058823529,4,2,34,56,0,0
109039,-117.647058823529,4,2,35,52,0,0
109336,-200,4,2,35,46,0,0
109782,-200,4,2,35,40,0,0
116465,-166.666666666667,4,2,35,40,0,0
117653,-166.666666666667,4,2,35,42,0,0
118099,-166.666666666667,4,2,35,44,0,0
118544,-166.666666666667,4,2,35,46,0,0
118841,-100,4,2,35,52,0,0
120029,-111.111111111111,4,2,35,52,0,0
121217,-100,4,2,35,52,0,0
123594,-100,4,2,35,54,0,0
125079,-100,4,2,35,56,0,0
125970,-90.9090909090909,4,2,35,58,0,0
127158,-90.9090909090909,4,2,35,60,0,0
127752,-90.9090909090909,4,2,35,62,0,0
128346,-83.3333333333333,4,2,35,64,0,0
128495,-83.3333333333333,4,2,35,62,0,0
128643,-83.3333333333333,4,2,35,64,0,0
128792,-83.3333333333333,4,2,35,66,0,0
129089,-83.3333333333333,4,2,35,62,0,0
129237,-83.3333333333333,4,2,35,68,0,0
130128,-90.9090909090909,4,2,35,66,0,0
130722,-83.3333333333333,4,2,34,70,0,1
130871,-83.3333333333333,4,2,35,70,0,1
131316,-71.4285714285714,4,2,33,70,0,1
131539,-71.4285714285714,4,2,33,30,0,1
131613,-71.4285714285714,4,2,35,70,0,1
131762,-76.9230769230769,4,2,35,70,0,1
137851,-71.4285714285714,4,2,35,70,0,1
138742,-71.4285714285714,4,2,33,70,0,1
139485,-71.4285714285714,4,2,35,70,0,1
139930,-83.3333333333333,4,2,33,70,0,1
140227,-76.9230769230769,4,2,35,70,0,1
149732,-83.3333333333333,4,2,34,68,0,0
149881,-83.3333333333333,4,2,35,68,0,0
152703,-83.3333333333333,4,2,33,68,0,0
152851,-83.3333333333333,4,2,35,68,0,0
153891,-83.3333333333333,4,2,33,68,0,0
154188,-83.3333333333333,4,2,35,68,0,0
157455,-83.3333333333333,4,2,33,68,0,0
157604,-83.3333333333333,4,2,35,68,0,0
158346,-83.3333333333333,4,2,33,66,0,0
159089,-83.3333333333333,4,2,35,68,0,0
160574,-83.3333333333333,4,2,35,66,0,0
161391,-83.3333333333333,4,2,35,40,0,0
161465,-83.3333333333333,4,2,35,68,0,0
162207,-83.3333333333333,4,2,33,68,0,0
162356,-83.3333333333333,4,2,35,68,0,0
162653,-83.3333333333333,4,2,34,68,0,0
163099,-83.3333333333333,4,2,35,66,0,0
163396,-83.3333333333333,4,2,33,66,0,0
163544,-83.3333333333333,4,2,35,64,0,0
163990,-83.3333333333333,4,2,35,65,0,0
166366,-83.3333333333333,4,2,35,66,0,0
166811,-83.3333333333333,4,2,33,67,0,0
167257,-83.3333333333333,4,2,35,68,0,0
167703,-83.3333333333333,4,2,33,69,0,0
168148,-83.3333333333333,4,2,35,70,0,0
168742,-83.3333333333333,4,2,33,70,0,0
169039,-83.3333333333333,4,2,33,60,0,0
169188,-83.3333333333333,4,2,33,70,0,0
169262,-83.3333333333333,4,2,33,71,0,0
169336,-83.3333333333333,4,2,35,72,0,0
169782,-100,4,2,34,68,0,0
175871,-125,4,2,35,40,0,0
176910,-100,4,2,35,42,0,0
177653,-100,4,2,35,54,0,0
178024,-100,4,2,35,54,0,0
178099,-100,4,2,35,38,0,0
178247,-71.4285714285714,4,2,35,70,0,1
179435,-71.4285714285714,4,2,33,70,0,1
179584,-71.4285714285714,4,2,35,70,0,1
180178,-71.4285714285714,4,2,35,67,0,1
180326,-83.3333333333333,4,2,35,67,0,1
180586,-90.9090909090909,4,2,35,70,0,0
180623,-76.9230769230769,4,2,35,70,0,1
187752,-71.4285714285714,4,2,35,70,0,1
188198,-76.9230769230769,4,2,35,70,0,1
190128,-142.857142857143,4,2,81,45,0,0
190277,-142.857142857143,4,2,35,5,0,0
191019,-71.4285714285714,4,2,35,70,0,1
191094,-71.4285714285714,4,2,35,5,0,1
191168,-71.4285714285714,4,2,35,70,0,1
191391,-71.4285714285714,4,2,35,5,0,1
191465,-71.4285714285714,4,2,33,70,0,1
191613,-71.4285714285714,4,2,35,70,0,1
191762,-71.4285714285714,4,2,35,64,0,1
191910,-90.9090909090909,4,2,35,68,0,1
192467,-90.9090909090909,4,2,35,70,0,0
192505,-83.3333333333333,4,2,35,70,0,1
193099,-71.4285714285714,4,2,33,70,0,1
193321,-71.4285714285714,4,2,33,30,0,1
193396,-71.4285714285714,4,2,35,70,0,1
193544,-76.9230769230769,4,2,35,70,0,1
197183,-76.9230769230769,4,2,35,30,0,1
197257,-71.4285714285714,4,2,35,70,0,1
198297,-71.4285714285714,4,2,35,60,0,1
198445,-71.4285714285714,4,2,35,70,0,1
199336,-83.3333333333333,4,2,35,70,0,1
199633,-76.9230769230769,4,2,35,70,0,1
203693,-76.9230769230769,4,2,35,50,0,1
203792,-76.9230769230769,4,2,35,66,0,1
204089,-76.9230769230769,4,2,35,68,0,1
204386,-76.9230769230769,4,2,35,70,0,1
204980,-76.9230769230769,4,2,33,70,0,1
205203,-76.9230769230769,4,2,33,30,0,1
205277,-76.9230769230769,4,2,35,70,0,1
206465,-100,4,2,35,70,0,1
206762,-114.942528735632,4,2,35,70,0,0
206910,-111.111111111111,4,2,35,5,0,0
207950,-100,4,2,99,35,0,0
209138,-80.6451612903226,4,2,34,68,0,0
209287,-80.6451612903226,4,2,35,68,0,0
213891,-80.6451612903226,4,2,34,68,0,0
214039,-80.6451612903226,4,2,35,68,0,0
216861,-80.6451612903226,4,2,33,68,0,0
217009,-80.6451612903226,4,2,35,68,0,0
217306,-76.9230769230769,4,2,35,68,0,0
217752,-71.4285714285714,4,2,33,70,0,0
218643,-76.9230769230769,4,2,34,70,0,0
219237,-76.9230769230769,4,2,33,70,0,0
219534,-76.9230769230769,4,2,35,68,0,0
219683,-80.6451612903226,4,2,35,68,0,0
220128,-100,4,2,35,68,0,0
220425,-100,4,2,35,64,0,0
220722,-100,4,2,35,66,0,0
221019,-79.3650793650794,4,2,34,68,0,0
221613,-79.3650793650794,4,2,33,68,0,0
222059,-79.3650793650794,4,2,35,68,0,0
222282,-79.3650793650794,4,2,35,38,0,0
222356,-79.3650793650794,4,2,35,68,0,0
222653,-79.3650793650794,4,2,35,60,0,0
222727,-79.3650793650794,4,2,35,62,0,0
222802,-79.3650793650794,4,2,35,66,0,0
223396,-79.3650793650794,4,2,35,68,0,0
225772,-71.4285714285714,4,2,34,70,0,0
226217,-71.4285714285714,4,2,35,68,0,0
226366,-83.3333333333333,4,2,35,68,0,0
226811,-74.6268656716418,4,2,35,70,0,0
227158,-74.6268656716418,4,2,35,56,0,0
227257,-83.3333333333333,4,2,81,68,0,0
227554,-83.3333333333333,4,2,35,65,0,0
227851,-83.3333333333333,4,2,35,62,0,0
228148,-222.222222222222,4,2,35,60,0,0
228297,-94.3396226415094,4,2,35,5,0,0
232901,-94.3396226415094,4,2,35,15,0,0
233049,-94.3396226415094,4,2,35,5,0,0
237653,-94.3396226415094,4,2,99,18,0,0

[Colours]
Combo1 : 250,180,240
Combo2 : 120,200,230
Combo3 : 255,230,130
Combo4 : 160,230,150

[HitObjects]
0,78,2406,6,0,B|41:74|41:74|63:84|63:84|149:78,1,139.099987433625,2|0,0:0|0:0,0:0:0:0:
212,120,3297,1,0,0:0:0:0:
212,120,3445,2,0,P|196:181|216:233,1,104.324990575219,2|0,0:0|0:0,0:0:0:0:
263,277,4188,2,0,L|345:290,1,69.5499937168125,0|0,0:0|0:0,0:0:0:0:
401,363,4782,6,0,P|429:305|400:214,1,139.099987433625,2|0,0:0|0:0,0:0:0:0:
376,165,5673,1,0,0:0:0:0:
376,165,5821,2,0,P|361:118|382:53,1,104.324990575219,2|0,0:0|0:0,0:0:0:0:
431,8,6564,1,2,0:0:0:0:
283,71,7158,6,0,B|212:39|218:96|147:69,1,139.099987433625,2|0,0:0|0:0,0:0:0:0:
77,105,8049,1,0,0:0:0:0:
77,105,8198,2,0,P|61:145|76:225,1,104.324990575219,2|0,0:0|0:0,0:0:0:0:
121,264,8940,2,0,L|196:271,1,69.5499937168125,0|0,0:0|0:0,0:0:0:0:
270,221,9534,6,0,P|253:165|299:74,1,139.099987433625,2|0,0:0|0:0,0:0:0:0:
347,47,10425,1,0,0:0:0:0:
347,47,10574,2,0,B|377:84|377:84|440:59,1,104.324990575219,2|0,0:0|0:0,0:0:0:0:
501,27,11316,1,2,0:0:0:0:
465,175,11910,6,0,P|472:211|473:254,2,74.8999943763735,2|0|0,0:0|0:0|3:0,0:0:0:0:
422,103,12802,1,0,0:0:0:0:
422,103,12950,2,0,P|380:103|333:81,1,74.8999943763735,2|0,0:0|3:0,0:0:0:0:
308,72,13396,1,2,0:0:0:0:
244,8,13693,1,0,3:0:0:0:
196,84,13990,1,0,0:0:0:0:
105,37,14287,6,0,P|69:30|31:27,2,74.8999943763735,2|0|0,0:0|0:0|3:0,0:0:0:0:
176,99,15178,1,0,0:0:0:0:
176,99,15326,2,0,P|163:136|159:181,1,74.8999943763735,2|0,0:0|3:0,0:0:0:0:
170,214,15772,1,2,0:0:0:0:
225,284,16069,1,0,3:0:0:0:
304,241,16366,2,0,L|314:199,1,37.4499971881868,0|0,0:0|3:0,0:0:0:0:
347,175,16663,6,0,P|384:178|420:189,2,74.8999943763735,2|0|0,0:0|0:0|3:0,0:0:0:0:
260,200,17554,1,0,0:0:0:0:
260,200,17703,2,0,P|222:196|186:185,1,74.8999943763735,2|0,0:0|3:0,0:0:0:0:
154,155,18148,1,2,0:0:0:0:
78,105,18445,1,0,3:0:0:0:
17,171,18742,1,0,0:0:0:0:
63,269,19039,6,0,P|67:305|58:347,2,74.8999943763735,2|0|0,0:0|0:0|3:0,0:0:0:0:
20,184,19930,1,0,0:0:0:0:
20,184,20079,2,0,P|12:147|16:110,1,74.8999943763735,2|0,0:0|3:0,0:0:0:0:
37,71,20524,1,2,0:0:0:0:
116,29,20821,1,2,3:2:0:0:
185,85,21118,1,2,0:0:0:0:
188,103,21267,1,0,3:0:0:0:
192,121,21415,6,0,P|251:162|346:120,1,171.199992370606,2|0,2:0|3:0,0:0:0:0:
410,47,22306,1,0,0:0:0:0:
410,47,22455,2,0,B|364:37|364:37|338:46|338:46|263:34,1,128.399994277954,2|2,0:0|0:0,0:0:0:0:
338,130,23198,2,0,P|323:173|330:221,1,85.5999961853028,0|0,3:0|0:0,0:0:0:0:
341,242,23643,1,0,0:0:0:0:
359,270,23792,6,0,P|361:317|256:337,1,171.199992370606,2|0,0:0|3:0,0:0:0:0:
182,261,24683,1,0,0:0:0:0:
182,261,24831,2,0,L|197:161,1,85.5999961853028,2|0,0:0|3:0,0:0:0:0:
227,149,25277,2,0,L|212:49,1,85.5999961853028,2|0,0:0|3:0,0:0:0:0:
316,0,25871,2,0,L|305:54,1,42.7999980926514,2|0,0:0|3:0,0:0:0:0:
335,77,26168,6,0,P|365:88|433:69,2,85.5999961853028,2|0|0,0:0|0:0|3:0,0:0:0:0:
228,43,27059,1,0,0:0:0:0:
228,43,27207,2,0,P|165:21|83:29,1,128.399994277954,2|2,0:0|0:0,0:0:0:0:
9,81,27950,1,0,3:0:0:0:
96,150,28247,1,0,0:0:0:0:
27,249,28544,6,0,P|25:296|49:349,1,85.5999961853028,2|0,2:0|0:0,0:0:0:0:
71,357,28990,2,0,L|141:341,1,42.7999980926514,2|0,0:0|3:0,0:0:0:0:
155,369,29287,1,0,0:0:0:0:
155,369,29435,2,0,L|207:375,1,42.7999980926514,2|0,0:0|0:0,0:0:0:0:
291,314,29881,1,0,3:0:0:0:
291,314,30029,2,0,P|276:261|291:205,1,85.5999961853028,2|0,0:0|3:0,0:0:0:0:
346,142,30623,2,0,L|394:151,1,42.7999980926514,2|0,0:0|3:0,0:0:0:0:
426,169,30920,6,0,P|472:141|430:40,1,171.199992370606,2|0,0:0|3:0,0:0:0:0:
342,8,31811,1,0,0:0:0:0:
342,8,31960,2,0,B|318:44|318:44|223:26,1,128.399994277954,2|2,0:0|0:0,0:0:0:0:
134,78,32703,2,0,P|115:125|121:175,1,85.5999961853028,0|0,3:0|0:0,0:0:0:0:
128,191,33148,1,0,0:0:0:0:
154,213,33297,6,0,B|217:212|217:212|244:236|244:236|339:253,1,171.199992370606,2|0,0:0|3:0,0:0:0:0:
424,267,34188,1,0,0:0:0:0:
424,267,34336,2,0,P|446:215|413:125,1,128.399994277954,2|2,0:0|0:0,0:0:0:0:
356,64,35079,2,0,L|262:57,1,85.5999961853028,0|2,3:0|0:0,0:0:0:0:
247,83,35524,1,0,3:0:0:0:
227,111,35673,6,0,P|233:164|130:196,1,171.199992370606,2|0,0:0|3:0,0:0:0:0:
37,155,36564,1,0,0:0:0:0:
37,155,36712,2,0,L|30:59,1,85.5999961853028,2|0,0:0|3:0,0:0:0:0:
51,32,37158,2,0,B|81:28|81:28|93:34|93:34|163:34,1,85.5999961853028,2|0,0:0|3:0,0:0:0:0:
254,4,37752,5,2,0:0:0:0:
233,31,37901,1,0,0:0:0:0:
218,61,38049,2,0,P|205:124|232:238,1,171.199992370606,2|0,0:0|3:0,0:0:0:0:
340,333,38940,6,0,B|380:328|380:328|397:338|397:338|456:332,1,106.999995231629,10|0,3:1|0:0,0:0:0:0:
511,237,39534,1,8,0:3:0:0:
462,131,39831,1,4,0:3:0:0:
345,120,40128,1,8,0:1:0:0:
276,215,40425,6,0,B|245:246|245:246|112:215,1,152.474989133549,14|8,0:1|0:0,0:0:0:0:
0,90,41316,1,0,0:0:0:0:
0,90,41465,2,0,B|21:107|21:107|117:84,1,101.649992755699,2|0,0:0|0:0,0:0:0:0:
163,42,41910,5,10,0:1:0:0:
122,167,42207,1,8,0:0:0:0:
166,291,42505,1,0,0:0:0:0:
323,350,42802,6,0,P|373:336|486:343,1,152.474989133549,10|10,0:1|0:0,0:0:0:0:
297,246,43693,2,0,P|253:222|211:190,2,101.649992755699,2|0|8,0:0|0:0|0:1,0:0:0:0:
424,224,44584,1,8,0:0:0:0:
424,224,44732,2,0,P|461:199|517:173,1,101.649992755699,8|0,0:1|2:2,0:0:0:0:
422,131,45178,6,0,P|356:100|293:47,1,152.474989133549,10|8,0:1|0:0,0:0:0:0:
162,196,46069,1,2,0:0:0:0:
162,196,46217,2,0,P|155:123|168:55,1,101.649992755699,0|0,0:0|0:0,0:0:0:0:
232,115,46663,6,0,P|240:166|237:216,1,101.649992755699,8|10,0:1|0:0,0:0:0:0:
179,335,47257,1,0,3:0:0:0:
179,335,47406,1,0,3:0:0:0:
249,359,47554,6,0,L|409:342,1,152.474989133549,10|10,0:1|0:0,0:0:0:0:
238,228,48445,2,0,L|204:220,2,33.8833309185665,0|0|0,3:0|3:0|3:0,0:0:0:0:
282,227,48742,5,8,3:2:0:0:
282,227,48891,2,0,P|298:168|282:111,1,101.649992755699,8|8,3:1|0:3,0:0:0:0:
286,122,49262,1,8,0:3:0:0:
283,114,49336,2,0,P|273:86|272:60,1,50.8249963778497,8|8,0:3|0:3,0:0:0:0:
339,0,49633,5,4,0:3:0:0:
339,0,49782,1,8,0:1:0:0:
403,69,49930,6,0,P|410:120|394:178,1,106.999995231629,14|0,0:1|0:0,0:0:0:0:
338,228,50376,1,2,0:0:0:0:
338,228,50524,2,0,L|284:221,1,53.4999976158143,8|0,0:1|0:0,0:0:0:0:
386,298,50821,2,0,L|439:304,1,53.4999976158143,2|0,0:0|0:0,0:0:0:0:
312,334,51118,2,0,B|249:329|249:329|214:364|214:364|131:369,1,192.599985539246,10|8,0:1|0:1,0:0:0:0:
18,290,52009,5,2,0:0:0:0:
18,290,52158,1,8,0:1:0:0:
90,237,52306,6,0,P|103:193|94:127,1,106.999995231629,10|0,0:1|0:0,0:0:0:0:
48,71,52752,1,2,0:0:0:0:
48,71,52901,2,0,L|-15:61,1,53.4999976158143,8|0,0:1|0:0,0:0:0:0:
117,27,53198,2,0,B|153:24|153:24|169:37|169:37|227:44,1,106.999995231629,2|8,0:0|0:1,0:0:0:0:
377,18,53792,5,2,0:0:0:0:
224,67,54089,1,10,0:1:0:0:
273,220,54386,1,8,0:1:0:0:
426,171,54683,6,0,B|460:143|460:143|472:90|448:28|376:18,1,213.999990463257,10|8,0:1|0:1,0:0:0:0:
254,121,55574,5,2,0:0:0:0:
254,121,55722,1,8,0:1:0:0:
254,121,55871,2,0,L|240:245,1,106.999995231629,8|10,0:1|0:1,0:0:0:0:
157,363,56465,1,12,0:0:0:0:
33,260,56762,1,8,0:1:0:0:
163,114,57059,6,0,B|152:136|152:136|61:110,1,117.69999834671,14|0,0:1|0:0,0:0:0:0:
0,63,57505,1,2,0:0:0:0:
0,63,57653,2,0,P|5:28|29:0,1,58.8499991733551,8|0,0:1|0:0,0:0:0:0:
62,110,57950,2,0,P|57:145|33:173,1,58.8499991733551,2|0,3:0|0:0,0:0:0:0:
109,249,58247,6,0,L|185:243,1,58.8499991733551,10|0,0:1|0:0,0:0:0:0:
251,163,58544,2,0,L|192:159,1,58.8499991733551,8|0,0:0|3:0,0:0:0:0:
182,151,58767,1,0,3:0:0:0:
175,139,58841,2,0,P|165:107|177:68,2,58.8499991733551,8|8|8,0:0|0:0|0:3,0:0:0:0:
374,254,59435,6,0,P|423:207|491:222,1,128.399990359497,14|8,0:2|0:1,0:0:0:0:
461,324,59881,2,0,P|395:305|374:238,1,128.399990359497,14|8,0:0|0:1,0:0:0:0:
426,158,60326,2,0,P|431:122|408:75,1,64.1999951797487,14|8,0:0|0:1,0:0:0:0:
323,30,60623,6,0,B|308:46|308:46|242:35,1,64.1999951797487,0|0,3:1|3:1,0:0:0:0:
258,49,60846,1,0,3:1:0:0:
249,58,60920,2,0,B|170:55,1,64.1999951797487,8|8,3:3|3:3,0:0:0:0:
100,0,61217,5,10,0:0:0:0:
77,74,61366,1,8,0:0:0:0:
8,296,61811,5,14,0:1:0:0:
8,296,61960,2,0,P|54:348|114:320,1,139.099987433625,8|8,0:1|0:1,0:0:0:0:
161,249,62406,2,0,L|170:86,1,139.099987433625,8|2,0:0|0:0,0:0:0:0:
240,45,62851,2,0,B|321:36|291:87|374:89,1,139.099987433625,10|8,0:1|0:0,0:0:0:0:
458,48,63297,1,8,0:1:0:0:
458,48,63445,1,8,0:1:0:0:
511,121,63594,1,8,3:2:0:0:
415,274,63891,6,0,P|380:261|336:257,1,69.5499937168125,10|0,3:1|3:2,0:0:0:0:
338,261,64113,1,0,3:0:0:0:
328,266,64188,2,0,P|279:315|197:296,1,139.099987433625,10|2,3:1|0:0,0:0:0:0:
131,252,64633,1,8,0:1:0:0:
131,252,64782,2,0,P|160:185|150:110,1,139.099987433625,10|2,0:0|0:0,0:0:0:0:
65,103,65227,2,0,P|36:170|46:245,1,139.099987433625,10|8,0:1|0:0,0:0:0:0:
99,330,65673,5,10,0:1:0:0:
99,330,65821,1,8,0:1:0:0:
178,373,65970,2,0,P|218:365|253:359,1,69.5499937168125,10|8,0:0|0:1,0:0:0:0:
343,289,66267,2,0,P|308:282|274:276,1,69.5499937168125,10|8,0:1|0:0,0:0:0:0:
190,208,66564,5,14,0:1:0:0:
190,208,66712,2,0,B|219:172|219:172|185:55,1,139.099987433625,8|8,0:1|0:1,0:0:0:0:
293,6,67158,2,0,B|264:42|264:42|289:131,1,139.099987433625,8|2,0:0|0:0,0:0:0:0:
382,192,67604,6,0,P|443:161|510:171,1,139.099987433625,14|8,0:1|0:0,0:0:0:0:
465,256,68049,2,0,P|466:285|440:343,1,69.5499937168125,10|0,3:1|3:0,0:0:0:0:
446,334,68272,1,0,3:0:0:0:
439,346,68346,2,0,P|378:377|311:367,1,139.099987433625,10|4,3:1|3:3,0:0:0:0:
151,200,68940,6,0,P|188:138|158:72,1,149.799988752747,14|10,0:1|0:0,0:0:0:0:
40,132,69386,2,0,P|10:198|47:259,1,149.799988752747,14|10,0:1|0:1,0:0:0:0:
167,310,69831,6,0,P|205:299|243:294,1,74.8999943763735,14|0,0:2|0:0,0:0:0:0:
315,360,70128,2,0,P|350:370|387:375,1,74.8999943763735,10|8,0:0|0:1,0:0:0:0:
483,356,70425,1,8,0:0:0:0:
442,267,70574,2,0,P|421:214|435:103,1,149.799988752747,14|0,0:1|3:0,0:0:0:0:
434,114,70945,1,0,3:0:0:0:
441,108,71019,2,0,P|456:70|448:36,1,64.1999951797487,2|0,3:2|3:2,0:0:0:0:
350,9,71316,6,0,L|280:14,1,69.5499937168125,14|8,0:1|0:1,0:0:0:0:
331,89,71613,2,0,L|261:94,1,69.5499937168125,2|8,0:0|0:1,0:0:0:0:
317,165,71910,2,0,L|247:170,1,69.5499937168125,10|0,0:0|0:0,0:0:0:0:
172,252,72207,5,10,0:1:0:0:
172,252,72356,2,0,P|168:319|76:315,1,139.099987433625,8|8,0:1|0:0,0:0:0:0:
33,281,72802,2,0,L|55:118,1,139.099987433625,8|8,0:1|3:2,0:0:0:0:
188,25,73396,5,10,3:1:0:0:
188,25,73544,1,0,3:2:0:0:
242,97,73693,2,0,B|293:120|342:91|342:91|330:31|277:12,1,208.649981150437,10|8,0:1|0:1,0:0:0:0:
188,25,74287,1,8,0:0:0:0:
318,152,74584,5,2,0:0:0:0:
318,152,74732,2,0,P|381:125|451:124,1,139.099987433625,10|8,0:1|0:0,0:0:0:0:
510,215,75178,2,0,P|513:252|503:295,1,69.5499937168125,10|0,0:1|1:0,0:0:0:0:
503,297,75401,1,0,1:0:0:0:
497,309,75475,2,0,P|466:330|424:342,1,69.5499937168125,2|0,1:2|1:0,0:0:0:0:
347,381,75772,2,0,P|318:361|285:349,1,69.5499937168125,2|0,1:2|1:0,0:0:0:0:
163,342,76069,6,0,P|85:375|10:365,2,139.099987433625,14|8|8,0:1|0:1|0:0,0:0:0:0:
223,163,76960,1,2,0:0:0:0:
223,163,77108,2,0,P|188:103|184:34,1,139.099987433625,10|8,0:1|0:0,0:0:0:0:
271,7,77554,2,0,P|305:66|309:135,1,139.099987433625,8|10,0:1|3:2,0:0:0:0:
205,313,78148,5,2,3:2:0:0:
136,272,78297,1,8,3:1:0:0:
136,272,78371,1,8,3:1:0:0:
136,272,78445,2,0,B|95:265|57:304|57:304|22:285|20:223,1,149.799988752747,14|8,0:2|0:1,0:0:0:0:
115,161,78891,6,0,B|156:168|194:129|194:129|229:148|231:210,1,139.099987433625,10|8,0:0|0:1,0:0:0:0:
226,181,79262,1,8,0:1:0:0:
229,194,79336,2,0,P|218:238|262:333,1,139.099987433625,14|8,0:0|0:1,0:0:0:0:
329,361,79782,1,8,0:0:0:0:
408,312,79930,6,0,L|415:238,1,64.1999951797487,8|8,0:1|0:1,0:0:0:0:
421,241,80153,1,8,0:1:0:0:
428,235,80227,2,0,L|435:161,1,64.1999951797487,10|8,0:0|0:0,0:0:0:0:
401,68,80524,5,8,0:0:0:0:
332,105,80673,1,8,0:0:0:0:
277,41,80821,6,0,P|303:104|267:315,2,256.799988555908,14|2|2,0:1|0:0|0:0,0:0:0:0:
162,33,85574,6,0,B|120:27|120:27|95:40|95:40|50:34,2,115.559997671448,2|2|2,0:0|0:0|0:0,0:0:0:0:
244,121,86910,1,0,3:0:0:0:
244,121,87059,2,0,P|238:153|249:209,1,77.0399984476319,2|2,0:0|3:2,0:0:0:0:
297,252,87653,2,0,B|328:252|328:252|339:260|339:260|370:273,1,77.0399984476319,2|2,0:0|0:0,0:0:0:0:
498,344,89584,5,8,0:1:0:0:
498,344,89658,1,8,0:1:0:0:
498,344,89732,2,0,B|497:313|497:313|499:307|499:307|497:301|497:301|495:210,1,120.374999227524,8|8,0:0|0:1,0:0:0:0:
493,149,90326,5,14,0:1:0:0:
493,149,90475,1,10,0:1:0:0:
414,224,90772,1,10,0:1:0:0:
414,224,90920,1,10,0:0:0:0:
339,144,91217,1,10,0:1:0:0:
339,144,91366,2,0,P|348:85|330:1,1,136.424996522427,10|0,0:1|0:0,0:0:0:0:
202,40,92108,6,0,P|195:71|203:137,1,90.9499976816178,2|8,0:2|0:1,0:0:0:0:
249,188,92554,2,0,P|255:232|247:277,1,90.9499976816178,2|0,0:0|0:0,0:0:0:0:
209,347,93000,5,10,0:1:0:0:
115,275,93297,1,10,0:0:0:0:
16,339,93594,1,10,0:1:0:0:
16,339,93742,2,0,L|32:179,1,136.424996522427,10|2,0:1|0:0,0:0:0:0:
41,128,94336,1,8,0:1:0:0:
41,128,94485,2,0,P|90:137|142:103,1,90.9499976816178,10|2,0:0|0:0,0:0:0:0:
214,41,95079,5,10,0:1:0:0:
214,41,95227,1,10,0:1:0:0:
261,149,95524,1,10,0:1:0:0:
261,149,95673,1,10,0:2:0:0:
363,87,95970,1,10,0:1:0:0:
363,87,96118,2,0,P|420:56|489:73,1,136.424996522427,10|0,0:1|0:0,0:0:0:0:
508,188,96861,2,0,L|513:261,2,45.4749988408089,2|8|8,0:0|0:0|0:1,0:0:0:0:
494,56,97455,5,2,0:0:0:0:
418,146,97752,1,10,0:1:0:0:
342,55,98049,1,10,0:2:0:0:
260,141,98346,1,10,0:1:0:0:
260,141,98495,2,0,B|202:177|202:177|145:125,1,136.424996522427,10|2,0:1|0:0,0:0:0:0:
102,68,99089,1,8,0:1:0:0:
102,68,99163,1,8,0:1:0:0:
102,68,99237,2,0,L|100:18,1,45.4749988408089,10|14,0:0|0:1,0:0:0:0:
3,109,99683,1,8,0:0:0:0:
29,184,99831,5,14,0:1:0:0:
29,184,99980,1,10,0:1:0:0:
122,256,100277,1,10,0:1:0:0:
122,256,100425,1,10,0:0:0:0:
230,209,100722,1,10,0:1:0:0:
230,209,100871,2,0,P|222:152|248:76,1,136.424996522427,10|0,0:1|0:0,0:0:0:0:
347,8,101613,6,0,L|440:3,1,90.9499976816178,2|8,0:0|0:1,0:0:0:0:
502,47,102059,2,0,P|516:92|495:158,1,90.9499976816178,2|0,0:0|0:0,0:0:0:0:
457,193,102505,5,10,0:1:0:0:
354,134,102802,1,10,0:2:0:0:
287,231,103099,1,10,0:1:0:0:
287,231,103247,2,0,P|229:263|148:216,1,136.424996522427,10|2,0:1|0:0,0:0:0:0:
113,188,103841,1,8,0:1:0:0:
164,126,103990,6,0,B|192:87|172:38|172:38|154:44|148:65,1,106.999995231629,14|0,0:0|0:0,0:0:0:0:
240,160,104584,5,14,0:1:0:0:
240,160,104732,1,10,0:1:0:0:
351,95,105029,1,10,0:1:0:0:
351,95,105178,1,10,0:0:0:0:
448,185,105475,1,10,0:1:0:0:
448,185,105623,2,0,P|456:262|440:358,1,136.424996522427,10|0,0:1|0:0,0:0:0:0:
329,364,106366,5,2,0:0:0:0:
329,364,106514,1,8,0:0:0:0:
329,364,106663,2,0,L|204:342,1,90.9499976816178,10|2,0:1|0:0,0:0:0:0:
116,381,107257,1,10,0:1:0:0:
81,258,107554,1,10,0:0:0:0:
221,203,107851,5,10,0:1:0:0:
221,203,108000,1,8,0:1:0:0:
296,259,108148,2,0,P|324:255|356:232,1,60.6333317877452,10|0,3:2|3:0,0:0:0:0:
367,168,108445,6,0,L|380:127,2,30.3166658938726,8|8|8,2:0|2:0|2:0,0:0:0:0:
351,115,108742,2,0,L|364:74,2,30.3166658938726,8|8|8,2:2|2:2|2:2,0:0:0:0:
337,60,109039,2,0,L|350:19,2,30.3166658938726,8|8|8,2:3|2:3|2:3,0:0:0:0:
301,88,109336,6,0,P|255:92|209:69,1,80.2499964237214,14|0,0:1|0:0,0:0:0:0:
120,34,110227,1,2,0:0:0:0:
120,34,110376,2,0,P|82:21|42:26,1,80.2499964237214,0|0,0:0|0:0,0:0:0:0:
1,88,111118,2,0,L|14:149,1,53.4999976158143,2|0,0:0|0:0,0:0:0:0:
85,202,111712,6,0,P|123:189|163:194,2,80.2499964237214,2|0|0,0:0|0:0|0:0,0:0:0:0:
22,257,112901,1,2,0:0:0:0:
88,347,113346,2,0,L|122:339,1,26.7499988079071,0|0,0:0|0:0,0:0:0:0:
186,360,113792,2,0,L|220:352,1,26.7499988079071,0|0,0:0|0:0,0:0:0:0:
248,364,114089,6,0,P|243:313|250:270,1,80.2499964237214,2|0,0:0|0:0,0:0:0:0:
323,202,114980,1,2,0:0:0:0:
323,202,115128,2,0,P|359:211|411:206,1,80.2499964237214,0|0,0:0|0:0,0:0:0:0:
464,167,115871,2,0,L|461:109,1,53.4999976158143,2|0,0:0|0:0,0:0:0:0:
411,35,116465,6,0,P|364:20|317:27,2,96.2999927696231,2|0|0,0:0|0:0|0:0,0:0:0:0:
473,100,117653,1,2,0:2:0:0:
474,233,118099,2,0,L|470:275,1,32.0999975898744,0|0,0:0|0:0,0:0:0:0:
400,340,118544,2,0,L|396:298,1,32.0999975898744,2|2,0:0|0:0,0:0:0:0:
334,260,118841,6,0,B|302:254|302:254|280:264|280:264|209:254,1,106.999995231629,14|0,0:1|0:0,0:0:0:0:
179,194,119287,1,2,0:0:0:0:
179,194,119435,2,0,P|188:158|182:124,1,53.4999976158143,8|0,0:1|0:0,0:0:0:0:
91,154,119732,2,0,P|82:118|88:84,1,53.4999976158143,2|0,0:0|0:0,0:0:0:0:
162,31,120029,2,0,B|218:20|218:20|264:63|358:57,1,192.599985539246,10|8,0:1|0:0,0:0:0:0:
493,27,120920,5,2,0:0:0:0:
493,27,121069,1,8,0:1:0:0:
439,103,121217,6,0,P|423:146|435:213,1,106.999995231629,10|0,0:1|0:0,0:0:0:0:
491,269,121663,1,2,0:0:0:0:
491,269,121811,2,0,P|503:283|509:334,1,53.4999976158143,8|0,0:1|0:0,0:0:0:0:
439,371,122108,2,0,B|408:366|408:366|386:380|386:380|327:374,1,106.999995231629,2|8,0:0|0:1,0:0:0:0:
237,257,122703,5,2,0:0:0:0:
237,257,122851,1,2,0:0:0:0:
315,212,123000,2,0,P|329:160|319:107,1,106.999995231629,8|8,0:2|0:1,0:0:0:0:
193,20,123594,6,0,B|178:78|117:85|117:85|93:11|14:18,1,213.999990463257,10|8,0:1|0:1,0:0:0:0:
0,177,124485,5,2,0:0:0:0:
0,177,124633,1,8,0:1:0:0:
0,177,124782,2,0,L|12:298,1,106.999995231629,8|10,0:1|0:1,0:0:0:0:
156,384,125376,1,14,0:0:0:0:
201,230,125673,1,10,0:1:0:0:
327,297,125970,6,0,P|384:310|440:295,1,117.69999834671,14|0,0:1|0:0,0:0:0:0:
503,248,126415,1,2,0:0:0:0:
503,248,126564,2,0,L|507:178,1,58.8499991733551,10|0,0:1|0:0,0:0:0:0:
436,120,126861,2,0,L|428:47,1,58.8499991733551,0|0,3:0|0:0,0:0:0:0:
306,23,127158,6,0,P|302:53|289:90,1,58.8499991733551,10|0,0:1|0:0,0:0:0:0:
215,163,127455,2,0,P|211:133|198:96,1,58.8499991733551,8|0,0:0|3:0,0:0:0:0:
194,93,127678,1,0,3:0:0:0:
182,83,127752,2,0,P|153:73|117:73,1,58.8499991733551,8|8,2:2|0:2,0:0:0:0:
41,129,128049,2,0,P|32:157|28:186,1,58.8499991733551,8|8,0:2|0:2,0:0:0:0:
94,288,128346,6,0,B|142:279|142:279|157:288|157:288|229:276,1,128.399990359497,14|10,0:1|0:0,0:0:0:0:
315,320,128792,2,0,P|351:376|425:338,1,128.399990359497,14|8,0:1|0:1,0:0:0:0:
485,290,129237,6,0,L|491:208,1,64.1999951797487,10|8,2:2|2:1,0:0:0:0:
493,217,129460,1,8,2:1:0:0:
498,209,129534,2,0,L|504:127,1,64.1999951797487,10|8,2:2|2:1,0:0:0:0:
404,214,129831,2,0,L|399:149,1,64.1999951797487,10|8,2:0|2:1,0:0:0:0:
318,83,130128,6,0,P|289:79|263:67,1,58.8499991733551,14|0,0:0|0:0,0:0:0:0:
253,58,130351,1,8,0:1:0:0:
245,49,130425,2,0,P|218:36|189:33,1,58.8499991733551,10|8,0:0|0:1,0:0:0:0:
80,87,130722,5,14,0:1:0:0:
80,87,130871,2,0,L|62:233,1,128.399990359497,8|8,0:1|0:1,0:0:0:0:
119,314,131316,2,0,B|155:303|155:303|175:364|255:384,1,149.799988752747,12|2,0:0|0:0,0:0:0:0:
327,311,131762,2,0,P|308:245|325:172,1,139.099987433625,10|8,0:1|0:0,0:0:0:0:
370,101,132207,1,8,0:1:0:0:
458,82,132356,1,8,0:1:0:0:
458,82,132430,1,8,0:1:0:0:
458,82,132505,1,8,0:0:0:0:
509,255,132802,6,0,P|472:238|434:235,1,69.5499937168125,10|2,3:1|3:2,0:0:0:0:
433,235,133024,1,0,3:0:0:0:
423,239,133099,2,0,B|396:271|396:271|296:243,1,139.099987433625,10|2,0:1|0:0,0:0:0:0:
242,165,133544,1,8,0:1:0:0:
242,165,133693,2,0,B|277:106|277:106|258:39,1,139.099987433625,10|2,0:0|0:0,0:0:0:0:
174,3,134138,2,0,B|114:36|114:36|97:104,1,139.099987433625,10|8,0:1|0:0,0:0:0:0:
107,220,134584,5,10,0:1:0:0:
107,220,134732,1,8,0:1:0:0:
188,259,134881,2,0,L|262:254,1,69.5499937168125,10|8,0:0|0:1,0:0:0:0:
311,181,135178,2,0,P|310:144|321:102,1,69.5499937168125,10|8,0:1|0:0,0:0:0:0:
428,78,135475,5,14,0:1:0:0:
428,78,135623,2,0,P|441:117|412:225,1,139.099987433625,8|8,0:1|0:1,0:0:0:0:
373,305,136069,2,0,B|357:272|357:272|257:254,1,139.099987433625,8|2,0:0|0:0,0:0:0:0:
175,333,136514,6,0,B|158:366|158:366|58:384,1,139.099987433625,14|8,0:1|0:0,0:0:0:0:
5,309,136960,2,0,L|17:230,1,69.5499937168125,10|0,3:3|3:0,0:0:0:0:
19,226,137183,1,0,3:0:0:0:
24,213,137257,2,0,B|41:180|41:180|141:162,1,139.099987433625,4|8,3:3|0:2,0:0:0:0:
218,199,137703,1,8,0:0:0:0:
289,124,137851,6,0,P|316:62|263:3,1,149.799988752747,14|10,0:1|0:0,0:0:0:0:
120,42,138297,2,0,P|93:104|146:163,1,149.799988752747,14|10,0:1|0:1,0:0:0:0:
241,231,138742,6,0,L|317:243,1,74.8999943763735,14|8,0:2|0:1,0:0:0:0:
322,255,138965,1,8,0:1:0:0:
331,266,139039,2,0,L|407:278,1,74.8999943763735,10|8,0:0|0:1,0:0:0:0:
462,337,139336,1,8,0:0:0:0:
495,232,139485,2,0,P|507:146|482:67,1,149.799988752747,14|8,0:1|2:1,0:0:0:0:
445,9,139930,1,10,3:2:0:0:
445,9,140079,1,0,3:2:0:0:
342,47,140227,6,0,P|307:42|275:29,1,69.5499937168125,14|8,0:1|0:1,0:0:0:0:
252,110,140524,2,0,P|284:122|318:127,1,69.5499937168125,2|8,0:0|0:1,0:0:0:0:
298,208,140821,2,0,P|263:203|231:190,1,69.5499937168125,10|0,0:0|0:0,0:0:0:0:
161,101,141118,5,10,0:1:0:0:
161,101,141267,2,0,P|162:54|64:40,1,139.099987433625,8|8,0:1|0:0,0:0:0:0:
21,98,141712,2,0,L|35:264,1,139.099987433625,8|8,0:1|3:2,0:0:0:0:
183,344,142306,6,0,P|218:330|264:328,1,69.5499937168125,10|0,3:1|3:2,0:0:0:0:
327,357,142604,1,10,0:1:0:0:
327,357,142752,2,0,P|424:367|463:277,1,208.649981150437,8|8,0:1|0:0,0:0:0:0:
442,101,143495,5,2,0:0:0:0:
442,101,143643,2,0,B|421:135|421:135|320:115,1,139.099987433625,10|8,0:1|0:0,0:0:0:0:
227,84,144089,2,0,P|206:53|171:26,1,69.5499937168125,10|0,0:1|3:0,0:0:0:0:
170,24,144311,1,0,3:0:0:0:
158,19,144386,2,0,P|120:22|80:39,1,69.5499937168125,10|8,3:2|3:3,0:0:0:0:
28,98,144683,2,0,P|12:131|6:175,1,69.5499937168125,6|4,3:3|3:3,0:0:0:0:
73,255,144980,6,0,B|121:253|121:253|149:271|149:271|221:268,2,139.099987433625,14|8|8,0:1|0:1|0:0,0:0:0:0:
218,146,145871,1,2,0:0:0:0:
218,146,146019,2,0,P|206:67|231:-4,1,139.099987433625,8|8,0:3|0:3,0:0:0:0:
334,23,146465,2,0,P|346:102|321:173,1,139.099987433625,4|10,0:3|0:0,0:0:0:0:
222,304,147059,5,4,0:3:0:0:
149,265,147207,1,8,2:1:0:0:
149,265,147282,1,8,2:1:0:0:
149,265,147356,2,0,B|100:254|100:254|75:265|75:265|8:251,1,139.099987433625,14|8,0:2|0:1,0:0:0:0:
120,170,147802,6,0,B|89:136|89:136|134:29,1,139.099987433625,10|8,0:0|0:1,0:0:0:0:
138,39,148173,1,8,0:1:0:0:
153,30,148247,2,0,B|202:26|202:26|225:41|225:41|293:37,2,139.099987433625,14|10|10,0:0|3:1|2:0,0:0:0:0:
12,123,149138,5,10,3:2:0:0:
49,190,149287,1,10,3:2:0:0:
115,152,149435,2,0,P|141:141|188:133,1,69.5499937168125,10|10,3:2|3:2,0:0:0:0:
269,207,149732,5,14,0:1:0:0:
269,207,149881,2,0,B|320:248|320:248|357:172,1,128.399990359497,8|8,0:1|0:1,0:0:0:0:
376,113,150326,2,0,B|403:56|403:56|454:97,1,128.399990359497,10|10,0:0|0:0,0:0:0:0:
508,196,150772,6,0,P|506:260|495:323,1,128.399990359497,14|8,0:1|0:1,0:0:0:0:
423,365,151217,2,0,P|393:351|356:344,1,64.1999951797487,10|0,0:1|0:0,0:0:0:0:
279,356,151514,2,0,P|249:370|212:377,1,64.1999951797487,10|0,0:0|0:0,0:0:0:0:
136,359,151811,2,0,P|107:345|75:338,1,64.1999951797487,10|8,0:1|0:0,0:0:0:0:
188,276,152108,5,14,0:1:0:0:
188,276,152257,2,0,B|221:239|221:239|187:142,1,128.399990359497,8|8,0:1|0:1,0:0:0:0:
107,94,152703,2,0,B|100:150|56:162|56:162|1:129,1,128.399990359497,12|10,0:0|0:0,0:0:0:0:
103,14,153148,6,0,B|110:70|154:82|154:82|209:49,1,128.399990359497,14|8,0:1|0:1,0:0:0:0:
275,77,153594,2,0,P|280:45|294:12,1,64.1999951797487,10|0,0:1|0:0,0:0:0:0:
381,108,153891,2,0,P|393:137|397:169,1,64.1999951797487,12|0,0:0|0:0,0:0:0:0:
315,243,154188,2,0,L|238:234,1,64.1999951797487,10|8,0:1|0:0,0:0:0:0:
356,327,154485,5,14,0:1:0:0:
356,327,154633,2,0,B|377:354|409:356|409:356|402:316|441:270,1,128.399990359497,8|8,0:1|0:1,0:0:0:0:
487,230,155079,2,0,P|507:146|474:79,1,128.399990359497,10|10,0:0|0:0,0:0:0:0:
410,37,155524,6,0,B|372:29|372:29|339:61|339:61|275:72,1,128.399990359497,14|8,0:1|0:1,0:0:0:0:
202,57,155970,2,0,P|195:29|175:-3,1,64.1999951797487,10|0,0:1|0:0,0:0:0:0:
131,103,156267,2,0,P|107:138|103:233,1,128.399990359497,10|8,0:0|0:0,0:0:0:0:
166,307,156712,6,0,B|212:291|212:291|248:336|314:342,1,128.399990359497,14|8,0:1|0:1,0:0:0:0:
348,384,157158,2,0,P|358:370|359:315,1,64.1999951797487,8|0,0:1|0:0,0:0:0:0:
293,236,157455,2,0,P|283:222|288:100,1,128.399990359497,12|10,0:0|0:2,0:0:0:0:
365,18,157901,6,0,B|379:42|379:42|492:30,1,128.399990359497,14|8,0:1|0:1,0:0:0:0:
439,170,158346,2,0,P|432:136|398:110,1,64.1999951797487,14|0,0:0|0:0,0:0:0:0:
307,115,158643,2,0,P|282:173|293:236,1,128.399990359497,14|10,0:0|0:0,0:0:0:0:
307,356,159089,6,0,P|317:293|292:235,1,128.399990359497,14|8,0:1|0:1,0:0:0:0:
228,180,159534,2,0,B|222:196|222:196|159:185,1,64.1999951797487,8|8,0:1|0:1,0:0:0:0:
115,109,159831,2,0,P|128:59|52:28,1,128.399990359497,12|10,0:0|0:0,0:0:0:0:
0,123,160277,6,0,L|15:300,1,128.399990359497,14|8,0:1|0:3,0:0:0:0:
46,332,160722,2,0,P|74:315|123:321,1,64.1999951797487,8|8,0:3|0:3,0:0:0:0:
116,319,160945,1,8,0:3:0:0:
127,324,161019,2,0,B|159:354|159:354|255:327,1,128.399990359497,8|10,0:3|0:2,0:0:0:0:
285,227,161465,6,0,P|272:168|288:100,1,128.399990359497,14|8,0:1|0:1,0:0:0:0:
340,41,161910,2,0,B|366:56|366:56|413:35,1,64.1999951797487,8|0,0:1|0:0,0:0:0:0:
286,102,162207,2,0,B|262:131|226:132|226:132|214:99|179:70,1,128.399990359497,12|10,0:0|0:0,0:0:0:0:
69,133,162653,6,0,P|40:203|59:258,1,128.399990359497,14|8,0:1|0:1,0:0:0:0:
128,312,163099,2,0,P|153:302|208:302,1,64.1999951797487,12|0,0:1|0:0,0:0:0:0:
266,357,163396,2,0,P|291:367|346:367,1,64.1999951797487,12|0,0:0|3:0,0:0:0:0:
340,369,163618,1,0,3:0:0:0:
352,367,163693,2,0,P|367:331|372:282,1,64.1999951797487,0|0,3:0|3:0,0:0:0:0:
313,202,163990,6,0,B|291:236|291:236|160:202,1,128.399990359497,14|8,0:1|0:1,0:0:0:0:
144,158,164435,2,0,P|147:126|125:59,1,64.1999951797487,2|8,0:0|0:0,0:0:0:0:
93,25,164732,1,2,0:0:0:0:
93,25,164881,2,0,P|75:46|31:32,1,64.1999951797487,10|8,0:1|0:1,0:0:0:0:
141,94,165178,2,0,P|159:115|203:101,1,64.1999951797487,10|8,0:0|0:1,0:0:0:0:
288,63,165475,6,0,L|305:-5,1,64.1999951797487,10|8,0:1|0:1,0:0:0:0:
366,89,165772,1,8,0:0:0:0:
366,89,165920,1,8,0:0:0:0:
430,36,166069,1,8,0:1:0:0:
481,172,166366,5,14,0:2:0:0:
481,172,166514,2,0,L|463:258,1,64.1999951797487,8|8,0:1|0:1,0:0:0:0:
398,294,166811,5,14,0:0:0:0:
398,294,166960,2,0,L|380:208,1,64.1999951797487,8|8,0:1|0:1,0:0:0:0:
314,147,167257,5,14,0:0:0:0:
314,147,167406,2,0,L|296:233,1,64.1999951797487,8|8,0:1|0:1,0:0:0:0:
230,301,167703,5,14,0:0:0:0:
230,301,167851,2,0,L|212:215,1,64.1999951797487,8|8,0:1|0:1,0:0:0:0:
132,169,168148,6,0,P|99:174|54:148,1,64.1999951797487,12|8,0:0|0:1,0:0:0:0:
59,156,168371,1,8,0:1:0:0:
50,146,168445,2,0,P|41:109|51:72,1,64.1999951797487,8|8,0:1|0:1,0:0:0:0:
137,1,168742,5,14,0:0:0:0:
188,77,168891,2,0,P|217:90|248:96,1,64.1999951797487,10|0,0:1|0:0,0:0:0:0:
383,63,169188,5,8,0:1:0:0:
383,63,169262,1,8,0:1:0:0:
383,63,169336,2,0,L|391:0,1,64.1999951797487,14|8,0:0|0:1,0:0:0:0:
476,75,169633,1,8,0:0:0:0:
429,143,169782,1,14,0:1:0:0:
127,299,175871,6,0,B|106:350|48:355|48:355|5:292|37:211|77:175,1,299.59998664856,2|2,0:0|0:0,0:0:0:0:
256,32,177653,5,8,0:3:0:0:
256,32,178247,6,0,B|292:60|292:60|425:36,1,149.799988752747,14|10,0:1|0:0,0:0:0:0:
486,136,178693,2,0,B|450:164|450:164|317:140,1,149.799988752747,14|2,0:1|0:0,0:0:0:0:
242,193,179138,6,0,P|235:145|214:105,1,74.8999943763735,12|8,0:0|2:1,0:0:0:0:
137,228,179435,2,0,P|123:262|119:299,1,74.8999943763735,12|8,0:0|0:1,0:0:0:0:
177,378,179732,1,8,0:0:0:0:
272,359,179881,2,0,B|322:352|322:352|358:370|358:370|416:365,1,149.799988752747,14|0,0:1|1:0,0:0:0:0:
427,364,180252,1,0,1:0:0:0:
437,361,180326,2,0,P|449:326|440:288,1,64.1999951797487,0|0,1:0|1:0,0:0:0:0:
385,208,180623,6,0,P|355:204|311:186,1,69.5499937168125,14|8,0:1|0:1,0:0:0:0:
259,259,180920,2,0,P|240:234|222:191,1,69.5499937168125,2|8,0:0|0:1,0:0:0:0:
133,205,181217,2,0,P|137:175|155:131,1,69.5499937168125,10|0,0:0|0:0,0:0:0:0:
214,55,181514,5,2,0:0:0:0:
214,55,181663,2,0,B|239:94|239:94|344:73,1,139.099987433625,8|8,0:1|0:0,0:0:0:0:
424,104,182108,2,0,P|457:51|404:18,1,139.099987433625,8|8,0:1|3:2,0:0:0:0:
299,171,182703,5,10,3:1:0:0:
299,171,182851,1,0,3:2:0:0:
279,259,183000,2,0,B|296:312|350:329|350:329|386:280|365:228,1,208.649981150437,10|0,0:1|0:0,0:0:0:0:
299,171,183594,1,8,3:2:0:0:
170,314,183891,5,2,3:0:0:0:
170,314,184039,2,0,B|151:342|114:353|114:353|84:336|74:297,1,139.099987433625,10|8,3:1|0:0,0:0:0:0:
43,212,184485,2,0,P|42:172|53:127,1,69.5499937168125,10|0,0:1|1:0,0:0:0:0:
57,133,184707,1,0,1:0:0:0:
66,122,184782,2,0,P|71:87|70:53,1,69.5499937168125,2|0,1:0|1:0,0:0:0:0:
160,149,185079,2,0,P|159:114|163:79,1,69.5499937168125,2|0,1:0|1:0,0:0:0:0:
248,30,185376,6,0,P|326:63|396:44,1,139.099987433625,14|8,0:1|0:1,0:0:0:0:
457,13,185821,1,8,0:1:0:0:
488,98,185970,2,0,P|495:166|464:227,1,139.099987433625,8|2,0:0|0:0,0:0:0:0:
390,278,186415,2,0,P|328:246|260:254,1,139.099987433625,10|8,0:1|0:0,0:0:0:0:
181,299,186861,2,0,L|169:385,1,69.5499937168125,8|8,0:1|0:1,0:0:0:0:
89,300,187158,2,0,L|79:231,1,69.5499937168125,14|8,0:0|0:0,0:0:0:0:
118,115,187455,5,10,0:3:0:0:
191,183,187604,1,8,0:1:0:0:
191,183,187678,1,8,0:1:0:0:
191,183,187752,2,0,B|216:207|256:200|256:200|257:153|300:122,1,149.799988752747,14|8,0:0|0:1,0:0:0:0:
416,135,188198,6,0,P|451:226|426:282,1,139.099987433625,10|8,0:0|0:1,0:0:0:0:
435,274,188569,1,8,0:1:0:0:
428,286,188643,2,0,B|384:280|384:280|352:294|352:294|270:285,1,139.099987433625,12|8,0:0|0:1,0:0:0:0:
213,228,189089,2,0,L|209:144,1,69.5499937168125,8|8,0:0|0:1,0:0:0:0:
163,78,189386,5,8,0:1:0:0:
163,78,189460,1,8,0:1:0:0:
163,78,189534,2,0,B|145:89|145:89|68:74,1,69.5499937168125,10|10,0:0|0:0,0:0:0:0:
209,158,189831,2,0,B|227:169|227:169|304:154,1,69.5499937168125,10|10,0:0|0:0,0:0:0:0:
136,211,190128,6,0,P|70:233|84:338,1,187.249985940934,2|0,0:0|0:0,0:0:0:0:
147,384,191019,5,10,0:0:0:0:
216,319,191168,2,0,L|231:157,1,149.799988752747,12|12,0:1|0:0,0:0:0:0:
185,92,191613,2,0,B|166:106|166:106|90:95,1,74.8999943763735,12|0,0:0|0:0,0:0:0:0:
230,170,191910,6,0,B|243:182|243:182|304:177,1,58.8499991733551,0|0,1:0|1:0,0:0:0:0:
298,177,192133,1,0,1:0:0:0:
312,176,192207,2,0,P|320:142|307:109,1,58.8499991733551,0|0,1:0|1:0,0:0:0:0:
213,222,192505,6,0,P|203:262|216:301,1,64.1999951797487,14|8,0:1|0:1,0:0:0:0:
273,372,192802,2,0,L|343:378,1,64.1999951797487,2|8,0:0|0:1,0:0:0:0:
445,329,193099,2,0,B|490:313|490:313|464:210,1,149.799988752747,12|2,0:0|0:0,0:0:0:0:
429,106,193544,2,0,P|412:150|315:137,1,139.099987433625,8|8,0:1|0:0,0:0:0:0:
246,86,193990,5,8,0:1:0:0:
246,86,194138,1,8,0:1:0:0:
211,169,194287,2,0,L|198:264,1,69.5499937168125,10|8,0:0|0:1,0:0:0:0:
122,297,194584,2,0,L|112:228,1,69.5499937168125,10|8,0:1|0:0,0:0:0:0:
39,146,194881,5,14,0:1:0:0:
39,146,195029,2,0,B|26:158|8:164|8:164|-6:108|20:65,1,139.099987433625,8|8,0:1|0:1,0:0:0:0:
95,13,195475,2,0,B|110:48|110:48|221:64,1,139.099987433625,8|2,0:0|0:0,0:0:0:0:
326,50,195920,6,0,P|395:12|473:17,1,139.099987433625,14|8,0:1|0:0,0:0:0:0:
495,92,196366,2,0,L|483:171,1,69.5499937168125,10|8,0:1|0:1,0:0:0:0:
490,251,196663,1,10,0:0:0:0:
490,251,196811,1,8,0:1:0:0:
403,182,196960,1,14,0:1:0:0:
275,336,197257,6,0,B|248:370|248:370|124:351,1,149.799988752747,14|10,0:0|0:0,0:0:0:0:
71,274,197703,2,0,B|63:239|63:239|72:188|72:188|52:118,1,149.799988752747,14|8,0:1|0:1,0:0:0:0:
49,114,198074,1,8,0:1:0:0:
43,100,198148,2,0,L|62:6,1,74.8999943763735,8|8,0:2|2:2,0:0:0:0:
194,0,198445,6,0,L|208:73,1,74.8999943763735,14|8,0:1|0:1,0:0:0:0:
244,164,198742,1,8,0:0:0:0:
328,114,198891,2,0,P|378:81|493:90,1,149.799988752747,14|8,0:1|0:1,0:0:0:0:
479,84,199262,1,8,0:1:0:0:
489,94,199336,2,0,P|501:128|504:160,1,64.1999951797487,10|8,2:2|2:2,0:0:0:0:
475,265,199633,6,0,P|444:254|403:252,1,69.5499937168125,14|8,0:1|0:1,0:0:0:0:
366,324,199930,2,0,P|334:339|300:346,1,69.5499937168125,2|8,0:0|0:1,0:0:0:0:
236,292,200227,2,0,P|214:266|180:244,1,69.5499937168125,10|0,0:0|0:0,0:0:0:0:
87,234,200524,5,2,0:0:0:0:
87,234,200673,2,0,B|43:247|43:247|61:140,1,139.099987433625,8|8,0:1|0:0,0:0:0:0:
116,86,201118,2,0,B|148:116|148:116|280:96,1,139.099987433625,8|8,0:1|3:2,0:0:0:0:
441,30,201712,5,10,3:1:0:0:
441,30,201861,1,0,3:2:0:0:
429,119,202009,2,0,P|344:144|354:56,1,208.649981150437,14|8,0:1|0:1,0:0:0:0:
441,30,202604,1,8,0:0:0:0:
364,194,202901,5,2,0:0:0:0:
364,194,203049,2,0,B|330:229|330:229|242:208,1,139.099987433625,10|8,0:1|0:0,0:0:0:0:
176,145,203495,6,0,P|183:76|159:36,1,92.73332495575,14|0,0:1|3:0,0:0:0:0:
107,19,203792,2,0,L|57:13,2,46.366662477875,2|0|0,3:2|3:0|3:0,0:0:0:0:
81,57,204089,2,0,L|31:51,2,46.366662477875,2|0|0,3:0|3:0|3:0,0:0:0:0:
56,96,204386,6,0,P|32:143|41:268,1,139.099987433625,14|8,0:1|0:1,0:0:0:0:
57,313,204831,1,8,0:1:0:0:
138,353,204980,2,0,B|215:334|190:383|270:376,1,139.099987433625,14|10,2:0|0:3,0:0:0:0:
327,295,205425,2,0,P|304:231|316:163,1,139.099987433625,4|10,0:3|0:0,0:0:0:0:
411,153,205871,2,0,P|434:217|422:285,1,139.099987433625,8|10,0:3|0:0,0:0:0:0:
270,375,206465,5,4,0:3:0:0:
151,239,206762,6,0,B|206:202|240:52|137:14|137:14|95:59|121:109,1,372.359986531037,14|2,0:1|0:0,0:0:0:0:
125,113,209138,5,14,0:1:0:0:
125,113,209287,2,0,B|150:151|181:152|181:152|194:119|217:100,1,132.679988823426,8|8,0:1|0:1,0:0:0:0:
295,70,209732,1,8,0:0:0:0:
443,157,210029,1,2,0:0:0:0:
443,157,210178,2,0,L|435:303,1,132.679988823426,10|8,0:1|0:0,0:0:0:0:
380,361,210623,5,10,0:1:0:0:
380,361,210772,1,10,0:1:0:0:
306,316,210920,2,0,P|278:305|233:307,1,66.3399944117129,10|0,3:2|3:0,0:0:0:0:
169,352,211217,2,0,P|141:363|96:361,1,66.3399944117129,2|0,3:0|3:0,0:0:0:0:
26,306,211514,5,10,0:1:0:0:
26,306,211663,2,0,P|16:233|56:174,1,132.679988823426,8|8,0:1|0:1,0:0:0:0:
110,129,212108,2,0,L|184:120,1,66.3399944117129,10|2,0:0|0:0,0:0:0:0:
245,180,212406,1,2,0:0:0:0:
245,180,212554,2,0,B|252:227|310:254|310:254|346:206,1,132.679988823426,2|8,0:1|0:0,0:0:0:0:
387,155,213000,5,10,0:1:0:0:
387,155,213148,1,8,0:1:0:0:
321,98,213297,2,0,P|313:65|319:28,1,66.3399944117129,10|8,0:0|0:1,0:0:0:0:
219,0,213594,2,0,P|223:32|215:64,1,66.3399944117129,10|8,0:1|0:0,0:0:0:0:
138,126,213891,5,14,0:1:0:0:
138,126,214039,2,0,B|85:92|85:92|-22:118,1,132.679988823426,8|8,0:1|0:1,0:0:0:0:
67,189,214485,2,0,P|41:262|65:326,1,132.679988823426,10|2,0:0|0:0,0:0:0:0:
132,356,214930,2,0,B|176:347|176:347|202:366|202:366|263:356,1,132.679988823426,10|10,0:1|0:0,0:0:0:0:
328,291,215376,6,0,P|322:261|338:201,1,66.3399944117129,8|0,0:3|3:2,0:0:0:0:
336,216,215599,1,0,3:2:0:0:
347,209,215673,2,0,P|351:176|345:143,1,66.3399944117129,10|8,3:1|3:3,0:0:0:0:
277,87,215970,2,0,L|198:78,1,66.3399944117129,4|8,3:3|0:1,0:0:0:0:
334,13,216267,5,10,0:0:0:0:
334,13,216415,2,0,B|334:43|372:54|372:54|393:18|427:10,1,132.679988823426,8|8,0:1|0:1,0:0:0:0:
501,95,216861,2,0,P|513:131|487:221,1,132.679988823426,14|8,0:0|0:0,0:0:0:0:
411,272,217306,6,0,B|364:266|364:266|329:290|329:290|275:284,1,139.099987433625,14|8,0:1|0:1,0:0:0:0:
193,330,217752,2,0,L|180:238,1,74.8999943763735,14|0,0:0|0:0,0:0:0:0:
280,284,218049,2,0,L|267:192,1,74.8999943763735,14|0,0:0|0:0,0:0:0:0:
182,255,218346,2,0,L|169:163,1,74.8999943763735,14|0,0:0|0:0,0:0:0:0:
152,71,218643,5,14,0:1:0:0:
151,72,218792,2,0,B|145:98|124:112|124:112|99:73|48:72,1,139.099987433625,8|8,0:1|0:1,0:0:0:0:
44,176,219237,2,0,P|26:209|27:320,1,139.099987433625,10|8,0:2|0:0,0:0:0:0:
106,365,219683,6,0,P|154:330|253:341,1,132.679988823426,14|8,0:1|0:1,0:0:0:0:
312,352,220128,2,0,B|378:370|378:370|341:345,1,106.999995231629,8|8,0:3|0:0,0:0:0:0:
166,320,220722,6,0,L|101:301,1,53.4999976158143,8|0,3:1|3:3,0:0:0:0:
93,227,221019,5,14,0:1:0:0:
93,227,221168,2,0,P|129:191|114:96,1,134.819989877472,8|8,0:1|0:1,0:0:0:0:
83,33,221613,2,0,B|46:51|39:89|39:89|18:55|47:26,1,134.819989877472,14|10,0:0|0:0,0:0:0:0:
126,112,222059,6,0,B|183:146|183:146|260:103,1,134.819989877472,14|8,0:1|0:0,0:0:0:0:
316,66,222505,2,0,P|322:19|309:-7,1,67.4099949387362,10|8,0:1|2:2,0:0:0:0:
243,113,222802,6,0,B|231:144|231:144|250:186,1,67.4099949387362,8|8,0:2|0:2,0:0:0:0:
309,240,223099,2,0,B|392:248,1,67.4099949387362,8|8,0:2|0:2,0:0:0:0:
482,300,223396,5,14,0:1:0:0:
482,300,223544,2,0,B|477:272|477:272|480:257|480:257|469:208,1,67.4099949387362,2|10,0:0|0:1,0:0:0:0:
383,253,223841,5,10,0:1:0:0:
383,253,223990,2,0,B|388:225|388:225|385:210|385:210|396:161,1,67.4099949387362,10|2,0:0|0:0,0:0:0:0:
481,240,224287,5,2,0:0:0:0:
481,240,224435,2,0,B|476:212|476:212|479:197|479:197|468:148,1,67.4099949387362,10|2,0:1|0:0,0:0:0:0:
397,193,224732,5,10,0:0:0:0:
397,193,224881,2,0,B|402:165|402:165|399:150|399:150|410:101,1,67.4099949387362,10|10,0:1|0:1,0:0:0:0:
351,35,225178,6,0,P|323:54|270:52,1,67.4099949387362,10|2,0:0|0:0,0:0:0:0:
276,56,225401,1,2,0:0:0:0:
263,50,225475,2,0,P|212:35|174:34,1,67.4099949387362,2|10,0:0|0:1,0:0:0:0:
83,90,225772,6,0,P|59:166|82:266,1,149.799988752747,14|8,0:0|0:1,0:0:0:0:
100,309,226217,1,8,0:0:0:0:
168,356,226366,2,0,L|317:347,1,128.399990359497,2|8,0:0|2:2,0:0:0:0:
404,348,226811,6,0,B|447:357|447:357|405:225,1,167.276651299551,14|0,0:1|3:0,0:0:0:0:
388,161,227257,6,0,L|399:111,2,42.7999967864992,8|8|8,2:0|2:0|2:0,0:0:0:0:
361,129,227554,2,0,L|372:79,2,42.7999967864992,8|8|8,2:0|2:0|2:0,0:0:0:0:
334,97,227851,2,0,L|345:47,2,42.7999967864992,8|8|8,2:3|2:3|2:3,0:0:0:0:
293,117,228148,6,0,B|239:167|152:188|-38:201|-14:-22|126:-98|304:-17|272:247|92:352,2,770.399942156985,14|2|2,0:1|0:0|0:0,0:0:0:0:
