osu file format v14

[General]
AudioFilename: audio.mp3
AudioLeadIn: 0
PreviewTime: 130128
Countdown: 0
SampleSet: Soft
StackLeniency: 0.7
Mode: 2
LetterboxInBreaks: 0
WidescreenStoryboard: 1

[Editor]
DistanceSpacing: 0.6
BeatDivisor: 4
GridSize: 8
TimelineZoom: 2.1

[Metadata]
Title:Futatsu no Hikari
TitleUnicode:二つの光
Artist:Yumeno Yuki
ArtistUnicode:夢乃ゆき
Creator:-Luminate
Version:Rain
Source:クダンノフォークロア
Tags:kudan no folklore SukeraSparo opening visual novel japanese video game pop jpop j-pop full version the curse of vgm videogame
BeatmapID:3947924
BeatmapSetID:1880396

[Difficulty]
HPDrainRate:5
CircleSize:4
OverallDifficulty:9
ApproachRate:9
SliderMultiplier:3.59999990463257
SliderTickRate:4

[Events]
//Background and Video events
0,0,"bg.jpg",0,0
//Break Periods
2,81021,88984
2,171318,177053
//Storyboard Layer 0 (Background)
//Storyboard Layer 1 (Fail)
//Storyboard Layer 2 (Pass)
//Storyboard Layer 3 (Foreground)
//Storyboard Layer 4 (Overlay)
//Storyboard Sound Samples

[TimingPoints]
2406,594.059405940594,4,2,1,20,1,0
38049,-100,4,2,1,28,0,0
39534,-100,4,2,1,40,0,0
40425,-100,4,2,2,55,0,0
59435,-100,4,2,2,60,0,0
61811,-100,4,2,2,75,0,1
80821,-100,4,2,2,60,0,0
89584,-100,4,2,2,50,0,0
108148,-100,4,2,2,55,0,0
109336,-100,4,2,2,40,0,0
118841,-100,4,2,2,50,0,0
128346,-100,4,2,2,55,0,0
130128,-100,4,2,2,60,0,0
130722,-100,4,2,2,75,0,1
148693,-100,4,2,2,55,0,1
148990,-100,4,2,2,63,0,1
149435,-100,4,2,2,75,0,0
149732,-100,4,2,2,75,0,1
163990,-100,4,2,2,65,0,1
166366,-100,4,2,2,75,0,1
169782,-100,4,2,2,70,0,0
169930,-100,4,2,2,35,0,0
177653,-100,4,2,2,60,0,0
178247,-100,4,2,2,75,0,1
190128,-100,4,2,2,50,0,0
191168,-100,4,2,2,75,0,1
192356,-100,4,2,2,75,0,0
192505,-100,4,2,2,75,0,1
206762,-100,4,2,2,60,0,0
208247,-100,4,2,2,40,0,0
209138,-100,4,2,2,70,0,0
228148,-100,4,2,2,50,0,0
228297,-100,4,2,2,25,0,0

[Colours]
Combo1 : 162,162,162
Combo2 : 189,128,36
Combo3 : 81,168,255
Combo4 : 186,116,116

[HitObjects]
48,208,2406,5,2,0:0:0:0:
152,256,2703,1,0,0:0:0:0:
48,312,3000,1,2,0:0:0:0:
248,312,3297,1,0,0:0:0:0:
248,312,3445,1,2,0:0:0:0:
352,312,3891,5,0,0:0:0:0:
256,264,4188,1,2,0:0:0:0:
352,240,4485,1,0,0:0:0:0:
152,136,4782,5,2,0:0:0:0:
152,136,5079,1,0,0:0:0:0:
352,184,5376,1,2,0:0:0:0:
248,200,5673,1,0,0:0:0:0:
248,200,5821,1,2,0:0:0:0:
352,240,6267,5,0,0:0:0:0:
240,328,6564,2,0,L|240:120,1,179.999995231629,2|0,0:0|0:0,0:0:0:0:
480,320,7158,6,0,L|480:112,1,179.999995231629,2|0,0:0|0:0,0:0:0:0:
352,136,7752,1,2,0:0:0:0:
168,136,8049,1,0,0:0:0:0:
168,136,8198,1,2,0:0:0:0:
264,136,8643,5,0,0:0:0:0:
80,336,8940,2,0,L|80:120,1,179.999995231629,2|0,0:0|0:0,0:0:0:0:
336,336,9534,6,0,L|336:136,1,179.999995231629,2|0,0:0|0:0,0:0:0:0:
432,152,10128,1,2,0:0:0:0:
232,152,10425,1,0,0:0:0:0:
232,152,10574,1,2,0:0:0:0:
336,184,11019,5,0,0:0:0:0:
232,152,11316,2,0,L|232:360,1,179.999995231629,2|0,0:0|0:0,0:0:0:0:
448,336,11910,5,2,0:0:0:0:
480,264,12059,1,0,3:0:0:0:
480,184,12207,1,0,3:0:0:0:
432,120,12356,1,0,3:0:0:0:
352,96,12505,1,8,3:1:0:0:
184,96,12802,1,0,0:0:0:0:
184,96,12950,1,2,0:0:0:0:
272,280,13247,5,8,0:1:0:0:
184,276,13396,2,0,L|184:76,1,179.999995231629,2|8,0:1|0:1,0:0:0:0:
32,96,13990,1,0,0:0:0:0:
304,352,14287,6,0,L|304:160,1,179.999995231629,2|0,0:0|0:0,0:0:0:0:
448,168,14881,1,8,0:1:0:0:
216,160,15178,1,0,0:0:0:0:
128,168,15326,6,8,L|128:360,1,179.999995231629,2|8,0:0|0:1,0:1:0:0:
224,352,15772,2,0,P|272:296|216:216,1,179.999995231629,2|8,0:0|0:1,0:0:0:0:
40,224,16366,1,0,3:0:0:0:
40,224,16514,1,8,0:1:0:0:
176,224,16663,6,0,L|312:88,2,179.999995231629,2|0|8,0:0|0:0|0:1,0:0:0:0:
312,296,17554,1,0,0:0:0:0:
312,296,17703,1,2,0:0:0:0:
224,304,18000,5,8,0:1:0:0:
312,296,18149,2,0,L|312:96,1,179.999995231629,2|8,0:0|0:1,0:0:0:0:
144,120,18743,1,0,0:0:0:0:
408,344,19040,6,0,L|408:152,1,179.999995231629,2|0,0:0|0:0,0:0:0:0:
256,160,19634,1,8,0:1:0:0:
408,164,19931,1,0,0:0:0:0:
320,160,20079,6,0,L|320:352,1,179.999995231629,2|8,0:0|0:1,0:0:0:0:
424,344,20525,2,8,L|288:200,1,179.999995231629,0|8,3:0|0:1,0:1:0:0:
400,200,21119,1,0,3:0:0:0:
400,200,21267,1,8,0:1:0:0:
264,200,21415,6,0,P|224:112|304:56,1,179.999995231629,2|0,0:0|0:0,0:0:0:0:
464,56,22009,1,8,0:1:0:0:
272,56,22306,1,2,0:0:0:0:
360,56,22455,6,0,P|392:168|344:208,1,179.999995231629,2|8,0:0|0:1,0:0:0:0:
272,216,22901,2,0,L|400:344,1,179.999995231629,2|8,0:0|0:1,0:0:0:0:
472,352,23495,1,0,3:0:0:0:
472,352,23643,1,8,0:1:0:0:
328,352,23792,6,0,L|328:144,1,179.999995231629,2|0,0:0|0:0,0:0:0:0:
112,280,24386,2,0,L|112:88,1,179.999995231629,8|0,0:1|0:0,0:0:0:0:
176,336,24831,2,8,L|32:208,1,179.999995231629,2|8,0:0|0:1,0:1:0:0:
136,240,25277,2,8,L|272:96,1,179.999995231629,0|8,3:0|0:1,0:1:0:0:
392,112,25871,1,0,3:0:0:0:
392,112,26019,1,8,0:1:0:0:
259,109,26168,6,0,L|243:325,1,179.999995231629,2|0,0:0|0:0,0:0:0:0:
344,256,26613,2,8,L|352:352,1,89.9999976158143,2|8,0:0|0:1,0:1:0:0:
136,352,27059,6,0,P|48:264|48:192,1,179.999995231629,2|0,0:0|0:0,0:0:0:0:
128,216,27505,1,8,0:1:0:0:
136,144,27653,1,2,0:0:0:0:
304,224,27950,2,2,L|288:32,1,179.999995231629,8|0,0:1|0:0,0:0:0:0:
64,56,28544,6,0,L|56:248,1,179.999995231629,2|0,0:0|0:0,0:0:0:0:
144,240,28990,2,0,L|152:336,1,89.9999976158143,2|8,0:0|0:1,0:0:0:0:
48,344,29287,1,2,0:0:0:0:
16,272,29435,1,2,0:0:0:0:
56,200,29584,1,0,0:0:0:0:
280,200,29881,5,8,0:1:0:0:
280,200,30029,1,0,3:0:0:0:
160,160,30326,1,8,0:1:0:0:
280,96,30623,1,0,3:0:0:0:
280,96,30772,1,8,0:1:0:0:
152,168,30920,6,0,P|72:128|56:24,1,179.999995231629,2|0,0:0|0:0,0:0:0:0:
192,40,31514,1,8,0:1:0:0:
50,45,31811,1,2,0:0:0:0:
128,48,31960,6,8,P|176:104|112:176,1,179.999995231629,2|8,0:0|0:1,0:1:0:0:
40,184,32405,2,0,P|48:296|128:344,1,179.999995231629,2|8,0:0|0:1,0:0:0:0:
240,336,33000,1,2,0:0:0:0:
240,336,33148,1,0,0:0:0:0:
95,335,33297,6,0,L|95:143,1,179.999995231629,2|0,0:0|0:0,0:0:0:0:
336,152,33891,2,0,L|336:336,1,179.999995231629,8|0,0:1|3:0,0:0:0:0:
264,360,34336,2,0,L|424:224,1,179.999995231629,2|8,0:0|0:1,0:0:0:0:
480,224,34782,2,0,L|336:88,1,179.999995231629,2|8,0:0|0:1,0:0:0:0:
192,88,35376,1,0,3:0:0:0:
192,88,35524,1,8,0:1:0:0:
328,88,35673,6,0,P|424:160|304:344,1,359.999990463257,2|8,0:0|0:1,0:0:0:0:
440,344,36564,1,2,0:0:0:0:
288,344,36712,6,8,L|288:136,1,179.999995231629,2|8,0:0|0:1,0:1:0:0:
384,240,37158,2,0,L|384:40,1,179.999995231629,0|8,3:0|0:1,0:0:0:0:
224,48,37752,1,2,0:0:0:0:
160,80,37901,1,0,0:0:0:0:
296,96,38049,6,0,P|392:280|280:360,1,359.999990463257,2|8,0:0|0:1,0:0:0:0:
48,352,38940,2,0,L|48:64,1,269.999992847443,14|0,0:0|0:0,0:0:0:0:
120,80,39534,1,8,0:3:0:0:
248,144,39831,1,4,0:3:0:0:
88,216,40128,1,4,0:3:0:0:
472,352,40425,6,0,P|456:264|368:208,1,179.999995231629,14|0,0:0|0:0,0:0:0:0:
304,208,40871,1,8,0:1:0:0:
304,208,41019,1,8,0:0:0:0:
448,200,41316,1,2,0:0:0:0:
290,342,41465,6,0,P|258:238|314:206,1,179.999995231629,2|0,0:0|0:0,0:0:0:0:
392,200,41910,2,0,L|224:64,1,179.999995231629,10|8,0:0|0:1,0:0:0:0:
408,32,42505,1,2,0:0:0:0:
48,344,42802,6,8,L|40:136,1,179.999995231629,10|0,0:0|0:0,0:0:0:0:
208,288,43247,2,0,L|216:72,1,179.999995231629,10|0,0:1|0:0,0:0:0:0:
128,208,43693,2,0,P|48:160|48:48,1,179.999995231629,2|2,0:0|0:0,0:0:0:0:
256,344,44436,1,2,0:0:0:0:
344,328,44584,2,0,L|352:120,1,179.999995231629,8|0,0:1|0:0,0:0:0:0:
264,144,45029,1,2,0:0:0:0:
48,280,45178,6,0,P|64:184|160:120,1,179.999995231629,10|0,0:0|0:0,0:0:0:0:
208,128,45623,1,8,0:1:0:0:
208,128,45772,1,8,0:0:0:0:
80,80,46069,1,2,0:0:0:0:
208,128,46217,6,0,P|256:216|184:256,1,179.999995231629,2|0,0:0|0:0,0:0:0:0:
128,256,46663,2,0,L|0:128,2,179.999995231629,2|10|2,0:0|0:1|0:0,0:0:0:0:
368,352,47554,6,0,L|376:168,1,179.999995231629,10|0,0:0|0:0,0:0:0:0:
264,216,48000,2,0,P|192:184|184:72,1,179.999995231629,10|0,0:1|0:0,0:0:0:0:
384,80,48445,2,0,P|448:128|448:240,1,179.999995231629,2|8,0:0|0:3,0:0:0:0:
368,336,48891,2,0,L|224:176,1,179.999995231629,4|8,0:3|0:3,0:0:0:0:
384,216,49336,1,8,0:3:0:0:
448,160,49485,1,8,0:3:0:0:
440,80,49633,1,4,0:3:0:0:
376,40,49782,1,4,0:3:0:0:
152,352,49930,6,0,L|144:136,1,179.999995231629,14|2,0:0|0:0,0:0:0:0:
272,184,50376,2,0,L|280:80,1,89.9999976158143,2|8,0:0|0:0,0:0:0:0:
145,172,50673,2,0,L|137:44,1,89.9999976158143,2|0,0:0|0:0,0:0:0:0:
264,352,50970,1,2,0:0:0:0:
352,344,51118,6,0,L|360:136,1,179.999995231629,8|0,0:0|0:0,0:0:0:0:
160,272,51712,2,0,L|144:72,1,179.999995231629,8|2,0:0|0:0,0:0:0:0:
224,80,52158,1,0,3:0:0:0:
368,80,52306,6,0,P|416:176|352:240,1,179.999995231629,10|0,0:0|0:0,0:0:0:0:
240,328,52752,2,0,L|80:184,1,179.999995231629,2|0,0:0|0:0,0:0:0:0:
192,168,53198,2,0,L|336:296,1,179.999995231629,2|8,0:0|0:0,0:0:0:0:
464,336,53792,1,2,0:0:0:0:
296,256,54089,1,10,0:0:0:0:
472,176,54386,1,2,0:0:0:0:
72,336,54683,6,0,P|24:184|176:64,1,359.999990463257,10|8,0:0|0:0,0:0:0:0:
344,136,55574,1,2,0:0:0:0:
264,112,55722,6,0,L|256:8,1,89.9999976158143,2|8,0:0|0:0,0:0:0:0:
432,224,56168,1,8,0:0:0:0:
56,336,56465,2,0,L|48:120,1,179.999995231629,12|0,0:1|0:0,0:0:0:0:
424,144,57059,6,0,L|432:352,1,179.999995231629,14|2,0:0|0:0,0:0:0:0:
288,336,57505,2,0,L|184:264,1,89.9999976158143,2|8,0:0|0:0,0:0:0:0:
304,280,57802,2,0,L|376:208,1,89.9999976158143,2|8,0:0|0:0,0:0:0:0:
216,208,58099,1,2,0:0:0:0:
128,200,58247,6,0,L|120:96,1,89.9999976158143,8|0,0:0|0:0,0:0:0:0:
256,152,58544,2,0,L|264:40,1,89.9999976158143,8|8,0:1|0:0,0:0:0:0:
200,56,58767,1,8,0:0:0:0:
64,344,58841,2,8,L|56:240,1,89.9999976158143,8|8,0:1|0:1,0:1:0:0:
304,336,59138,2,0,L|312:232,1,89.9999976158143,8|4,0:3|0:3,0:0:0:0:
64,112,59435,6,0,L|256:120,1,179.999995231629,14|8,0:0|0:1,0:0:0:0:
483,320,59881,2,0,L|299:336,1,179.999995231629,14|8,0:0|0:1,0:0:0:0:
64,328,60326,2,0,L|56:208,1,89.9999976158143,14|0,0:0|0:0,0:0:0:0:
272,224,60623,6,8,L|336:224,1,44.9999988079071,8|8,0:1|0:1,0:1:0:0:
176,104,60772,2,8,L|120:104,1,44.9999988079071,8|8,0:1|0:0,0:1:0:0:
312,48,60920,1,8,0:3:0:0:
339,82,60994,1,8,0:3:0:0:
340,126,61068,1,4,0:3:0:0:
312,160,61142,1,4,0:3:0:0:
136,232,61217,1,8,0:1:0:0:
48,160,61366,2,0,L|40:352,1,179.999995231629,8|0,0:1|0:0,0:0:0:0:
272,344,61811,5,14,0:0:0:0:
384,344,61960,2,0,P|424:264|368:184,1,179.999995231629,8|8,0:0|0:0,0:0:0:0:
224,256,62406,2,0,P|144:184|136:104,1,179.999995231629,8|2,0:1|0:0,0:0:0:0:
416,80,62851,6,0,L|216:48,1,179.999995231629,2|8,0:0|0:1,0:0:0:0:
128,128,63297,2,0,L|232:120,1,89.9999976158143,8|8,0:0|0:0,0:0:0:0:
96,280,63594,2,0,L|88:160,1,89.9999976158143,8|8,0:1|0:0,0:0:0:0:
216,184,63891,1,10,0:0:0:0:
88,160,64039,1,2,0:0:0:0:
336,320,64188,6,0,L|464:320,1,89.9999976158143,10|0,0:0|0:0,0:0:0:0:
296,240,64485,2,0,L|192:240,1,89.9999976158143,2|0,0:0|0:0,0:0:0:0:
360,192,64782,2,0,L|368:72,1,89.9999976158143,10|0,0:1|0:0,0:0:0:0:
160,232,65079,1,10,0:0:0:0:
40,232,65227,6,0,P|32:152|128:80,1,179.999995231629,8|8,0:0|0:1,0:0:0:0:
216,80,65673,2,0,L|112:80,1,89.9999976158143,10|8,0:0|0:0,0:0:0:0:
256,152,65970,1,10,0:1:0:0:
128,192,66118,1,10,0:0:0:0:
360,336,66267,2,8,L|480:336,1,89.9999976158143,10|8,0:0|0:1,0:1:0:0:
208,312,66564,5,14,0:0:0:0:
80,304,66712,2,0,L|72:112,1,179.999995231629,8|8,0:0|0:0,0:0:0:0:
336,64,67158,2,0,L|344:280,1,179.999995231629,8|10,0:1|0:0,0:0:0:0:
216,208,67604,6,0,P|248:304|328:320,1,179.999995231629,10|8,0:0|0:1,0:0:0:0:
440,320,68049,1,10,0:0:0:0:
316,322,68198,1,8,0:0:0:0:
104,272,68346,1,10,0:1:0:0:
96,160,68495,1,8,0:1:0:0:
312,160,68643,1,8,0:3:0:0:
320,48,68792,1,4,0:3:0:0:
96,160,68940,6,0,L|296:144,1,179.999995231629,14|8,0:0|0:1,0:0:0:0:
63,97,69386,2,2,P|15:185|95:233,1,179.999995231629,14|2,0:0|0:0,0:0:0:0:
296,304,69831,1,8,0:1:0:0:
416,304,69980,6,8,L|424:240,1,44.9999988079071
240,240,70128,1,14,0:0:0:0:
152,184,70277,1,8,0:0:0:0:
240,128,70425,1,8,0:1:0:0:
464,320,70574,6,0,L|472:104,1,179.999995231629,14|0,0:0|1:0,0:0:0:0:
344,112,71019,1,0,1:0:0:0:
472,80,71168,1,8,0:1:0:0:
192,336,71316,6,0,L|184:208,1,89.9999976158143,14|0,0:0|0:0,0:0:0:0:
312,248,71613,2,0,L|320:136,1,89.9999976158143,10|8,0:0|0:0,0:0:0:0:
112,48,71910,2,0,L|8:48,1,89.9999976158143,10|0,0:1|0:0,0:0:0:0:
240,344,72207,1,10,0:0:0:0:
344,344,72356,6,8,P|368:264|296:192,1,179.999995231629,8|8,0:0|0:1,0:1:0:0:
176,208,72802,2,0,L|168:88,1,89.9999976158143,8|8,0:0|0:0,0:0:0:0:
304,120,73099,2,0,L|112:24,1,179.999995231629,8|10,0:1|0:0,0:0:0:0:
256,32,73544,1,8,0:0:0:0:
40,336,73693,5,10,0:0:0:0:
160,336,73841,2,8,L|168:136,1,179.999995231629
40,168,74287,2,0,L|48:56,1,89.9999976158143,8|0,0:1|0:0,0:0:0:0:
272,72,74584,1,10,0:0:0:0:
400,104,74732,6,0,P|432:216|384:240,1,179.999995231629,2|8,0:0|0:1,0:0:0:0:
184,272,75178,1,8,0:0:0:0:
304,272,75326,2,8,L|368:272,2,44.9999988079071,8|8|10,0:0|0:0|0:1,0:0:0:0:
96,320,75623,1,8,0:1:0:0:
40,224,75772,1,8,0:3:0:0:
136,160,75920,1,4,0:3:0:0:
376,344,76069,6,0,P|424:264|352:208,1,179.999995231629,14|0,0:0|0:0,0:0:0:0:
240,208,76514,1,8,0:0:0:0:
152,192,76663,2,0,L|144:72,1,89.9999976158143,8|0,0:1|0:0,0:0:0:0:
280,88,76960,1,10,0:0:0:0:
64,24,77108,6,0,P|16:112|88:176,1,179.999995231629,2|8,0:0|0:1,0:0:0:0:
184,184,77554,2,0,L|304:192,1,89.9999976158143,8|8,0:0|0:0,0:0:0:0:
136,304,77851,2,0,L|16:296,1,89.9999976158143,10|8,0:1|0:3,0:0:0:0:
272,352,78148,1,4,0:3:0:0:
376,320,78297,2,8,L|384:264,1,44.9999988079071
224,240,78445,6,0,P|168:224|120:96,1,179.999995231629,14|8,0:0|0:0,0:0:0:0:
352,104,78891,2,0,L|360:232,1,89.9999976158143,14|0,0:1|0:0,0:0:0:0:
231,195,79188,2,8,L|220:259,1,44.9999988079071
409,330,79336,6,0,P|430:275|337:194,1,179.999995231629,14|8,0:1|0:0,0:0:0:0:
231,195,79782,1,8,0:1:0:0:
360,144,79930,1,8,0:1:0:0:
232,88,80079,2,0,L|152:88,2,44.9999988079071,8|8|8,0:0|0:0|0:1,0:0:0:0:
456,264,80376,1,8,0:1:0:0:
368,192,80524,1,8,0:1:0:0:
464,136,80673,1,8,0:3:0:0:
232,88,80821,5,14,0:0:0:0:
160,272,89584,6,8,L|80:272,2,44.9999988079071,8|8|8,0:0|0:0|0:1,0:0:0:0:
272,272,89881,2,0,L|96:152,1,179.999995231629,8|0,0:0|0:0,0:0:0:0:
328,80,90326,5,14,0:0:0:0:
448,136,90475,2,8,L|456:336,1,179.999995231629,10|8,0:0|0:0,0:0:0:0:
328,336,90920,2,0,L|200:336,1,89.9999976158143,10|0,0:1|0:0,0:0:0:0:
352,256,91217,1,10,0:0:0:0:
112,256,91366,1,10,0:0:0:0:
208,344,92108,5,0,0:0:0:0:
216,256,92257,1,8,0:1:0:0:
224,160,92406,1,8,0:0:0:0:
448,96,92703,5,2,0:0:0:0:
280,136,93000,1,8,0:0:0:0:
448,200,93297,1,8,0:1:0:0:
200,288,93594,1,10,0:0:0:0:
296,304,93742,1,2,0:0:0:0:
88,296,94336,5,8,0:0:0:0:
32,216,94484,1,8,0:1:0:0:
96,144,94633,1,8,0:0:0:0:
240,192,94782,2,0,L|248:72,1,89.9999976158143,2|2,0:0|0:0,0:0:0:0:
32,104,95079,5,10,0:0:0:0:
144,128,95227,2,0,L|152:320,1,179.999995231629,10|8,0:0|0:0,0:0:0:0:
264,336,95673,2,0,L|392:328,1,89.9999976158143,10|0,0:1|0:0,0:0:0:0:
240,240,95970,1,10,0:0:0:0:
464,224,96118,1,10,0:0:0:0:
272,72,96861,5,0,3:0:0:0:
208,144,97009,1,8,0:1:0:0:
272,208,97158,1,8,0:0:0:0:
144,280,97455,5,2,0:0:0:0:
320,232,97752,1,10,0:0:0:0:
144,192,98049,1,10,0:1:0:0:
432,128,98346,1,10,0:0:0:0:
320,96,98495,1,10,0:0:0:0:
160,96,99089,6,8,L|88:96,2,44.9999988079071,8|8|8,0:0|0:0|0:1,0:0:0:0:
384,296,99386,2,0,P|432:224|368:152,1,179.999995231629,14|0,0:0|0:0,0:0:0:0:
152,80,99831,5,14,0:0:0:0:
32,136,99980,2,8,L|24:336,1,179.999995231629,10|0,0:0|0:0,0:0:0:0:
152,336,100425,2,0,L|280:336,1,89.9999976158143,10|0,0:1|0:0,0:0:0:0:
128,288,100722,1,10,0:0:0:0:
376,288,100871,1,10,0:0:0:0:
248,280,101613,5,8,0:0:0:0:
240,176,101761,1,8,0:1:0:0:
224,64,101910,1,8,0:0:0:0:
56,48,102207,5,2,0:0:0:0:
232,144,102504,1,10,0:0:0:0:
48,248,102801,1,10,0:1:0:0:
288,304,103098,1,10,0:0:0:0:
184,272,103247,1,10,0:0:0:0:
328,200,103841,5,8,0:0:0:0:
104,72,103990,2,0,L|88:352,1,269.999992847443,14|0,0:1|0:0,0:0:0:0:
336,336,104584,5,14,0:0:0:0:
464,336,104732,2,0,L|472:144,1,179.999995231629,2|0,0:0|0:0,0:0:0:0:
336,152,105178,2,0,L|328:272,1,89.9999976158143,10|0,0:1|0:0,0:0:0:0:
208,240,105475,1,10,0:0:0:0:
440,248,105623,1,10,0:0:0:0:
280,216,106366,5,8,0:0:0:0:
368,192,106514,1,8,0:1:0:0:
456,176,106663,1,8,0:0:0:0:
64,232,106960,5,10,0:0:0:0:
248,344,107257,2,0,L|256:232,1,89.9999976158143,10|0,0:0|0:0,0:0:0:0:
112,264,107554,2,0,L|104:152,1,89.9999976158143,10|0,0:1|0:0,0:0:0:0:
216,128,107851,1,10,0:0:0:0:
104,88,108000,1,8,0:0:0:0:
368,304,108148,6,0,L|480:304,1,89.9999976158143,14|0,0:0|0:0,0:0:0:0:
248,184,108445,2,8,L|160:184,2,59.9999984105428,8|8|8,3:0|3:0|3:0,3:0:0:0:
352,184,108742,2,8,L|408:128,2,59.9999984105428,8|8|8,3:3|3:3|3:3,3:3:0:0:
232,344,109039,1,4,0:3:0:0:
168,320,109138,1,4,0:3:0:0:
160,256,109237,1,4,0:3:0:0:
352,184,109336,6,0,P|384:96|320:40,1,179.999995231629,14|0,0:0|0:0,0:0:0:0:
176,96,109930,1,0,0:0:0:0:
352,104,110227,1,2,0:0:0:0:
208,288,110376,6,0,P|152:184|240:56,1,269.999992847443,2|2,0:0|0:0,0:0:0:0:
392,336,111118,2,0,L|400:136,1,179.999995231629,2|0,0:0|0:0,0:0:0:0:
168,336,111712,6,0,B|-24:272|32:56,2,269.999992847443,2|2|2,0:0|0:0|0:0,0:0:0:0:
376,336,112901,2,0,P|464:272|400:80,1,269.999992847443,2|0,0:0|0:0,0:0:0:0:
248,128,113792,1,2,0:0:0:0:
248,128,113940,1,2,0:0:0:0:
376,128,114089,6,0,P|408:224|312:320,1,179.999995231629,2|0,0:0|0:0,0:0:0:0:
248,312,114683,1,0,0:0:0:0:
376,344,114980,1,2,0:0:0:0:
248,344,115128,6,0,P|160:264|176:184,1,179.999995231629,2|0,0:0|0:0,0:0:0:0:
248,208,115574,2,0,L|384:64,2,179.999995231629,2|2|0,0:0|0:0|0:0,0:0:0:0:
88,352,116465,6,0,L|80:144,1,179.999995231629,2|0,0:0|0:0,0:0:0:0:
208,176,116910,2,0,L|216:48,1,89.9999976158143
16,208,117356,6,0,P|66:93|143:71,1,179.999995231629,2|0,0:0|0:0,0:0:0:0:
304,152,118099,1,2,0:0:0:0:
240,176,118247,1,0,0:0:0:0:
408,320,118544,2,0,L|400:192,1,89.9999976158143,2|0,0:0|0:0,0:0:0:0:
152,280,118841,6,0,P|104:200|160:152,1,179.999995231629,14|0,0:0|0:0,0:0:0:0:
288,168,119287,2,0,L|296:40,1,89.9999976158143,2|8,0:0|0:0,0:0:0:0:
160,120,119584,2,0,L|152:8,1,89.9999976158143,2|0,0:0|0:0,0:0:0:0:
296,32,119881,1,2,0:0:0:0:
384,80,120029,6,0,L|392:296,1,179.999995231629,8|0,0:0|0:0,0:0:0:0:
176,328,120623,2,0,L|168:120,1,179.999995231629,8|0,0:1|0:0,0:0:0:0:
296,144,121069,1,8,0:0:0:0:
160,328,121217,6,0,P|96:280|144:168,1,179.999995231629,10|0,0:0|0:0,0:0:0:0:
256,216,121663,2,0,P|320:160|272:64,1,179.999995231629,2|0,0:0|0:0,0:0:0:0:
192,72,122108,2,0,L|176:296,1,179.999995231629,2|8,0:0|0:0,0:0:0:0:
336,256,122703,5,2,0:0:0:0:
336,256,122851,1,2,0:0:0:0:
224,288,123000,2,0,L|336:272,1,89.9999976158143,8|0,0:1|0:0,0:0:0:0:
440,280,123297,2,0,L|320:256,1,89.9999976158143,2|0,0:0|0:0,0:0:0:0:
136,240,123594,6,0,P|96:152|200:112,1,179.999995231629,10|0,0:0|0:0,0:0:0:0:
336,248,124188,2,0,P|376:160|288:88,1,179.999995231629,8|0,0:0|0:0,0:0:0:0:
256,96,124633,1,8,0:0:0:0:
400,120,124782,5,10,0:0:0:0:
416,24,125079,1,8,0:0:0:0:
48,184,125376,1,14,0:1:0:0:
248,200,125673,2,0,L|256:312,1,89.9999976158143,8|0,0:0|0:0,0:0:0:0:
40,344,125970,6,0,L|256:312,1,179.999995231629,14|2,0:1|0:0,0:0:0:0:
352,248,126415,2,0,L|240:240,1,89.9999976158143,2|8,0:0|0:0,0:0:0:0:
128,200,126712,2,0,L|240:184,1,89.9999976158143,2|8,0:0|0:3,0:0:0:0:
432,176,127009,1,2,0:0:0:0:
320,160,127158,6,0,L|312:40,1,89.9999976158143,8|0,0:0|0:0,0:0:0:0:
432,328,127455,1,8,0:1:0:0:
312,328,127604,2,8,L|256:320,2,44.9999988079071,8|8|8,0:0|0:0|0:1,0:0:0:0:
432,256,127901,1,8,0:1:0:0:
432,128,128049,1,4,0:3:0:0:
312,64,128198,1,4,0:3:0:0:
56,312,128346,6,0,P|56:224|160:176,1,179.999995231629,14|8,0:0|0:0,0:0:0:0:
392,96,128792,2,0,L|184:96,1,179.999995231629,14|8,0:0|0:1,0:0:0:0:
88,48,129237,2,0,L|192:48,1,89.9999976158143,14|0,0:0|0:0,0:0:0:0:
384,320,129534,6,8,L|448:320,1,44.9999988079071,8|8,0:1|0:1,0:1:0:0:
432,240,129683,2,8,L|376:240,1,44.9999988079071,8|8,0:1|0:0,0:1:0:0:
232,104,129831,1,8,0:3:0:0:
240,160,129905,1,8,0:3:0:0:
376,176,129979,1,4,0:3:0:0:
432,176,130053,1,4,0:3:0:0:
280,352,130128,6,0,L|176:352,1,89.9999976158143,10|0,0:1|0:0,0:0:0:0:
304,288,130425,2,8,L|360:288,1,44.9999988079071,8|8,0:1|0:1,0:1:0:0:
352,176,130574,2,8,L|296:176,1,44.9999988079071,8|8,0:1|0:1,0:1:0:0:
136,176,130722,5,14,0:0:0:0:
24,176,130871,2,0,L|8:368,1,179.999995231629,10|8,0:0|0:0,0:0:0:0:
280,360,131316,2,0,P|312:256|256:216,1,179.999995231629,14|2,0:1|0:0,0:0:0:0:
24,176,131762,6,0,L|224:168,1,179.999995231629,10|8,0:0|0:1,0:0:0:0:
112,96,132207,2,0,L|224:96,1,89.9999976158143,8|8,0:0|0:0,0:0:0:0:
344,288,132505,2,0,L|144:272,1,179.999995231629,10|10,0:1|0:0,0:0:0:0:
280,248,132950,1,8,0:0:0:0:
48,240,133099,6,0,L|32:120,1,89.9999976158143,10|0,0:0|0:0,0:0:0:0:
280,248,133396,2,0,L|288:128,1,89.9999976158143,2|8,0:0|0:0,0:0:0:0:
160,144,133693,2,0,L|152:16,1,89.9999976158143,8|0,0:1|0:0,0:0:0:0:
376,56,133990,1,10,0:0:0:0:
465,158,134138,6,0,L|265:158,1,179.999995231629,8|8,0:0|0:1,0:0:0:0:
168,216,134584,2,0,L|288:216,1,89.9999976158143,10|8,0:0|0:0,0:0:0:0:
304,240,134806,1,8,0:0:0:0:
312,280,134881,1,8,0:1:0:0:
184,312,135029,1,10,0:0:0:0:
312,328,135178,2,0,L|424:328,1,89.9999976158143,10|8,0:0|0:1,0:0:0:0:
192,120,135475,5,14,0:0:0:0:
80,120,135623,2,0,P|56:240|96:264,1,179.999995231629,8|8,0:0|0:0,0:0:0:0:
344,304,136069,2,2,L|144:304,1,179.999995231629,10|8,0:1|0:0,0:0:0:0:
280,288,136514,2,0,P|376:240|368:144,1,179.999995231629,10|8,0:0|0:0,0:0:0:0:
160,184,136960,5,10,0:3:0:0:
56,152,137108,2,8,L|48:88,1,44.9999988079071
96,96,137257,1,8,0:1:0:0:
304,96,137405,1,8,0:1:0:0:
392,152,137554,1,8,0:3:0:0:
304,224,137703,1,4,0:3:0:0:
64,336,137851,6,0,L|56:208,1,89.9999976158143,14|0,0:0|0:0,0:0:0:0:
304,256,138148,1,8,0:1:0:0:
424,248,138297,2,0,L|432:136,1,89.9999976158143,14|0,0:0|0:0,0:0:0:0:
184,144,138594,1,8,0:3:0:0:
304,96,138742,1,8,0:1:0:0:
183,79,138891,2,8,L|175:15,1,44.9999988079071,8|8,0:1|0:1,0:1:0:0:
320,344,139039,5,14,0:0:0:0:
408,296,139188,1,8,0:3:0:0:
416,200,139336,1,8,0:1:0:0:
175,225,139485,2,0,P|135:145|207:73,1,179.999995231629,14|8,0:0|0:0,0:0:0:0:
320,72,139930,1,8,0:1:0:0:
184,48,140079,1,8,0:1:0:0:
432,240,140227,6,0,L|440:352,1,89.9999976158143,14|0,0:0|0:0,0:0:0:0:
208,344,140524,2,0,L|96:344,1,89.9999976158143,2|8,0:0|0:0,0:0:0:0:
240,216,140821,2,0,L|368:216,1,89.9999976158143,10|0,0:1|0:0,0:0:0:0:
120,88,141118,1,10,0:0:0:0:
16,96,141267,6,0,P|24:184|120:216,1,179.999995231629,8|8,0:0|0:1,0:0:0:0:
224,336,141712,2,0,L|232:216,1,89.9999976158143,10|8,0:0|0:0,0:0:0:0:
104,208,142009,1,8,0:1:0:0:
176,168,142158,1,8,0:0:0:0:
312,112,142306,1,10,0:0:0:0:
176,64,142455,1,8,0:0:0:0:
384,320,142604,5,10,0:0:0:0:
488,304,142752,2,0,L|496:88,1,179.999995231629,8|8,0:0|0:0,0:0:0:0:
368,128,143198,2,0,L|264:128,1,89.9999976158143,8|0,0:1|0:0,0:0:0:0:
392,56,143495,1,2,0:0:0:0:
184,56,143643,6,0,P|136:152|216:184,1,179.999995231629,10|8,0:0|0:1,0:0:0:0:
288,248,144089,1,10,0:0:0:0:
184,336,144237,2,8,L|104:336,1,44.9999988079071
288,352,144386,1,8,0:1:0:0:
384,304,144534,1,8,0:3:0:0:
384,208,144683,1,4,0:3:0:0:
288,152,144831,1,4,0:3:0:0:
72,264,144980,6,0,P|32:184|104:120,1,179.999995231629,14|8,0:0|0:0,0:0:0:0:
224,232,145425,1,8,0:0:0:0:
336,240,145574,2,0,L|344:120,1,89.9999976158143,8|0,0:1|0:0,0:0:0:0:
224,128,145871,1,10,0:0:0:0:
456,56,146019,6,0,L|248:48,1,179.999995231629,10|8,0:0|0:3,0:0:0:0:
168,88,146465,1,4,0:3:0:0:
272,144,146613,1,8,0:0:0:0:
400,208,146762,1,8,0:1:0:0:
304,264,146910,1,8,0:3:0:0:
392,344,147059,1,4,0:3:0:0:
264,352,147207,2,8,L|184:352,1,44.9999988079071
400,208,147356,6,0,L|496:208,2,89.9999976158143,14|8|8,0:0|0:0|0:0,0:0:0:0:
168,168,147802,2,0,P|88:224|88:312,1,179.999995231629,14|8,0:1|0:0,0:0:0:0:
296,352,148247,6,0,L|424:344,1,89.9999976158143,14|0,0:1|0:0,0:0:0:0:
336,312,148470,2,0,L|272:304,1,44.9999988079071,8|8,0:0|0:0,0:0:0:0:
168,272,148693,1,8,0:1:0:0:
152,152,148841,1,8,0:1:0:0:
272,136,148990,1,8,0:1:0:0:
384,120,149138,1,8,0:1:0:0:
272,136,149287,1,8,0:1:0:0:
152,160,149435,1,8,0:1:0:0:
376,248,149584,1,8,0:1:0:0:
152,336,149732,5,14,0:0:0:0:
40,328,149881,2,10,L|32:120,1,179.999995231629,8|8,0:0|0:0,0:0:0:0:
144,80,150326,1,8,0:1:0:0:
256,128,150475,1,8,0:0:0:0:
144,192,150623,1,8,0:1:0:0:
376,344,150772,6,0,P|416:256|360:192,1,179.999995231629,14|0,0:0|0:0,0:0:0:0:
232,160,151217,2,0,L|360:160,1,89.9999976158143,10|8,0:0|0:0,0:0:0:0:
432,152,151514,2,8,L|360:88,1,89.9999976158143,8|0,0:1|0:0,0:1:0:0:
136,120,151811,2,0,L|64:64,1,89.9999976158143,10|0,0:0|0:0,0:0:0:0:
272,336,152108,5,14,0:0:0:0:
392,328,152257,2,0,L|408:120,1,179.999995231629,8|8,0:0|0:0,0:0:0:0:
176,208,152703,2,0,L|168:104,1,89.9999976158143,12|0,0:1|0:0,0:0:0:0:
270,113,153000,1,8,0:1:0:0:
48,152,153148,6,0,P|64:64|176:32,1,179.999995231629,14|0,0:0|0:0,0:0:0:0:
264,24,153594,2,0,L|272:136,1,89.9999976158143,10|0,0:0|0:0,0:0:0:0:
64,304,153891,2,0,L|176:304,1,89.9999976158143,6|0,0:1|0:0,0:0:0:0:
56,224,154188,2,8,L|64:152,1,44.9999988079071,8|8,0:1|0:1,0:1:0:0:
104,144,154336,2,8,L|184:144,1,44.9999988079071,8|8,0:1|0:1,0:1:0:0:
304,304,154485,5,10,0:0:0:0:
416,296,154633,2,0,L|424:80,1,179.999995231629,8|0,0:0|0:0,0:0:0:0:
272,112,155079,2,0,L|152:112,1,89.9999976158143,10|0,0:1|0:0,0:0:0:0:
304,216,155376,1,2,0:0:0:0:
56,328,155524,6,0,P|24:240|96:168,1,179.999995231629,14|8,0:0|0:0,0:0:0:0:
200,128,155970,2,0,L|80:128,1,89.9999976158143,10|0,0:0|0:0,0:0:0:0:
320,312,156267,1,10,0:1:0:0:
200,240,156415,2,8,L|136:240,2,44.9999988079071,8|8|8,0:0|0:0|0:1,0:0:0:0:
424,336,156712,6,0,P|456:256|384:192,1,179.999995231629,14|0,0:0|0:0,0:0:0:0:
264,256,157158,2,0,L|248:128,1,89.9999976158143,8|0,0:0|0:0,0:0:0:0:
472,160,157455,2,0,L|480:40,1,89.9999976158143,12|0,0:1|0:0,0:0:0:0:
256,56,157752,1,8,0:1:0:0:
40,336,157901,6,0,L|32:136,1,179.999995231629,14|0,0:0|0:0,0:0:0:0:
272,264,158346,2,0,L|384:264,1,89.9999976158143,14|8,0:0|0:0,0:0:0:0:
128,64,158643,2,0,L|8:64,1,89.9999976158143,14|8,0:1|0:0,0:0:0:0:
160,248,158940,1,10,0:1:0:0:
400,264,159089,6,0,P|448:192|392:128,1,179.999995231629,14|0,0:0|0:0,0:0:0:0:
296,104,159534,1,8,0:0:0:0:
400,56,159683,1,0,0:0:0:0:
184,344,159831,2,0,L|176:224,1,89.9999976158143,14|8,0:1|0:0,0:0:0:0:
304,248,160128,1,8,0:1:0:0:
64,152,160277,6,0,L|264:144,1,179.999995231629,14|0,0:0|0:0,0:0:0:0:
120,144,160722,2,8,L|112:88,1,44.9999988079071,8|8,0:3|0:3,0:3:0:0:
136,72,160871,2,12,L|208:56,1,44.9999988079071,12|4,0:3|0:3,0:3:0:0:
312,264,161019,2,8,L|320:184,1,44.9999988079071,8|8,0:3|0:3,0:3:0:0:
272,192,161168,2,4,L|200:168,2,44.9999988079071,4|4|8,0:3|0:3|0:3,0:3:0:0:
488,208,161465,6,0,P|488:280|384:360,1,179.999995231629,14|8,0:0|0:0,0:0:0:0:
280,360,161910,2,0,L|272:232,1,89.9999976158143,8|0,0:0|0:0,0:0:0:0:
488,208,162207,2,0,L|384:200,1,89.9999976158143,14|8,0:1|0:0,0:0:0:0:
488,80,162505,1,10,0:1:0:0:
224,296,162653,6,0,P|176:224|232:152,1,179.999995231629,14|0,0:0|0:0,0:0:0:0:
368,136,163099,2,0,L|248:128,1,89.9999976158143,10|0,0:0|0:0,0:0:0:0:
400,64,163396,2,0,L|504:56,1,89.9999976158143,8|0,0:1|3:0,0:0:0:0:
280,136,163693,1,0,3:0:0:0:
208,192,163792,1,0,3:0:0:0:
208,272,163891,1,0,3:0:0:0:
392,327,163990,6,0,L|398:212,1,89.9999976158143,14|0,0:0|0:0,0:0:0:0:
280,272,164287,1,10,0:0:0:0:
397,238,164435,2,0,L|280:232,1,89.9999976158143,10|8,0:0|0:1,0:0:0:0:
192,224,164732,1,2,0:0:0:0:
309,177,164881,2,0,L|405:169,1,89.9999976158143,10|8,0:0|0:0,0:0:0:0:
192,224,165178,6,0,L|184:128,1,89.9999976158143,8|0,0:1|0:0,0:0:0:0:
304,88,165475,2,0,L|312:216,1,89.9999976158143,10|8,0:0|0:0,0:0:0:0:
192,336,165772,1,10,0:1:0:0:
312,296,165920,1,8,0:1:0:0:
192,224,166069,2,0,L|104:184,1,89.9999976158143,10|8,0:0|0:0,0:0:0:0:
368,56,166366,6,0,L|472:48,2,89.9999976158143,14|8|8,0:1|0:0|0:0,0:0:0:0:
152,56,166811,1,8,0:1:0:0:
96,152,166960,1,8,0:0:0:0:
144,240,167108,1,8,0:0:0:0:
384,320,167257,1,12,0:1:0:0:
464,256,167405,1,8,0:0:0:0:
384,200,167554,1,8,0:0:0:0:
160,136,167703,1,12,0:1:0:0:
280,120,167851,2,0,L|288:8,1,89.9999976158143,10|8,0:0|0:0,0:0:0:0:
72,32,168148,6,8,L|0:32,1,44.9999988079071,8|8,0:1|0:1,0:1:0:0:
24,88,168297,2,8,L|80:88,1,44.9999988079071,8|8,0:1|0:1,0:1:0:0:
224,312,168445,2,8,L|232:256,1,44.9999988079071,8|8,0:3|0:3,0:3:0:0:
96,152,168594,2,4,L|160:152,1,44.9999988079071,4|4,0:3|0:3,0:3:0:0:
304,152,168742,5,10,0:1:0:0:
416,152,168891,2,0,L|424:272,1,89.9999976158143,8|0,0:0|0:0,0:0:0:0:
208,280,169188,2,8,L|136:280,1,44.9999988079071
208,224,169336,1,8,0:1:0:0:
328,176,169485,1,8,0:0:0:0:
208,128,169633,1,8,0:1:0:0:
448,336,169782,6,0,P|456:248|208:8,1,449.999988079071,14|0,0:0|0:0,0:0:0:0:
392,96,170821,1,2,0:0:0:0:
224,176,171118,5,2,0:0:0:0:
80,328,177653,6,0,P|48:184|120:80,1,269.999992847443,8|0,0:3|0:0,0:0:0:0:
352,64,178247,5,14,0:1:0:0:
432,120,178396,1,8,0:0:0:0:
352,168,178544,1,8,0:1:0:0:
144,336,178693,2,0,P|48:256|48:176,1,179.999995231629,14|2,0:0|0:0,0:0:0:0:
256,192,179138,1,8,0:1:0:0:
376,176,179287,2,8,L|384:112,1,44.9999988079071
224,336,179435,5,14,0:0:0:0:
136,264,179584,1,8,0:0:0:0:
224,216,179732,1,8,0:1:0:0:
440,224,179881,2,0,P|440:120|360:64,1,179.999995231629,14|8,0:0|0:0,0:0:0:0:
264,64,180326,1,8,0:1:0:0:
384,32,180475,1,8,0:1:0:0:
168,120,180623,6,0,L|40:120,1,89.9999976158143,14|0,0:0|0:0,0:0:0:0:
320,336,180920,2,0,L|416:336,1,89.9999976158143,10|8,0:0|0:0,0:0:0:0:
264,256,181217,2,0,L|256:152,1,89.9999976158143,8|0,0:1|0:0,0:0:0:0:
464,152,181514,1,10,0:0:0:0:
320,144,181663,6,0,P|264:232|336:296,1,179.999995231629,8|8,0:0|0:1,0:0:0:0:
440,328,182108,2,0,L|320:328,1,89.9999976158143,8|8,0:0|0:0,0:0:0:0:
208,272,182405,1,8,0:1:0:0:
152,224,182554,1,8,0:0:0:0:
208,168,182703,1,10,0:0:0:0:
368,128,182851,1,2,0:0:0:0:
144,120,183000,5,10,0:0:0:0:
40,216,183148,2,0,L|32:24,1,179.999995231629,8|8,0:0|0:0,0:0:0:0:
184,256,183594,2,0,L|192:136,1,89.9999976158143,8|0,0:1|0:0,0:0:0:0:
48,80,183891,1,10,0:0:0:0:
272,80,184039,6,0,P|376:152|376:216,1,179.999995231629,10|8,0:0|0:0,0:0:0:0:
248,248,184485,1,8,0:1:0:0:
376,304,184633,2,8,L|448:304,2,44.9999988079071,8|8|8,0:0|0:0|0:1,0:0:0:0:
160,304,184930,1,8,0:1:0:0:
72,224,185079,1,8,0:3:0:0:
160,152,185227,1,4,0:3:0:0:
408,56,185376,6,0,L|216:56,1,179.999995231629,14|0,0:0|0:0,0:0:0:0:
336,136,185821,1,8,0:0:0:0:
208,312,185970,2,0,P|168:208|240:176,1,179.999995231629,8|10,0:1|0:0,0:0:0:0:
448,264,186415,6,0,P|488:184|408:120,1,179.999995231629,10|8,0:0|0:1,0:0:0:0:
304,128,186861,2,0,L|296:240,1,89.9999976158143,10|8,0:0|0:0,0:0:0:0:
408,248,187158,1,8,0:1:0:0:
296,272,187306,1,8,0:3:0:0:
184,296,187455,1,6,0:3:0:0:
296,344,187604,2,8,L|360:344,1,44.9999988079071
112,328,187752,5,14,0:1:0:0:
24,272,187901,2,0,L|27:143,1,89.9999976158143,8|8,0:0|0:0,0:0:0:0:
232,208,188198,1,14,0:1:0:0:
336,152,188346,1,8,0:0:0:0:
216,112,188495,2,8,L|136:112,1,44.9999988079071
352,48,188643,6,0,L|464:48,2,89.9999976158143,14|8|8,0:1|0:0|0:0,0:0:0:0:
112,136,189089,1,8,0:1:0:0:
232,232,189237,2,0,L|240:104,1,89.9999976158143,8|8,0:1|0:0,0:0:0:0:
176,128,189460,1,8,0:0:0:0:
120,112,189534,1,8,0:1:0:0:
248,80,189683,1,8,0:1:0:0:
128,56,189831,1,8,0:1:0:0:
16,32,189980,1,8,0:1:0:0:
248,32,190128,6,0,B|336:24|392:80|384:192|168:256|392:408|432:256,1,449.999988079071,2|0,0:0|0:0,0:0:0:0:
216,352,191019,1,2,0:0:0:0:
336,328,191168,2,0,L|344:208,1,89.9999976158143,14|0,0:0|0:0,0:0:0:0:
104,224,191465,1,8,0:1:0:0:
368,184,191613,6,0,L|248:184,1,89.9999976158143,4|8,0:3|0:0,0:0:0:0:
48,176,191910,2,8,L|24:104,1,44.9999988079071,12|8,0:1|0:1,0:1:0:0:
48,80,192059,2,8,L|112:64,1,44.9999988079071,8|8,0:1|0:1,0:1:0:0:
256,64,192207,2,8,L|312:112,1,44.9999988079071,8|8,0:1|0:1,0:1:0:0:
135,192,192356,2,8,L|95:232,1,44.9999988079071,8|8,0:1|0:1,0:1:0:0:
296,248,192505,6,0,L|416:248,1,89.9999976158143,14|0,0:0|0:0,0:0:0:0:
256,128,192802,2,0,L|368:128,1,89.9999976158143,10|8,0:0|0:0,0:0:0:0:
480,160,193099,2,0,L|488:272,1,89.9999976158143,10|0,0:1|0:0,0:0:0:0:
264,336,193396,1,10,0:0:0:0:
152,328,193544,6,0,P|120:224|168:168,1,179.999995231629,8|8,0:0|0:1,0:0:0:0:
384,208,193990,2,0,L|392:80,1,89.9999976158143,10|0,0:0|0:0,0:0:0:0:
280,80,194287,1,8,0:1:0:0:
392,56,194435,1,10,0:0:0:0:
160,32,194584,2,0,L|56:32,1,89.9999976158143,10|8,0:0|0:1,0:0:0:0:
296,296,194881,5,14,0:0:0:0:
166,291,195029,2,0,L|158:83,1,179.999995231629,8|8,0:0|0:0,0:0:0:0:
296,200,195475,2,0,L|304:96,1,89.9999976158143,8|0,0:1|0:0,0:0:0:0:
160,112,195772,1,10,0:0:0:0:
386,253,195920,6,0,P|369:166|302:109,1,179.999995231629,8|8,0:0|0:1,0:0:0:0:
64,112,196366,2,0,L|184:112,1,89.9999976158143,10|0,0:0|0:0,0:0:0:0:
272,168,196663,1,8,0:1:0:0:
152,232,196811,1,8,0:0:0:0:
379,342,196960,2,0,L|387:230,1,89.9999976158143,14|0,0:1|0:0,0:0:0:0:
152,144,197257,5,14,0:1:0:0:
56,184,197405,1,8,0:0:0:0:
152,232,197554,1,8,0:0:0:0:
385,252,197703,2,0,L|281:252,1,89.9999976158143,14|8,0:1|0:0,0:0:0:0:
152,256,198000,1,8,0:0:0:0:
248,192,198148,1,10,0:1:0:0:
152,144,198297,1,8,0:0:0:0:
384,184,198445,5,14,0:0:0:0:
280,112,198594,1,8,0:0:0:0:
384,64,198742,1,8,0:1:0:0:
152,352,198891,2,0,P|72:304|80:192,1,179.999995231629,14|8,0:0|0:0,0:0:0:0:
192,192,199336,1,8,0:1:0:0:
64,160,199485,1,8,0:1:0:0:
272,352,199633,6,0,L|384:352,1,89.9999976158143,14|0,0:0|0:0,0:0:0:0:
512,256,199930,2,0,L|392:256,1,89.9999976158143,10|8,0:0|0:0,0:0:0:0:
272,240,200227,2,0,L|264:120,1,89.9999976158143,8|0,0:1|0:0,0:0:0:0:
496,128,200524,1,2,0:0:0:0:
392,112,200673,6,0,L|184:88,1,179.999995231629,8|8,0:0|0:1,0:0:0:0:
312,280,201118,2,0,L|320:160,1,89.9999976158143,10|8,0:0|0:0,0:0:0:0:
184,40,201415,1,8,0:1:0:0:
104,88,201564,1,8,0:0:0:0:
184,144,201712,1,10,0:0:0:0:
317,190,201861,2,8,L|373:190,1,44.9999988079071
192,352,202009,5,14,0:0:0:0:
64,336,202158,2,0,L|56:144,1,179.999995231629,8|8,0:0|0:0,0:0:0:0:
200,160,202604,2,0,L|312:160,1,89.9999976158143,8|8,0:1|0:0,0:0:0:0:
192,64,202901,1,2,0:0:0:0:
424,32,203049,6,0,L|216:32,1,179.999995231629,10|8,0:0|0:1,0:0:0:0:
456,144,203495,2,0,L|464:256,1,89.9999976158143,14|0,0:0|0:0,0:0:0:0:
240,360,203792,1,8,3:0:0:0:
176,312,203891,1,8,3:0:0:0:
184,232,203990,1,8,3:0:0:0:
288,176,204089,1,4,3:0:0:0:
256,104,204188,1,4,3:0:0:0:
184,56,204287,1,4,3:0:0:0:
16,256,204386,6,0,L|8:144,1,89.9999976158143,14|0,0:0|0:0,0:0:0:0:
128,136,204683,1,8,0:0:0:0:
8,112,204831,1,8,0:0:0:0:
256,344,204980,2,0,L|264:240,1,89.9999976158143,14|0,0:1|0:0,0:0:0:0:
136,216,205277,1,2,0:0:0:0:
272,88,205425,6,0,P|360:128|376:232,1,179.999995231629,2|8,0:0|0:1,0:0:0:0:
256,240,205871,1,8,0:0:0:0:
384,272,206019,2,8,L|432:272,2,44.9999988079071,8|8|8,0:0|0:0|0:1,0:0:0:0:
256,344,206316,1,8,0:3:0:0:
152,264,206465,2,0,L|144:376,1,89.9999976158143,4|0,0:3|0:0,0:0:0:0:
384,272,206762,6,0,P|416:200|352:120,1,179.999995231629,14|0,0:0|0:0,0:0:0:0:
224,328,207207,2,0,P|248:96|432:32,1,449.999988079071,2|0,0:0|0:0,0:0:0:0:
192,256,208247,5,2,0:0:0:0:
376,344,208544,2,0,L|368:224,1,89.9999976158143,2|2,0:0|0:0,0:0:0:0:
248,232,208841,2,0,L|128:208,1,89.9999976158143,2|0,0:0|0:0,0:0:0:0:
392,80,209138,5,14,0:0:0:0:
488,176,209287,2,0,P|416:296|352:312,1,179.999995231629,8|0,0:0|0:0,0:0:0:0:
240,344,209732,2,0,L|232:224,1,89.9999976158143,8|0,0:1|0:0,0:0:0:0:
368,240,210029,1,2,0:0:0:0:
232,248,210178,6,0,P|144:208|136:120,1,179.999995231629,10|8,0:0|0:1,0:0:0:0:
240,112,210623,1,10,0:0:0:0:
320,160,210772,1,8,0:0:0:0:
320,248,210920,1,8,0:1:0:0:
240,312,211069,1,8,0:0:0:0:
120,328,211217,1,2,0:0:0:0:
240,344,211366,1,8,0:0:0:0:
448,336,211514,5,10,0:0:0:0:
336,328,211663,2,0,L|328:144,1,179.999995231629,8|8,0:0|0:0,0:0:0:0:
456,104,212108,2,0,L|464:224,1,89.9999976158143,8|0,0:1|0:0,0:0:0:0:
208,112,212405,1,2,0:0:0:0:
328,148,212554,6,0,P|264:252|184:268,1,179.999995231629,8|8,0:0|0:1,0:0:0:0:
96,320,213000,2,0,L|200:320,1,89.9999976158143,10|8,0:0|0:0,0:0:0:0:
320,320,213297,1,8,0:1:0:0:
192,264,213445,1,8,0:0:0:0:
320,216,213594,2,0,L|448:216,1,89.9999976158143,8|0,0:1|0:1,0:1:0:0:
192,80,213891,5,14,0:0:0:0:
64,88,214039,2,0,P|24:168|80:264,1,179.999995231629,8|0,0:0|0:0,0:0:0:0:
272,352,214485,2,0,L|280:224,1,89.9999976158143,8|8,0:1|0:0,0:0:0:0:
168,256,214782,1,10,0:1:0:0:
400,256,214930,6,0,P|440:152|384:104,1,179.999995231629,2|8,0:0|0:1,0:0:0:0:
248,104,215376,1,10,0:0:0:0:
344,160,215524,1,8,0:0:0:0:
296,184,215599,1,8,0:0:0:0:
248,208,215673,1,8,0:1:0:0:
368,256,215821,1,8,0:3:0:0:
456,304,215970,1,4,0:3:0:0:
368,352,216118,1,8,0:0:0:0:
136,352,216267,5,10,0:1:0:0:
24,320,216415,2,0,P|24:224|88:144,1,179.999995231629,8|8,0:0|0:0,0:0:0:0:
336,120,216861,2,0,L|232:120,1,89.9999976158143,8|8,0:1|0:0,0:0:0:0:
136,120,217158,1,8,0:1:0:0:
384,192,217306,6,0,P|424:240|368:352,1,179.999995231629,14|0,0:0|0:0,0:0:0:0:
128,352,217752,2,0,L|120:240,1,89.9999976158143,8|0,0:1|0:0,0:0:0:0:
336,128,218049,2,0,L|440:128,1,89.9999976158143,10|0,0:1|0:0,0:0:0:0:
160,40,218346,2,0,L|56:40,1,89.9999976158143,10|0,0:1|0:0,0:0:0:0:
336,128,218643,5,14,0:0:0:0:
456,136,218792,2,0,L|464:344,1,179.999995231629,8|8,0:0|0:0,0:0:0:0:
344,344,219237,2,0,L|472:344,1,89.9999976158143,8|0,0:1|0:0,0:0:0:0:
336,256,219534,1,8,0:0:0:0:
88,344,219683,6,0,P|40:272|120:208,1,179.999995231629,14|0,0:0|0:0,0:0:0:0:
224,208,220128,2,0,L|232:96,1,89.9999976158143,10|8,0:0|0:0,0:0:0:0:
96,192,220425,2,0,L|104:88,1,89.9999976158143,10|8,0:1|0:0,0:0:0:0:
232,72,220722,1,10,0:0:0:0:
104,48,220871,1,10,0:0:0:0:
320,344,221019,5,14,0:0:0:0:
448,312,221168,2,0,L|456:112,1,179.999995231629,8|8,0:0|0:0,0:0:0:0:
208,64,221613,1,8,0:1:0:0:
320,112,221762,1,8,0:0:0:0:
208,168,221910,1,10,0:1:0:0:
456,312,222059,6,0,P|416:208|320:176,1,179.999995231629,14|8,0:0|0:1,0:0:0:0:
224,216,222505,1,10,0:0:0:0:
352,280,222653,2,8,L|416:280,2,44.9999988079071,8|8|8,0:0|0:0|0:1,0:0:0:0:
224,288,222950,1,8,0:1:0:0:
344,240,223099,1,8,0:1:0:0:
464,200,223247,1,8,0:1:0:0:
216,96,223396,5,14,0:0:0:0:
128,160,223544,1,2,0:0:0:0:
216,240,223693,1,2,0:0:0:0:
368,248,223841,1,10,0:0:0:0:
424,296,223989,1,10,0:1:0:0:
368,344,224138,1,2,0:0:0:0:
160,344,224287,5,2,0:0:0:0:
248,280,224435,1,10,0:0:0:0:
168,224,224584,1,2,0:0:0:0:
32,168,224732,1,10,0:1:0:0:
120,120,224881,1,10,0:0:0:0:
32,80,225029,1,2,0:0:0:0:
264,56,225178,1,10,0:1:0:0:
287,110,225277,1,2,0:0:0:0:
275,167,225376,1,2,0:0:0:0:
231,208,225475,1,2,0:0:0:0:
344,224,225623,1,8,0:0:0:0:
136,112,225772,6,0,P|40:176|32:264,1,179.999995231629,14|0,0:0|0:0,0:0:0:0:
176,312,226217,1,8,0:1:0:0:
32,323,226366,2,0,L|24:195,1,89.9999976158143,8|8,0:0|0:0,0:0:0:0:
80,216,226589,1,8,0:0:0:0:
136,208,226663,1,8,0:1:0:0:
360,352,226811,6,0,P|408:272|336:216,1,179.999995231629,14|8,0:0|0:0,0:0:0:0:
248,288,227257,1,8,0:0:0:0:
208,224,227356,1,8,0:0:0:0:
248,144,227455,1,8,0:0:0:0:
328,136,227554,1,8,0:1:0:0:
376,80,227653,1,8,0:3:0:0:
328,32,227752,1,8,0:3:0:0:
216,128,227851,1,4,0:3:0:0:
176,80,227950,1,4,0:3:0:0:
216,40,228049,1,4,0:3:0:0:
392,32,228148,5,14,0:0:0:0:
256,192,228297,12,0,237505,0:0:0:0:
