osu file format v14

[General]
AudioFilename: audio.mp3
AudioLeadIn: 0
PreviewTime: 130128
Countdown: 0
SampleSet: Soft
StackLeniency: 0.7
Mode: 2
LetterboxInBreaks: 0
WidescreenStoryboard: 1

[Editor]
DistanceSpacing: 0.6
BeatDivisor: 8
GridSize: 8
TimelineZoom: 2.1

[Metadata]
Title:Futatsu no Hikari
TitleUnicode:二つの光
Artist:Yumeno Yuki
ArtistUnicode:夢乃ゆき
Creator:-Luminate
Version:Platter
Source:クダンノフォークロア
Tags:kudan no folklore SukeraSparo opening visual novel japanese video game pop jpop j-pop full version the curse of vgm videogame
BeatmapID:3952435
BeatmapSetID:1880396

[Difficulty]
HPDrainRate:4
CircleSize:3.5
OverallDifficulty:8
ApproachRate:8
SliderMultiplier:3.02999990463257
SliderTickRate:4

[Events]
//Background and Video events
0,0,"bg.jpg",0,0
//Break Periods
2,81021,88834
2,171318,176903
//Storyboard Layer 0 (Background)
//Storyboard Layer 1 (Fail)
//Storyboard Layer 2 (Pass)
//Storyboard Layer 3 (Foreground)
//Storyboard Layer 4 (Overlay)
//Storyboard Sound Samples

[TimingPoints]
2406,594.059405940594,4,2,1,20,1,0
38049,-100,4,2,1,28,0,0
39534,-100,4,2,1,40,0,0
42207,-100,4,2,2,55,0,0
59435,-100,4,2,2,60,0,0
61811,-100,4,2,2,75,0,1
80821,-100,4,2,2,60,0,0
89584,-100,4,2,2,50,0,0
108148,-100,4,2,2,55,0,0
109336,-100,4,2,2,40,0,0
118841,-100,4,2,2,50,0,0
128346,-100,4,2,2,55,0,0
130128,-100,4,2,2,60,0,0
130722,-100,4,2,2,75,0,1
148693,-100,4,2,2,55,0,1
148990,-100,4,2,2,63,0,1
149435,-100,4,2,2,75,0,0
149732,-100,4,2,2,75,0,1
163990,-100,4,2,2,65,0,1
166366,-100,4,2,2,75,0,1
169782,-100,4,2,2,70,0,0
169930,-100,4,2,2,35,0,0
177653,-100,4,2,2,60,0,0
178247,-100,4,2,2,75,0,1
190128,-100,4,2,2,50,0,0
191168,-100,4,2,2,75,0,1
192356,-100,4,2,2,75,0,0
192505,-100,4,2,2,75,0,1
206762,-100,4,2,2,60,0,0
208247,-100,4,2,2,40,0,0
209138,-100,4,2,2,70,0,0
228148,-100,4,2,2,50,0,0
228297,-100,4,2,2,25,0,0

[Colours]
Combo1 : 162,162,162
Combo2 : 189,128,36
Combo3 : 81,168,255
Combo4 : 186,116,116

[HitObjects]
144,160,2406,5,2,0:0:0:0:
96,224,2703,1,0,0:0:0:0:
144,288,3000,1,2,0:0:0:0:
272,288,3297,1,0,0:0:0:0:
272,288,3445,1,2,0:0:0:0:
48,336,3891,5,0,0:0:0:0:
48,248,4188,1,2,0:0:0:0:
152,208,4485,1,0,0:0:0:0:
408,168,4782,5,2,0:0:0:0:
456,232,5079,1,0,0:0:0:0:
408,296,5376,1,2,0:0:0:0:
280,296,5673,1,0,0:0:0:0:
280,296,5821,1,2,0:0:0:0:
280,296,6267,5,0,0:0:0:0:
184,296,6564,2,0,L|184:136,1,151.499995231629,2|0,0:0|0:0,0:0:0:0:
400,288,7158,6,0,L|400:112,1,151.499995231629,2|0,0:0|0:0,0:0:0:0:
320,136,7752,1,2,0:0:0:0:
432,88,8049,1,0,0:0:0:0:
432,88,8198,1,2,0:0:0:0:
288,88,8643,5,0,0:0:0:0:
376,304,8940,2,0,L|376:136,1,151.499995231629,2|0,0:0|0:0,0:0:0:0:
128,304,9534,6,0,L|128:128,1,151.499995231629,2|0,0:0|0:0,0:0:0:0:
216,152,10128,1,2,0:0:0:0:
72,88,10425,1,0,0:0:0:0:
72,88,10574,1,2,0:0:0:0:
232,72,11019,5,0,0:0:0:0:
144,112,11316,2,0,P|104:176|160:240,1,151.499995231629,2|0,0:0|0:0,0:0:0:0:
392,336,11910,5,2,0:0:0:0:
432,272,12059,1,0,3:0:0:0:
392,208,12207,1,0,3:0:0:0:
256,160,12505,1,8,3:1:0:0:
392,104,12802,1,0,0:0:0:0:
392,104,12950,1,2,0:0:0:0:
256,312,13247,5,8,0:1:0:0:
328,296,13396,1,2,0:0:0:0:
192,184,13693,1,8,0:1:0:0:
328,104,13990,1,0,0:0:0:0:
88,320,14287,6,0,L|88:144,1,151.499995231629,2|0,0:0|0:0,0:0:0:0:
216,160,14881,1,8,0:1:0:0:
88,136,15178,1,0,0:0:0:0:
88,136,15326,1,2,0:0:0:0:
208,352,15623,5,8,0:1:0:0:
280,328,15772,2,0,L|144:224,1,151.499995231629,2|8,0:0|0:1,0:0:0:0:
272,208,16366,1,0,3:0:0:0:
272,208,16514,1,8,0:1:0:0:
136,208,16663,6,0,L|32:96,2,151.499995231629,2|0|8,0:0|0:0|0:1,0:0:0:0:
256,288,17554,1,0,0:0:0:0:
256,288,17703,1,2,0:0:0:0:
392,296,18000,5,8,0:1:0:0:
312,296,18149,2,0,L|312:120,1,151.499995231629,2|8,0:0|0:1,0:0:0:0:
448,144,18743,1,0,0:0:0:0:
192,232,19040,6,0,L|192:80,1,151.499995231629,2|0,0:0|0:0,0:0:0:0:
312,80,19634,1,8,0:1:0:0:
192,64,19931,1,0,0:0:0:0:
192,64,20079,1,2,0:0:0:0:
344,336,20376,5,8,0:1:0:0:
264,328,20524,2,8,L|256:144,1,151.499995231629,0|8,3:0|0:1,0:1:0:0:
392,176,21119,1,0,3:0:0:0:
464,176,21267,1,8,0:1:0:0:
304,328,21415,6,0,P|231:264|328:96,1,302.999990463257,2|8,0:0|0:1,0:0:0:0:
224,56,22306,1,2,0:0:0:0:
304,56,22455,6,0,P|336:128|288:192,1,151.499995231629,2|8,0:0|0:1,0:0:0:0:
224,184,22901,2,0,L|216:360,1,151.499995231629,2|8,0:0|0:1,0:0:0:0:
344,336,23495,1,0,3:0:0:0:
344,336,23643,1,8,0:1:0:0:
208,336,23792,6,0,P|119:297|95:217,1,151.499995231629,2|0,0:0|0:0,0:0:0:0:
216,272,24386,2,0,L|224:96,1,151.499995231629,8|0,0:1|0:0,0:0:0:0:
136,256,24831,2,8,L|128:104,1,151.499995231629,2|8,0:0|0:1,0:1:0:0:
216,96,25277,1,2,0:0:0:0:
96,48,25574,5,8,0:1:0:0:
232,24,25871,1,0,3:0:0:0:
296,48,26019,1,8,0:1:0:0:
160,112,26168,6,0,P|128:168|192:248,1,151.499995231629,2|0,0:0|0:0,0:0:0:0:
248,232,26613,2,8,L|304:288,1,75.7499976158143,2|8,0:0|0:1,0:1:0:0:
56,336,27059,6,0,P|80:224|192:168,1,227.249992847443,2|8,0:0|0:1,0:0:0:0:
240,168,27653,1,2,0:0:0:0:
136,336,27950,2,2,L|128:168,1,151.499995231629,8|0,0:1|0:0,0:0:0:0:
384,168,28544,6,0,L|392:344,1,151.499995231629,2|0,0:0|0:0,0:0:0:0:
312,272,28990,2,0,L|312:368,1,75.7499976158143,2|8,0:0|0:1,0:0:0:0:
390,319,29287,1,2,0:0:0:0:
456,304,29435,1,2,0:0:0:0:
280,200,29881,5,8,0:1:0:0:
280,200,30029,1,0,3:0:0:0:
400,144,30326,1,8,0:1:0:0:
280,96,30623,1,0,3:0:0:0:
216,128,30772,1,8,0:1:0:0:
368,344,30920,6,0,P|448:304|464:216,1,151.499995231629,2|0,0:0|0:0,0:0:0:0:
320,200,31514,1,8,0:1:0:0:
432,144,31811,1,2,0:0:0:0:
352,144,31960,6,8,P|312:200|368:272,1,151.499995231629,2|8,0:0|0:1,0:1:0:0:
400,336,32405,2,0,L|256:240,1,151.499995231629,2|8,0:0|0:1,0:0:0:0:
344,168,33000,1,2,0:0:0:0:
344,168,33148,1,0,0:0:0:0:
200,272,33297,6,0,L|192:112,1,151.499995231629,2|0,0:0|0:0,0:0:0:0:
344,168,33891,2,0,L|352:352,1,151.499995231629,8|0,0:1|3:0,0:0:0:0:
280,320,34336,2,0,P|200:288|192:208,1,151.499995231629,2|8,0:0|0:1,0:0:0:0:
256,216,34782,1,2,0:0:0:0:
368,160,35079,1,8,0:1:0:0:
224,96,35376,1,0,3:0:0:0:
224,96,35524,1,8,0:1:0:0:
392,96,35673,6,0,P|464:176|376:344,1,302.999990463257,2|8,0:0|0:1,0:0:0:0:
144,336,36564,1,2,0:0:0:0:
72,336,36712,6,8,P|48:240|104:208,1,151.499995231629,2|8,0:0|0:1,0:1:0:0:
152,208,37158,2,0,L|264:88,1,151.499995231629,0|8,3:0|0:1,0:0:0:0:
136,64,37752,1,2,0:0:0:0:
136,64,37901,1,0,0:0:0:0:
304,64,38049,6,0,P|352:256|272:280,1,302.999990463257,2|8,0:0|0:1,0:0:0:0:
32,352,38940,2,0,L|32:24,1,302.999990463257,14|8,0:0|0:3,0:0:0:0:
152,128,39831,1,4,0:3:0:0:
32,176,40128,1,4,0:3:0:0:
392,344,40425,6,0,P|424:256|376:208,1,151.499995231629,14|0,0:0|0:0,0:0:0:0:
312,208,40871,1,8,0:1:0:0:
312,208,41019,1,8,0:0:0:0:
424,176,41316,1,2,0:0:0:0:
288,344,41465,6,0,P|262:242|302:210,1,151.499995231629,2|0,0:0|0:0,0:0:0:0:
360,200,41910,2,0,P|392:144|320:80,1,151.499995231629,10|8,0:0|0:1,0:0:0:0:
216,80,42505,1,2,0:0:0:0:
448,320,42802,6,8,L|288:160,2,227.249992847443,10|8|8,0:0|0:1|0:0,0:0:0:0:
296,352,43990,2,0,P|216:280|232:152,1,227.249992847443,2|2,0:0|0:0,0:0:0:0:
304,296,44584,2,0,L|312:128,1,151.499995231629,8|0,0:1|0:0,0:0:0:0:
240,144,45029,1,2,0:0:0:0:
24,280,45178,6,0,L|16:104,1,151.499995231629,10|0,0:0|0:0,0:0:0:0:
104,120,45623,1,8,0:1:0:0:
112,56,45772,1,8,0:0:0:0:
16,48,46069,1,2,0:0:0:0:
160,144,46217,6,0,P|192:224|136:272,1,151.499995231629,2|0,0:0|0:0,0:0:0:0:
80,256,46663,2,0,L|216:376,2,151.499995231629,2|10|2,0:0|0:1|0:0,0:0:0:0:
336,352,47554,6,0,L|344:120,1,227.249992847443,10|8,0:0|0:1,0:0:0:0:
152,128,48445,2,0,L|136:312,1,151.499995231629,2|8,0:0|0:3,0:0:0:0:
216,344,48891,2,0,L|64:248,1,151.499995231629,4|8,0:3|0:3,0:0:0:0:
48,184,49336,1,8,0:3:0:0:
24,112,49485,1,8,0:3:0:0:
56,40,49633,1,4,0:3:0:0:
416,344,49930,6,0,L|424:168,1,151.499995231629,14|2,0:0|0:0,0:0:0:0:
296,176,50376,2,0,L|424:80,1,151.499995231629,2|2,0:0|0:0,0:0:0:0:
264,352,50970,1,2,0:0:0:0:
176,352,51118,6,0,L|168:184,1,151.499995231629,8|0,0:0|0:0,0:0:0:0:
312,296,51712,2,0,L|320:136,1,151.499995231629,8|2,0:0|0:0,0:0:0:0:
240,144,52158,1,0,3:0:0:0:
80,152,52306,6,0,L|248:336,2,227.249992847443,10|2|2,0:0|0:0|0:0,0:0:0:0:
72,256,53495,1,8,0:0:0:0:
184,216,53792,1,2,0:0:0:0:
304,184,54089,1,10,0:0:0:0:
88,120,54386,1,2,0:0:0:0:
344,312,54683,6,0,P|392:160|304:64,1,302.999990463257,10|8,0:0|0:0,0:0:0:0:
88,296,55574,1,2,0:0:0:0:
168,304,55722,6,0,L|176:192,1,75.7499976158143,2|8,0:0|0:0,0:0:0:0:
288,248,56168,1,8,0:0:0:0:
56,240,56465,2,0,L|48:64,1,151.499995231629,12|0,0:1|0:0,0:0:0:0:
424,80,57059,6,0,L|432:256,1,151.499995231629,14|2,0:0|0:0,0:0:0:0:
272,352,57505,2,0,L|264:248,1,75.7499976158143,2|8,0:0|0:0,0:0:0:0:
344,280,57802,2,0,L|352:200,1,75.7499976158143,2|8,0:0|0:0,0:0:0:0:
208,208,58099,1,2,0:0:0:0:
144,200,58247,6,0,L|136:32,1,151.499995231629,8|8,0:0|0:1,0:0:0:0:
288,48,58693,1,8,0:0:0:0:
312,80,58767,1,8,0:0:0:0:
288,112,58841,1,8,0:1:0:0:
208,112,58990,1,8,0:1:0:0:
72,320,59138,2,0,L|64:216,1,75.7499976158143,8|4,0:3|0:3,0:0:0:0:
296,336,59435,6,0,P|368:288|376:224,1,151.499995231629,14|8,0:0|0:1,0:0:0:0:
240,224,59881,2,0,P|208:144|248:104,1,151.499995231629,14|8,0:0|0:1,0:0:0:0:
392,64,60326,2,0,L|304:40,1,75.7499976158143,14|0,0:0|0:0,0:0:0:0:
104,48,60623,6,8,L|40:48,2,37.8749988079071,8|8|8,0:1|0:1|0:1,0:1:0:0:
256,48,60920,1,8,0:3:0:0:
288,72,60994,1,8,0:3:0:0:
312,96,61068,1,4,0:3:0:0:
256,192,61217,1,8,0:1:0:0:
40,176,61366,2,0,L|32:360,1,151.499995231629,8|0,0:1|0:0,0:0:0:0:
256,344,61811,5,14,0:0:0:0:
336,344,61960,2,0,P|368:264|312:192,1,151.499995231629,8|8,0:0|0:0,0:0:0:0:
200,200,62406,2,0,P|168:112|216:56,1,151.499995231629,8|2,0:1|0:0,0:0:0:0:
424,80,62851,6,0,P|456:176|408:216,1,151.499995231629,2|8,0:0|0:1,0:0:0:0:
352,208,63297,1,8,0:0:0:0:
312,280,63445,1,8,0:0:0:0:
478,329,63594,2,0,P|470:233|398:201,1,151.499995231629,8|10,0:1|0:0,0:0:0:0:
352,200,64039,1,2,0:0:0:0:
136,336,64188,6,0,L|128:240,1,75.7499976158143,10|0,0:0|0:0,0:0:0:0:
208,280,64485,2,0,L|216:192,1,75.7499976158143,2|0,0:0|0:0,0:0:0:0:
72,208,64782,2,0,L|64:104,1,75.7499976158143,10|0,0:1|0:0,0:0:0:0:
216,128,65079,1,10,0:0:0:0:
296,240,65227,6,0,L|304:64,1,151.499995231629,8|8,0:0|0:1,0:0:0:0:
144,112,65673,2,0,L|136:32,1,75.7499976158143,10|8,0:0|0:0,0:0:0:0:
216,152,65970,1,10,0:1:0:0:
144,176,66118,1,10,0:0:0:0:
304,344,66267,2,8,L|312:264,1,75.7499976158143,10|8,0:0|0:1,0:1:0:0:
96,336,66564,5,14,0:0:0:0:
24,296,66712,2,0,L|16:136,1,151.499995231629,8|8,0:0|0:0,0:0:0:0:
176,112,67158,2,0,L|184:288,1,151.499995231629,8|10,0:1|0:0,0:0:0:0:
104,264,67604,6,0,L|240:360,1,151.499995231629,10|8,0:0|0:1,0:0:0:0:
376,320,68049,2,0,P|416:280|360:208,1,151.499995231629,10|8,0:0|0:1,0:0:0:0:
224,160,68495,1,8,0:1:0:0:
152,128,68643,1,8,0:3:0:0:
152,48,68792,1,4,0:3:0:0:
384,48,68940,6,0,L|392:224,1,151.499995231629,14|8,0:0|0:1,0:0:0:0:
240,208,69386,2,2,P|208:296|272:344,1,151.499995231629,14|2,0:0|0:0,0:0:0:0:
312,336,69831,1,8,0:1:0:0:
240,336,69980,1,10,0:0:0:0:
24,264,70128,5,14,0:0:0:0:
16,192,70277,1,8,0:0:0:0:
64,128,70425,1,8,0:1:0:0:
224,216,70574,2,0,P|264:176|216:104,1,151.499995231629,14|0,0:0|1:0,0:0:0:0:
144,72,71019,1,0,1:0:0:0:
216,40,71168,1,8,0:1:0:0:
432,344,71316,6,0,L|440:168,1,151.499995231629,14|10,0:0|0:0,0:0:0:0:
176,240,71910,2,0,L|168:136,1,75.7499976158143,10|0,0:1|0:0,0:0:0:0:
312,168,72207,1,10,0:0:0:0:
384,160,72356,6,8,P|416:96|360:40,1,151.499995231629,8|8,0:0|0:1,0:1:0:0:
304,296,72802,2,0,L|296:200,1,75.7499976158143,8|8,0:0|0:0,0:0:0:0:
384,232,73099,2,0,L|256:112,1,151.499995231629,8|10,0:1|0:0,0:0:0:0:
360,104,73544,1,8,0:0:0:0:
144,344,73693,5,10,0:0:0:0:
64,336,73841,2,8,L|56:160,1,151.499995231629
200,240,74287,2,0,L|208:144,1,75.7499976158143,8|0,0:1|0:0,0:0:0:0:
136,160,74584,1,10,0:0:0:0:
352,208,74732,6,0,P|384:296|328:328,1,151.499995231629,2|8,0:0|0:1,0:0:0:0:
200,328,75178,1,8,0:0:0:0:
192,240,75326,1,8,0:0:0:0:
408,208,75475,1,8,0:1:0:0:
448,144,75623,1,8,0:1:0:0:
432,64,75772,1,8,0:3:0:0:
360,32,75920,1,4,0:3:0:0:
128,208,76069,6,0,P|104:128|160:72,1,151.499995231629,14|0,0:0|0:0,0:0:0:0:
216,80,76514,1,8,0:0:0:0:
352,232,76663,2,0,L|360:136,1,75.7499976158143,8|0,0:1|0:0,0:0:0:0:
280,152,76960,1,10,0:0:0:0:
136,176,77108,6,0,L|256:296,1,151.499995231629,2|8,0:0|0:1,0:0:0:0:
320,296,77554,2,0,L|328:192,1,75.7499976158143,8|8,0:0|0:0,0:0:0:0:
168,352,77851,2,0,L|160:256,1,75.7499976158143,10|8,0:1|0:3,0:0:0:0:
248,288,78148,2,0,L|256:192,1,75.7499976158143,4|0,0:3|0:0,0:0:0:0:
24,208,78445,6,0,P|48:120|128:96,1,151.499995231629,14|8,0:0|0:0,0:0:0:0:
224,184,78891,2,0,L|96:280,1,151.499995231629,14|8,0:1|0:0,0:0:0:0:
328,336,79336,6,0,P|360:288|304:208,1,151.499995231629,14|8,0:1|0:0,0:0:0:0:
176,192,79782,1,8,0:1:0:0:
168,120,79930,1,8,0:1:0:0:
256,96,80079,2,0,L|304:56,2,37.8749988079071,8|8|8,0:0|0:0|0:1,0:0:0:0:
104,232,80376,1,8,0:1:0:0:
48,288,80524,1,8,0:1:0:0:
104,344,80673,1,8,0:3:0:0:
336,336,80821,5,14,0:0:0:0:
224,272,89584,6,8,L|160:272,2,37.8749988079071,8|8|8,0:0|0:0|0:1,0:0:0:0:
296,272,89881,2,0,P|344:208|328:112,1,151.499995231629,8|0,0:0|0:0,0:0:0:0:
128,136,90326,5,14,0:0:0:0:
48,144,90475,1,2,0:0:0:0:
264,208,90772,1,10,0:0:0:0:
336,248,90920,1,8,0:1:0:0:
136,256,91217,1,10,0:0:0:0:
208,288,91366,1,10,0:0:0:0:
344,288,92108,5,0,0:0:0:0:
352,200,92257,1,8,0:1:0:0:
360,104,92406,1,8,0:0:0:0:
144,104,92703,5,2,0:0:0:0:
288,176,93000,1,8,0:0:0:0:
24,208,93297,1,8,0:1:0:0:
128,272,93594,1,10,0:0:0:0:
56,304,93742,1,2,0:0:0:0:
232,352,94336,5,8,0:0:0:0:
224,272,94484,1,8,0:1:0:0:
216,192,94633,1,8,0:0:0:0:
128,160,94782,2,0,L|136:64,1,75.7499976158143,2|2,0:0|0:0,0:0:0:0:
352,48,95079,5,10,0:0:0:0:
424,88,95227,1,2,0:0:0:0:
200,184,95524,1,8,0:0:0:0:
128,224,95673,1,10,0:1:0:0:
360,296,95970,1,10,0:0:0:0:
288,336,96118,1,10,0:0:0:0:
128,344,96861,5,0,3:0:0:0:
120,264,97009,1,8,0:1:0:0:
112,184,97158,1,8,0:0:0:0:
288,184,97455,5,2,0:0:0:0:
144,104,97752,1,10,0:0:0:0:
416,64,98049,1,10,0:1:0:0:
288,128,98346,1,10,0:0:0:0:
360,152,98495,1,10,0:0:0:0:
224,320,99089,6,8,L|160:320,2,37.8749988079071,8|8|8,0:0|0:0|0:1,0:0:0:0:
440,320,99386,2,0,P|480:248|424:176,1,151.499995231629,14|0,0:0|0:0,0:0:0:0:
232,184,99831,5,14,0:0:0:0:
160,208,99980,1,10,0:0:0:0:
384,296,100277,1,8,0:0:0:0:
312,320,100425,1,8,0:1:0:0:
72,296,100722,1,10,0:0:0:0:
144,320,100871,1,10,0:0:0:0:
280,320,101613,5,8,0:0:0:0:
200,288,101761,1,8,0:1:0:0:
192,208,101910,1,8,0:0:0:0:
320,176,102207,5,2,0:0:0:0:
192,128,102504,1,10,0:0:0:0:
456,104,102801,1,10,0:1:0:0:
320,88,103098,1,10,0:0:0:0:
392,56,103247,1,10,0:0:0:0:
288,216,103841,5,8,0:0:0:0:
128,128,103990,2,0,L|120:384,1,227.249992847443,14|0,0:1|0:0,0:0:0:0:
352,184,104584,5,14,0:0:0:0:
424,208,104733,1,10,0:0:0:0:
200,296,105030,1,8,0:0:0:0:
272,320,105178,1,8,0:1:0:0:
40,224,105475,1,10,0:0:0:0:
112,248,105624,1,10,0:0:0:0:
248,256,106366,5,8,0:0:0:0:
200,176,106514,1,8,0:1:0:0:
248,104,106663,1,8,0:0:0:0:
496,96,106960,5,10,0:0:0:0:
384,280,107257,2,0,L|520:160,2,151.499995231629,10|10|2,0:0|0:1|0:0,0:0:0:0:
24,288,108148,6,0,L|16:136,1,151.499995231629,14|8,0:0|0:3,0:0:0:0:
80,136,108544,1,8,0:3:0:0:
128,192,108643,1,8,0:3:0:0:
128,256,108742,1,8,0:3:0:0:
80,344,108841,1,8,0:3:0:0:
32,320,108940,1,8,0:3:0:0:
80,288,109039,1,4,0:3:0:0:
448,336,109336,6,0,P|472:248|424:200,1,151.499995231629,14|0,0:0|0:0,0:0:0:0:
288,176,109930,1,0,0:0:0:0:
440,128,110227,1,2,0:0:0:0:
280,296,110376,6,0,P|224:192|304:128,1,227.249992847443,2|2,0:0|0:0,0:0:0:0:
448,344,111118,2,0,P|480:264|432:208,1,151.499995231629,2|0,0:0|0:0,0:0:0:0:
176,336,111712,6,0,B|8:152,2,227.249992847443,2|2|2,0:0|0:0|0:0,0:0:0:0:
304,336,112901,2,0,P|208:280|192:168,1,227.249992847443,2|0,0:0|0:0,0:0:0:0:
360,152,113792,1,2,0:0:0:0:
360,152,113940,1,2,0:0:0:0:
208,160,114089,6,0,P|224:240|304:264,1,151.499995231629,2|0,0:0|0:0,0:0:0:0:
424,304,114683,1,0,0:0:0:0:
272,352,114980,1,2,0:0:0:0:
344,336,115128,6,0,P|344:256|280:200,1,151.499995231629,2|0,0:0|0:0,0:0:0:0:
224,208,115574,2,0,L|104:104,2,151.499995231629,2|2|0,0:0|0:0|0:0,0:0:0:0:
464,328,116465,6,0,L|264:160,2,227.249992847443,2|2|2,0:0|0:0|0:0,0:0:0:0:
192,352,117653,2,0,P|200:280|280:224,1,151.499995231629
304,192,118099,1,2,0:0:0:0:
256,152,118247,1,0,0:0:0:0:
48,144,118544,2,0,L|40:32,1,75.7499976158143,2|0,0:0|0:0,0:0:0:0:
256,80,118841,6,0,P|232:160|144:200,1,151.499995231629,14|0,0:0|0:0,0:0:0:0:
56,216,119287,2,0,L|128:272,1,75.7499976158143,2|8,0:0|0:0,0:0:0:0:
192,296,119584,2,0,L|144:368,1,75.7499976158143,2|0,0:0|0:0,0:0:0:0:
296,216,119881,1,2,0:0:0:0:
376,176,120029,6,0,L|384:352,1,151.499995231629,8|0,0:0|0:0,0:0:0:0:
240,352,120623,2,0,L|232:168,1,151.499995231629,8|0,0:1|0:0,0:0:0:0:
480,208,121217,6,0,L|352:96,1,151.499995231629,10|0,0:0|0:0,0:0:0:0:
208,168,121663,2,0,L|344:48,1,151.499995231629,2|0,0:0|0:0,0:0:0:0:
400,64,122108,2,0,L|416:240,1,151.499995231629,2|8,0:0|0:0,0:0:0:0:
256,224,122703,5,2,0:0:0:0:
256,224,122851,1,2,0:0:0:0:
320,312,123000,2,0,L|224:288,1,75.7499976158143,8|0,0:1|0:0,0:0:0:0:
96,272,123297,2,0,L|168:224,1,75.7499976158143,2|0,0:0|0:0,0:0:0:0:
376,240,123594,6,0,P|400:152|352:120,1,151.499995231629,10|0,0:0|0:0,0:0:0:0:
224,336,124188,2,0,P|200:256|256:208,1,151.499995231629,8|0,0:0|0:0,0:0:0:0:
312,184,124633,1,8,0:0:0:0:
248,120,124782,5,10,0:0:0:0:
384,104,125079,1,8,0:0:0:0:
24,160,125376,1,14,0:1:0:0:
168,176,125673,2,0,L|256:192,1,75.7499976158143,8|0,0:0|0:0,0:0:0:0:
32,352,125970,6,0,P|8:280|72:216,1,151.499995231629,14|2,0:1|0:0,0:0:0:0:
200,352,126415,2,0,L|208:272,1,75.7499976158143,2|8,0:0|0:0,0:0:0:0:
136,256,126712,2,0,L|128:168,1,75.7499976158143,2|8,0:0|0:3,0:0:0:0:
280,176,127009,1,2,0:0:0:0:
360,176,127158,6,0,P|384:120|344:40,1,151.499995231629,8|8,0:0|0:1,0:0:0:0:
216,320,127604,2,8,L|168:312,2,37.8749988079071,8|8|8,0:0|0:0|0:1,0:0:0:0:
352,320,127901,1,8,0:1:0:0:
416,248,128049,1,4,0:3:0:0:
352,184,128198,1,4,0:3:0:0:
112,256,128346,6,0,P|80:168|128:136,1,151.499995231629,14|8,0:0|0:0,0:0:0:0:
248,80,128792,2,0,P|288:152|224:200,1,151.499995231629,14|8,0:0|0:1,0:0:0:0:
114,139,129237,2,0,L|200:128,1,75.7499976158143,14|0,0:0|0:0,0:0:0:0:
416,64,129534,6,8,L|480:64,2,37.8749988079071,8|8|8,0:1|0:1|0:1,0:1:0:0:
264,64,129831,1,8,0:3:0:0:
232,72,129905,1,8,0:3:0:0:
200,80,129979,1,4,0:3:0:0:
192,184,130128,1,8,0:1:0:0:
448,216,130425,2,8,L|496:216,2,37.8749988079071,8|8|8,0:1|0:1|0:1,0:1:0:0:
232,192,130722,5,14,0:0:0:0:
144,192,130871,2,0,L|136:352,1,151.499995231629,10|8,0:0|0:0,0:0:0:0:
288,352,131316,2,0,P|312:248|272:216,1,151.499995231629,14|2,0:1|0:0,0:0:0:0:
72,200,131762,6,0,P|40:144|104:80,1,151.499995231629,10|8,0:0|0:1,0:0:0:0:
232,80,132207,2,0,L|240:176,1,75.7499976158143,0|8,0:0|0:0,0:0:0:0:
170,302,132505,2,0,P|98:262|82:182,1,151.499995231629,10|2,0:1|0:0,0:0:0:0:
160,200,132950,1,8,0:0:0:0:
376,344,133099,6,0,L|384:240,1,75.7499976158143,10|0,0:0|0:0,0:0:0:0:
232,272,133396,2,0,L|224:184,1,75.7499976158143,2|8,0:0|0:0,0:0:0:0:
304,200,133693,2,0,L|312:96,1,75.7499976158143,8|0,0:1|0:0,0:0:0:0:
168,104,133990,1,10,0:0:0:0:
96,104,134138,6,0,P|56:192|96:232,1,151.499995231629,8|8,0:0|0:1,0:0:0:0:
224,248,134584,2,0,L|80:352,1,151.499995231629,10|8,0:0|0:1,0:0:0:0:
168,336,135029,1,10,0:0:0:0:
95,332,135178,2,0,L|80:224,1,75.7499976158143,10|8,0:0|0:1,0:0:0:0:
304,104,135475,5,14,0:0:0:0:
384,104,135623,2,0,P|408:200|368:248,1,151.499995231629,8|8,0:0|0:0,0:0:0:0:
224,344,136069,2,2,P|210:251|272:208,1,151.499995231629,10|8,0:1|0:0,0:0:0:0:
328,208,136514,6,0,P|328:128|264:72,1,151.499995231629,10|8,0:0|0:0,0:0:0:0:
64,256,136960,1,10,0:3:0:0:
40,168,137108,1,8,0:0:0:0:
96,96,137257,1,8,0:1:0:0:
240,72,137405,1,8,0:1:0:0:
304,136,137554,1,8,0:3:0:0:
240,192,137703,1,4,0:3:0:0:
24,336,137851,6,0,L|32:160,1,151.499995231629,14|8,0:0|0:1,0:0:0:0:
176,328,138297,1,14,0:0:0:0:
296,248,138594,1,8,0:3:0:0:
288,168,138742,1,8,0:1:0:0:
208,128,138891,1,4,0:3:0:0:
424,344,139039,5,14,0:0:0:0:
480,272,139188,1,8,0:3:0:0:
424,208,139336,1,8,0:1:0:0:
280,304,139485,2,0,P|248:224|288:184,1,151.499995231629,14|8,0:0|0:0,0:0:0:0:
360,160,139930,1,8,0:1:0:0:
344,80,140079,1,8,0:1:0:0:
128,88,140227,6,0,L|120:200,1,75.7499976158143,14|0,0:0|0:0,0:0:0:0:
192,224,140524,2,0,L|104:216,1,75.7499976158143,2|8,0:0|0:0,0:0:0:0:
256,336,140821,2,0,P|304:312|304:192,1,151.499995231629,10|2,0:1|0:0,0:0:0:0:
184,96,141267,6,0,P|152:184|200:224,1,151.499995231629,8|8,0:0|0:1,0:0:0:0:
264,224,141712,2,0,L|272:120,1,75.7499976158143,10|8,0:0|0:0,0:0:0:0:
128,152,142009,1,8,0:1:0:0:
136,88,142306,1,10,0:0:0:0:
192,56,142455,1,8,0:0:0:0:
408,328,142604,5,10,0:0:0:0:
496,312,142752,2,0,P|472:200|424:160,1,151.499995231629,8|8,0:0|0:0,0:0:0:0:
312,192,143198,2,0,L|304:96,1,75.7499976158143,8|0,0:1|0:0,0:0:0:0:
376,104,143495,1,2,0:0:0:0:
160,120,143643,6,0,P|128:216|176:240,1,151.499995231629,10|8,0:0|0:1,0:0:0:0:
296,240,144089,1,10,0:0:0:0:
304,320,144237,1,8,0:0:0:0:
152,352,144386,1,8,0:1:0:0:
80,312,144534,1,8,0:3:0:0:
48,224,144683,1,4,0:3:0:0:
80,152,144831,1,4,0:3:0:0:
296,240,144980,6,0,P|328:160|272:104,1,151.499995231629,14|8,0:0|0:0,0:0:0:0:
224,240,145425,1,8,0:0:0:0:
291,315,145574,2,0,P|352:296|368:208,1,151.499995231629,8|2,0:1|0:0,0:0:0:0:
224,122,146019,6,0,P|184:170|232:242,1,151.499995231629,10|8,0:0|0:3,0:0:0:0:
304,232,146465,1,4,0:3:0:0:
360,176,146613,1,8,0:0:0:0:
344,104,146762,1,8,0:1:0:0:
280,64,146910,1,8,0:3:0:0:
424,32,147059,1,4,0:3:0:0:
416,112,147207,1,8,0:0:0:0:
200,312,147356,6,0,L|128:264,2,75.7499976158143,14|8|8,0:0|0:0|0:0,0:0:0:0:
336,224,147802,2,0,P|408:280|400:360,1,151.499995231629,14|8,0:1|0:0,0:0:0:0:
168,336,148247,6,0,L|72:320,1,75.7499976158143,14|0,0:1|0:0,0:0:0:0:
56,288,148470,2,0,L|48:216,1,37.8749988079071,8|8,0:1|0:1,0:0:0:0:
144,264,148693,1,8,0:1:0:0:
216,232,148841,1,8,0:1:0:0:
256,152,148990,1,8,0:1:0:0:
232,72,149138,1,8,0:1:0:0:
152,40,149287,1,8,0:1:0:0:
296,56,149435,1,8,0:1:0:0:
360,24,149584,1,8,0:1:0:0:
144,336,149732,5,14,0:0:0:0:
56,328,149881,2,10,L|48:152,1,151.499995231629,8|8,0:0|0:0,0:0:0:0:
192,256,150326,1,8,0:1:0:0:
264,200,150475,1,8,0:0:0:0:
272,112,150623,1,8,0:1:0:0:
56,176,150772,6,0,P|24:88|80:40,1,151.499995231629,14|0,0:0|0:0,0:0:0:0:
184,232,151217,2,0,L|256:184,1,75.7499976158143,10|8,0:0|0:0,0:0:0:0:
120,160,151514,2,8,P|64:128|40:32,1,151.499995231629,8|8,0:1|0:0,0:1:0:0:
408,336,152108,5,14,0:0:0:0:
472,264,152257,2,0,P|448:176|376:144,1,151.499995231629,8|8,0:0|0:0,0:0:0:0:
272,248,152703,2,0,L|400:144,1,151.499995231629,12|8,0:1|0:1,0:0:0:0:
176,344,153148,6,0,P|88:288|80:232,1,151.499995231629,14|0,0:0|0:0,0:0:0:0:
216,160,153594,2,0,L|224:264,1,75.7499976158143,10|0,0:0|0:0,0:0:0:0:
136,168,153891,2,0,L|128:80,1,75.7499976158143,6|0,0:1|0:0,0:0:0:0:
272,64,154188,2,8,L|312:96,2,37.8749988079071,8|8|8,0:1|0:1|0:1,0:1:0:0:
48,64,154485,5,10,0:0:0:0:
48,240,154633,2,0,P|72:144|144:120,1,151.499995231629,8|0,0:0|0:0,0:0:0:0:
248,184,155079,2,0,L|256:288,1,75.7499976158143,10|0,0:1|0:0,0:0:0:0:
184,264,155376,1,2,0:0:0:0:
400,336,155524,6,0,P|432:248|376:200,1,151.499995231629,14|8,0:0|0:0,0:0:0:0:
264,208,155970,2,0,L|256:104,1,75.7499976158143,10|0,0:0|0:0,0:0:0:0:
400,112,156267,1,10,0:1:0:0:
472,176,156415,2,8,L|480:224,2,37.8749988079071,8|8|8,0:0|0:0|0:1,0:0:0:0:
256,352,156712,6,0,P|224:272|288:224,1,151.499995231629,14|0,0:0|0:0,0:0:0:0:
336,224,157158,2,0,L|344:120,1,75.7499976158143,8|0,0:0|0:0,0:0:0:0:
192,184,157455,2,0,L|120:136,1,75.7499976158143,12|0,0:1|0:0,0:0:0:0:
192,104,157752,1,8,0:1:0:0:
408,344,157901,6,0,P|440:256|392:216,1,151.499995231629,14|0,0:0|0:0,0:0:0:0:
192,160,158346,2,0,L|264:192,1,75.7499976158143,14|8,0:0|0:0,0:0:0:0:
400,232,158643,2,0,L|408:320,1,75.7499976158143,14|8,0:1|0:0,0:0:0:0:
336,312,158940,1,10,0:1:0:0:
120,312,159089,6,0,P|80:240|136:192,1,151.499995231629,14|0,0:0|0:0,0:0:0:0:
200,184,159534,2,0,L|208:96,1,75.7499976158143,8|0,0:0|0:0,0:0:0:0:
56,208,159831,2,0,L|48:104,1,75.7499976158143,14|8,0:1|0:0,0:0:0:0:
120,120,160128,1,8,0:1:0:0:
336,104,160277,6,0,P|376:176|328:240,1,151.499995231629,14|0,0:0|0:0,0:0:0:0:
192,312,160722,2,8,L|168:280,2,37.8749988079071,8|8|4,0:3|0:3|0:3,0:3:0:0:
344,336,161019,2,8,L|376:304,2,37.8749988079071,8|8|4,0:3|0:3|0:3,0:3:0:0:
264,336,161316,1,8,0:3:0:0:
48,208,161465,6,0,P|32:280|104:344,1,151.499995231629,14|8,0:0|0:0,0:0:0:0:
144,336,161910,2,0,L|72:264,1,75.7499976158143,8|0,0:0|0:0,0:0:0:0:
304,280,162207,2,0,L|352:216,1,75.7499976158143,14|8,0:1|0:0,0:0:0:0:
304,168,162505,1,10,0:1:0:0:
88,48,162653,6,0,P|48:120|96:168,1,151.499995231629,14|0,0:0|0:0,0:0:0:0:
240,248,163099,2,0,L|160:232,1,75.7499976158143,10|0,0:0|0:0,0:0:0:0:
93,316,163396,2,0,L|85:140,1,151.499995231629,8|0,0:1|3:0,0:0:0:0:
168,160,163841,1,0,3:0:0:0:
384,248,163990,6,0,L|392:144,1,75.7499976158143,14|0,0:0|0:0,0:0:0:0:
312,168,164287,1,10,0:0:0:0:
168,168,164435,2,0,P|144:88|184:40,1,151.499995231629,10|2,0:0|0:0,0:0:0:0:
328,32,164881,2,0,L|416:24,1,75.7499976158143,10|8,0:0|0:0,0:0:0:0:
272,336,165178,6,0,L|120:248,2,151.499995231629,8|8|8,0:1|0:0|0:1,0:0:0:0:
416,336,165920,1,8,0:1:0:0:
472,320,166069,2,0,L|480:232,1,75.7499976158143,10|8,0:0|0:0,0:0:0:0:
256,104,166366,6,0,P|216:176|272:224,1,151.499995231629,14|8,0:1|0:0,0:0:0:0:
392,176,166811,2,0,P|424:272|384:304,1,151.499995231629,8|0,0:1|0:0,0:0:0:0:
176,352,167257,2,0,P|136:296|192:232,1,151.499995231629,14|8,0:1|0:0,0:0:0:0:
328,224,167703,1,12,0:1:0:0:
400,216,167851,2,0,L|408:120,1,75.7499976158143,10|8,0:0|0:0,0:0:0:0:
184,48,168148,6,8,L|128:48,2,37.8749988079071,8|8|8,0:1|0:1|0:1,0:1:0:0:
328,48,168445,2,8,L|368:48,2,37.8749988079071,8|8|4,0:3|0:3|0:3,0:3:0:0:
112,160,168742,5,10,0:1:0:0:
40,168,168891,2,0,L|32:344,1,151.499995231629,8|8,0:0|0:0,0:0:0:0:
160,352,169336,1,8,0:1:0:0:
112,296,169485,1,8,0:0:0:0:
160,240,169633,1,8,0:1:0:0:
376,352,169782,6,0,P|480:264|336:104,1,378.749988079071,14|0,0:0|0:0,0:0:0:0:
232,80,170821,1,2,0:0:0:0:
368,40,171118,5,2,0:0:0:0:
128,264,177653,6,0,P|88:128|152:72,1,227.249992847443,8|0,0:3|0:0,0:0:0:0:
360,72,178247,6,0,P|392:144|344:200,1,151.499995231629,14|8,0:1|0:1,0:0:0:0:
216,272,178693,2,0,L|368:368,1,151.499995231629,14|2,0:0|0:0,0:0:0:0:
392,272,179138,1,8,0:1:0:0:
344,192,179287,1,10,0:0:0:0:
120,208,179435,5,14,0:0:0:0:
64,152,179584,1,8,0:0:0:0:
120,88,179732,1,8,0:1:0:0:
256,256,179881,2,0,P|216:168|144:144,1,151.499995231629,14|8,0:0|0:0,0:0:0:0:
112,112,180326,1,8,0:1:0:0:
168,72,180475,1,8,0:1:0:0:
384,192,180623,6,0,L|392:296,1,75.7499976158143,14|0,0:0|0:0,0:0:0:0:
248,352,180920,2,0,L|240:264,1,75.7499976158143,10|8,0:0|0:0,0:0:0:0:
312,240,181217,2,0,L|160:152,1,151.499995231629,8|2,0:1|0:0,0:0:0:0:
320,72,181663,6,0,P|371:130|335:207,1,151.499995231629,8|8,0:0|0:1,0:0:0:0:
208,352,182108,1,8,0:0:0:0:
184,288,182257,1,8,0:0:0:0:
216,216,182405,1,8,0:1:0:0:
296,168,182554,1,8,0:0:0:0:
232,104,182703,1,10,0:0:0:0:
304,64,182851,1,2,0:0:0:0:
88,88,183000,5,10,0:0:0:0:
16,248,183148,2,0,L|8:72,1,151.499995231629,8|8,0:0|0:0,0:0:0:0:
160,280,183594,2,0,L|168:176,1,75.7499976158143,8|0,0:1|0:0,0:0:0:0:
96,184,183891,1,10,0:0:0:0:
312,112,184039,6,0,P|392:176|392:240,1,151.499995231629,10|8,0:0|0:0,0:0:0:0:
264,296,184485,1,8,0:1:0:0:
256,208,184633,1,8,0:0:0:0:
400,200,184782,1,8,0:1:0:0:
464,240,184930,1,8,0:1:0:0:
456,320,185079,1,8,0:3:0:0:
384,344,185227,1,4,0:3:0:0:
160,344,185376,6,0,P|128:288|176:216,1,151.499995231629,14|0,0:0|0:0,0:0:0:0:
240,216,185821,1,8,0:0:0:0:
376,224,185970,2,0,P|360:152|264:112,1,151.499995231629,8|10,0:1|0:0,0:0:0:0:
160,232,186415,6,0,P|96:192|80:104,1,151.499995231629,10|8,0:0|0:1,0:0:0:0:
216,88,186861,2,0,L|208:184,1,75.7499976158143,10|8,0:0|0:0,0:0:0:0:
80,176,187158,1,8,0:1:0:0:
32,224,187306,1,8,0:3:0:0:
40,296,187455,1,6,0:3:0:0:
400,336,187752,6,0,L|464:280,2,75.7499976158143,14|8|8,0:1|0:0|0:0,0:0:0:0:
248,352,188198,1,14,0:1:0:0:
184,280,188346,1,8,0:0:0:0:
248,208,188495,1,8,0:0:0:0:
464,216,188643,6,0,L|456:120,1,75.7499976158143,14|0,0:1|0:0,0:0:0:0:
376,136,188940,1,8,0:0:0:0:
232,312,189089,1,8,0:1:0:0:
152,280,189237,2,0,L|144:184,1,75.7499976158143,8|8,0:1|0:0,0:0:0:0:
296,184,189534,1,8,0:1:0:0:
368,144,189683,1,8,0:1:0:0:
368,56,189831,1,8,0:1:0:0:
296,24,189980,1,8,0:1:0:0:
80,24,190128,6,0,P|0:136|136:312,1,378.749988079071,2|0,0:0|0:0,0:0:0:0:
360,336,191019,1,2,0:0:0:0:
440,320,191168,2,0,P|472:256|424:192,1,151.499995231629,14|8,0:0|0:1,0:0:0:0:
280,176,191613,6,0,L|192:168,1,75.7499976158143,4|8,0:3|0:0,0:0:0:0:
432,32,191910,1,8,0:1:0:0:
462,54,191984,1,8,0:1:0:0:
481,86,192058,1,8,0:1:0:0:
488,123,192132,1,8,0:1:0:0:
479,160,192207,1,8,0:1:0:0:
458,191,192281,1,8,0:1:0:0:
427,212,192355,1,8,0:1:0:0:
200,344,192505,6,0,L|192:248,1,75.7499976158143,14|0,0:0|0:0,0:0:0:0:
328,264,192802,2,0,L|336:168,1,75.7499976158143,10|8,0:0|0:0,0:0:0:0:
256,136,193099,2,0,L|248:232,1,75.7499976158143,10|0,0:1|0:0,0:0:0:0:
392,344,193396,1,10,0:0:0:0:
472,320,193544,6,0,P|432:224|360:208,1,151.499995231629,8|8,0:0|0:1,0:0:0:0:
256,208,193990,2,0,L|248:112,1,75.7499976158143,10|0,0:0|0:0,0:0:0:0:
312,104,194287,1,8,0:1:0:0:
248,72,194435,1,10,0:0:0:0:
112,56,194584,2,0,L|32:40,1,75.7499976158143,10|8,0:0|0:1,0:0:0:0:
264,352,194881,5,14,0:0:0:0:
344,328,195029,2,0,P|376:256|312:192,1,151.499995231629,8|8,0:0|0:0,0:0:0:0:
192,208,195475,2,0,P|160:144|208:64,1,151.499995231629,8|8,0:1|0:0,0:0:0:0:
416,256,195920,6,0,P|454:179|390:123,1,151.499995231629,8|8,0:0|0:1,0:0:0:0:
265,88,196366,2,0,L|177:72,1,75.7499976158143,10|0,0:0|0:0,0:0:0:0:
272,168,196663,2,0,L|360:152,1,75.7499976158143,8|0,0:1|0:1,0:1:0:0:
136,336,196960,2,0,L|128:232,1,75.7499976158143,14|0,0:1|0:0,0:0:0:0:
352,208,197257,5,14,0:1:0:0:
424,248,197405,1,8,0:0:0:0:
352,296,197554,1,8,0:0:0:0:
192,344,197703,2,0,P|168:280|216:208,1,151.499995231629,14|8,0:1|0:0,0:0:0:0:
288,200,198148,1,10,0:1:0:0:
296,120,198297,1,8,0:0:0:0:
80,176,198445,5,14,0:0:0:0:
16,104,198594,1,8,0:0:0:0:
80,48,198742,1,8,0:1:0:0:
232,360,198891,2,0,P|312:312|320:232,1,151.499995231629,14|8,0:0|0:0,0:0:0:0:
176,248,199336,1,8,0:1:0:0:
168,144,199485,1,8,0:1:0:0:
384,344,199633,6,0,L|480:336,1,75.7499976158143,14|0,0:0|0:0,0:0:0:0:
320,288,199930,2,0,L|312:208,1,75.7499976158143,10|8,0:0|0:0,0:0:0:0:
400,216,200227,2,0,L|392:112,1,75.7499976158143,8|0,0:1|0:0,0:0:0:0:
248,144,200524,1,2,0:0:0:0:
168,144,200673,6,0,P|136:80|184:16,1,151.499995231629,8|8,0:0|0:1,0:0:0:0:
240,256,201118,2,0,L|248:144,1,75.7499976158143,10|8,0:0|0:0,0:0:0:0:
96,128,201415,1,8,0:1:0:0:
176,256,201712,1,10,0:0:0:0:
104,296,201861,1,8,0:0:0:0:
320,328,202009,5,14,0:0:0:0:
400,328,202158,2,0,P|424:240|376:184,1,151.499995231629,8|8,0:0|0:0,0:0:0:0:
256,200,202604,2,0,L|248:120,1,75.7499976158143,8|8,0:1|0:0,0:0:0:0:
320,120,202901,1,2,0:0:0:0:
104,296,203049,6,0,P|64:224|120:168,1,151.499995231629,10|8,0:0|0:1,0:0:0:0:
320,256,203495,2,0,L|328:360,1,75.7499976158143,14|0,0:0|0:0,0:0:0:0:
192,352,203792,1,8,3:0:0:0:
120,328,203891,1,8,3:0:0:0:
64,280,203990,1,8,3:0:0:0:
64,200,204089,1,4,3:0:0:0:
424,232,204386,6,0,P|456:176|392:104,1,151.499995231629,14|0,0:0|0:0,0:0:0:0:
336,104,204831,1,8,0:0:0:0:
192,216,204980,2,0,P|168:120|200:96,1,151.499995231629,14|0,0:1|0:0,0:0:0:0:
272,256,205425,6,0,L|136:368,1,151.499995231629,2|8,0:0|0:1,0:0:0:0:
72,304,205871,1,8,0:0:0:0:
152,264,206019,2,8,L|192:256,2,37.8749988079071,8|8|8,0:0|0:0|0:1,0:0:0:0:
64,224,206316,1,8,0:3:0:0:
64,144,206465,1,4,0:3:0:0:
432,344,206762,6,0,P|464:272|416:208,1,151.499995231629,14|0,0:0|0:0,0:0:0:0:
280,336,207207,2,0,P|192:144|320:40,1,378.749988079071,2|0,0:0|0:0,0:0:0:0:
440,216,208247,5,2,0:0:0:0:
312,192,208544,1,2,0:0:0:0:
376,176,208693,1,2,0:0:0:0:
440,160,208841,1,2,0:0:0:0:
80,160,209138,5,14,0:0:0:0:
16,200,209287,2,0,P|32:272|104:312,1,151.499995231629,8|0,0:0|0:0,0:0:0:0:
240,320,209732,2,0,P|272:256|208:184,1,151.499995231629,8|0,0:1|0:0,0:0:0:0:
152,184,210178,6,0,L|280:72,1,151.499995231629,10|8,0:0|0:1,0:0:0:0:
408,72,210623,1,10,0:0:0:0:
456,136,210772,1,8,0:0:0:0:
448,208,210920,1,8,0:1:0:0:
376,240,211069,1,8,0:0:0:0:
376,312,211217,1,2,0:0:0:0:
440,336,211366,1,8,0:0:0:0:
224,336,211514,5,10,0:0:0:0:
128,336,211663,2,0,P|96:240|144:200,1,151.499995231629,8|8,0:0|0:0,0:0:0:0:
264,152,212108,2,0,L|328:216,2,75.7499976158143,8|0|8,0:1|0:0|0:0,0:0:0:0:
121,210,212554,6,0,L|256:328,1,151.499995231629,8|8,0:0|0:1,0:0:0:0:
159,315,213000,2,0,L|255:307,1,75.7499976158143,10|8,0:0|0:0,0:0:0:0:
384,312,213297,1,8,0:1:0:0:
456,288,213445,1,8,0:0:0:0:
464,256,213594,1,8,0:1:0:0:
104,88,213891,5,14,0:0:0:0:
16,88,214039,2,0,P|24:168|96:216,1,151.499995231629,8|0,0:0|0:0,0:0:0:0:
208,288,214485,2,0,L|136:224,2,75.7499976158143,8|8|8,0:1|0:0|0:1,0:0:0:0:
432,352,214930,6,0,P|456:248|416:224,1,151.499995231629,2|8,0:0|0:1,0:0:0:0:
288,152,215376,1,10,0:0:0:0:
224,224,215524,1,8,0:0:0:0:
288,296,215673,1,8,0:1:0:0:
352,224,215821,1,8,0:3:0:0:
288,152,215970,1,4,0:3:0:0:
224,224,216118,1,8,0:0:0:0:
64,296,216267,5,10,0:1:0:0:
8,280,216415,2,0,L|0:96,1,151.499995231629,8|0,0:0|0:0,0:0:0:0:
160,200,216861,2,0,L|240:128,1,75.7499976158143,8|8,0:1|0:0,0:0:0:0:
160,120,217158,1,8,0:1:0:0:
376,128,217306,6,0,P|416:176|368:248,1,151.499995231629,14|0,0:0|0:0,0:0:0:0:
240,240,217752,2,0,L|152:240,1,75.7499976158143,8|0,0:1|0:0,0:0:0:0:
300,128,218049,2,0,L|388:128,1,75.7499976158143,10|0,0:1|0:0,0:0:0:0:
160,32,218346,2,0,L|64:32,1,75.7499976158143,10|0,0:1|0:0,0:0:0:0:
304,72,218643,5,14,0:0:0:0:
392,96,218792,2,0,P|424:168|384:232,1,151.499995231629,8|8,0:0|0:0,0:0:0:0:
256,352,219237,2,0,L|248:256,1,75.7499976158143,8|0,0:1|0:0,0:0:0:0:
328,264,219534,1,8,0:0:0:0:
112,336,219683,6,0,P|72:264|128:216,1,151.499995231629,14|0,0:0|0:0,0:0:0:0:
184,224,220128,2,0,L|192:128,1,75.7499976158143,10|8,0:0|0:0,0:0:0:0:
64,184,220425,2,0,L|56:104,1,75.7499976158143,10|8,0:1|0:0,0:0:0:0:
128,80,220722,1,10,0:0:0:0:
56,56,220871,1,10,0:0:0:0:
272,344,221019,5,14,0:0:0:0:
360,328,221168,2,0,P|384:248|328:192,1,151.499995231629,8|8,0:0|0:0,0:0:0:0:
192,192,221613,1,8,0:1:0:0:
264,160,221762,1,8,0:0:0:0:
344,136,221910,1,10,0:1:0:0:
128,336,222059,6,0,P|72:280|80:208,1,151.499995231629,14|8,0:0|0:1,0:0:0:0:
152,208,222505,1,10,0:0:0:0:
288,168,222653,2,8,L|328:168,2,37.8749988079071,8|8|8,0:0|0:0|0:1,0:0:0:0:
152,152,222950,1,8,0:1:0:0:
88,96,223099,1,8,0:1:0:0:
152,48,223247,1,8,0:1:0:0:
368,48,223396,5,14,0:0:0:0:
432,96,223544,1,2,0:0:0:0:
368,144,223693,1,2,0:0:0:0:
344,208,223841,1,10,0:0:0:0:
360,264,223989,1,10,0:1:0:0:
424,296,224138,1,2,0:0:0:0:
208,344,224287,5,2,0:0:0:0:
168,288,224435,1,10,0:0:0:0:
216,240,224584,1,2,0:0:0:0:
344,200,224732,2,0,P|336:104|264:88,1,151.499995231629,8|8,0:1|0:0,0:0:0:0:
72,72,225178,1,8,0:1:0:0:
32,112,225277,1,2,0:0:0:0:
32,176,225376,1,2,0:0:0:0:
72,216,225475,1,2,0:0:0:0:
168,216,225623,1,8,0:0:0:0:
400,224,225772,6,0,P|440:296|360:336,1,151.499995231629,14|0,0:0|0:0,0:0:0:0:
264,336,226217,1,8,0:1:0:0:
192,328,226366,2,0,P|160:256|208:200,1,151.499995231629,8|8,0:0|0:1,0:0:0:0:
416,208,226811,6,0,P|376:112|320:88,1,151.499995231629,14|8,0:0|0:0,0:0:0:0:
208,328,227257,1,8,0:0:0:0:
152,312,227356,1,8,0:0:0:0:
112,272,227455,1,8,0:0:0:0:
112,208,227554,1,8,0:1:0:0:
120,144,227653,1,8,0:3:0:0:
120,80,227752,1,8,0:3:0:0:
64,56,227851,1,4,0:3:0:0:
424,24,228148,5,14,0:0:0:0:
256,192,228297,12,0,237505,0:0:0:0:
