osu file format v14

[General]
AudioFilename: audio.mp3
AudioLeadIn: 0
PreviewTime: 130128
Countdown: 0
SampleSet: Soft
StackLeniency: 0.7
Mode: 2
LetterboxInBreaks: 0
WidescreenStoryboard: 0

[Editor]
DistanceSpacing: 0.6
BeatDivisor: 4
GridSize: 8
TimelineZoom: 2.1

[Metadata]
Title:Futatsu no Hikari
TitleUnicode:二つの光
Artist:Yumeno Yuki
ArtistUnicode:夢乃ゆき
Creator:-Luminate
Version:Overdose
Source:クダンノフォークロア
Tags:kudan no folklore SukeraSparo opening visual novel japanese video game pop jpop j-pop full version the curse of vgm videogame
BeatmapID:3871311
BeatmapSetID:1880396

[Difficulty]
HPDrainRate:6
CircleSize:4.3
OverallDifficulty:9.4
ApproachRate:9.4
SliderMultiplier:3.59999990463257
SliderTickRate:4

[Events]
//Background and Video events
0,0,"bg.jpg",0,0
//Break Periods
2,81021,89044
2,171318,177113
//Storyboard Layer 0 (Background)
//Storyboard Layer 1 (Fail)
//Storyboard Layer 2 (Pass)
//Storyboard Layer 3 (Foreground)
//Storyboard Layer 4 (Overlay)
//Storyboard Sound Samples

[TimingPoints]
2406,594.059405940594,4,2,1,20,1,0
38049,-100,4,2,1,28,0,0
39534,-100,4,2,1,40,0,0
40425,-100,4,2,2,55,0,0
59435,-100,4,2,2,60,0,0
61811,-100,4,2,2,75,0,1
80821,-100,4,2,2,60,0,0
89584,-100,4,2,2,50,0,0
108148,-100,4,2,2,55,0,0
109336,-100,4,2,2,40,0,0
118841,-100,4,2,2,50,0,0
128346,-100,4,2,2,55,0,0
130128,-100,4,2,2,60,0,0
130722,-100,4,2,2,75,0,1
148693,-100,4,2,2,55,0,1
148990,-100,4,2,2,63,0,1
149435,-100,4,2,2,75,0,0
149732,-100,4,2,2,75,0,1
163990,-100,4,2,2,65,0,1
166366,-100,4,2,2,75,0,1
169782,-100,4,2,2,70,0,0
169930,-100,4,2,2,35,0,0
177653,-100,4,2,2,60,0,0
178247,-100,4,2,2,75,0,1
190128,-100,4,2,2,50,0,0
191168,-100,4,2,2,75,0,1
192356,-100,4,2,2,75,0,0
192505,-100,4,2,2,75,0,1
206762,-100,4,2,2,60,0,0
208247,-100,4,2,2,40,0,0
209138,-100,4,2,2,70,0,0
228148,-100,4,2,2,50,0,0
228297,-100,4,2,2,25,0,0

[Colours]
Combo1 : 162,162,162
Combo2 : 189,128,36
Combo3 : 81,168,255
Combo4 : 186,116,116

[HitObjects]
48,208,2406,5,2,0:0:0:0:
248,208,2703,1,0,0:0:0:0:
48,312,3000,1,2,0:0:0:0:
248,312,3297,1,0,0:0:0:0:
248,312,3445,1,2,0:0:0:0:
352,312,3891,5,0,0:0:0:0:
160,240,4188,1,2,0:0:0:0:
256,240,4485,1,0,0:0:0:0:
48,136,4782,5,2,0:0:0:0:
152,136,5079,1,0,0:0:0:0:
368,136,5376,1,2,0:0:0:0:
152,216,5673,1,0,0:0:0:0:
152,216,5821,1,2,0:0:0:0:
48,312,6267,5,0,0:0:0:0:
256,280,6564,2,0,L|256:72,1,179.999995231629,2|0,0:0|0:0,0:0:0:0:
32,328,7158,6,0,L|32:120,1,179.999995231629,2|0,0:0|0:0,0:0:0:0:
256,152,7752,1,2,0:0:0:0:
144,152,8049,1,0,0:0:0:0:
144,152,8198,1,2,0:0:0:0:
344,344,8643,5,0,0:0:0:0:
144,344,8940,2,0,L|144:128,1,179.999995231629,2|0,0:0|0:0,0:0:0:0:
376,344,9534,6,0,L|376:144,1,179.999995231629,2|0,0:0|0:0,0:0:0:0:
176,168,10128,1,2,0:0:0:0:
376,160,10425,1,0,0:0:0:0:
376,160,10574,1,2,0:0:0:0:
472,232,11019,5,0,0:0:0:0:
280,48,11316,2,0,L|432:208,1,179.999995231629,2|0,0:0|0:0,0:0:0:0:
160,336,11910,5,2,0:0:0:0:
128,264,12059,1,0,3:0:0:0:
128,184,12207,1,0,3:0:0:0:
176,120,12356,1,0,3:0:0:0:
256,96,12505,1,8,3:1:0:0:
128,88,12802,1,0,0:0:0:0:
128,88,12950,1,2,0:0:0:0:
336,296,13247,5,8,0:1:0:0:
256,276,13396,2,0,L|256:76,1,179.999995231629,2|8,0:1|0:1,0:0:0:0:
400,96,13990,1,0,0:0:0:0:
128,344,14287,6,0,L|128:152,1,179.999995231629,2|0,0:0|0:0,0:0:0:0:
320,160,14881,1,8,0:1:0:0:
128,160,15178,1,0,0:0:0:0:
216,160,15326,6,8,L|216:352,1,179.999995231629,2|8,0:0|0:1,0:1:0:0:
304,344,15772,2,0,L|112:344,1,179.999995231629,2|8,0:0|0:1,0:0:0:0:
192,256,16366,1,0,3:0:0:0:
128,232,16514,1,8,0:1:0:0:
288,224,16663,6,0,L|424:88,2,179.999995231629,2|0|8,0:0|0:0|0:1,0:0:0:0:
416,224,17554,1,0,0:0:0:0:
416,224,17703,1,2,0:0:0:0:
200,296,18000,5,8,0:1:0:0:
280,276,18149,2,0,L|280:76,1,179.999995231629,2|8,0:0|0:1,0:0:0:0:
136,96,18743,1,0,0:0:0:0:
408,344,19040,6,0,L|408:152,1,179.999995231629,2|0,0:0|0:0,0:0:0:0:
216,160,19634,1,8,0:1:0:0:
408,160,19931,1,0,0:0:0:0:
320,160,20079,6,0,L|320:352,1,179.999995231629,2|8,0:0|0:1,0:0:0:0:
184,336,20525,2,8,L|32:208,1,179.999995231629,0|8,3:0|0:1,0:1:0:0:
208,216,21119,1,0,3:0:0:0:
208,216,21267,1,8,0:1:0:0:
46,220,21415,6,0,L|46:12,1,179.999995231629,2|0,0:0|0:0,0:0:0:0:
248,40,22009,1,8,0:1:0:0:
48,40,22306,1,2,0:0:0:0:
176,40,22455,6,0,P|264:144|264:192,1,179.999995231629,2|8,0:0|0:1,0:0:0:0:
176,240,22901,2,0,L|296:376,1,179.999995231629,2|8,0:0|0:1,0:0:0:0:
424,368,23495,1,0,3:0:0:0:
424,368,23643,1,8,0:1:0:0:
264,352,23792,6,0,L|264:144,1,179.999995231629,2|0,0:0|0:0,0:0:0:0:
448,192,24386,2,0,L|448:0,1,179.999995231629,8|0,0:1|0:0,0:0:0:0:
312,328,24831,2,8,P|240:272|232:152,1,179.999995231629,2|8,0:0|0:1,0:1:0:0:
320,184,25277,2,8,L|168:40,1,179.999995231629,0|8,3:0|0:1,0:1:0:0:
384,56,25871,1,0,3:0:0:0:
312,56,26019,1,8,0:1:0:0:
144,56,26168,6,0,L|296:208,1,179.999995231629,2|0,0:0|0:0,0:0:0:0:
192,184,26613,2,8,L|192:280,1,89.9999976158143,2|8,0:0|0:1,0:1:0:0:
416,336,27059,1,2,0:0:0:0:
344,336,27207,6,0,P|256:248|256:168,1,179.999995231629,0|8,0:0|0:1,0:0:0:0:
328,200,27653,1,2,0:0:0:0:
144,192,27950,2,2,L|144:8,1,179.999995231629,8|0,0:1|0:0,0:0:0:0:
384,24,28544,6,0,L|384:216,1,179.999995231629,2|0,0:0|0:0,0:0:0:0:
264,208,28990,2,0,L|264:304,1,89.9999976158143,2|8,0:0|0:1,0:0:0:0:
384,328,29287,1,2,0:0:0:0:
304,320,29435,1,2,0:0:0:0:
224,312,29584,1,0,0:0:0:0:
384,248,29881,5,8,0:1:0:0:
384,248,30029,1,0,3:0:0:0:
224,216,30326,1,8,0:1:0:0:
384,184,30623,1,0,3:0:0:0:
384,184,30772,1,8,0:1:0:0:
224,184,30920,6,0,P|144:144|128:40,1,179.999995231629,2|0,0:0|0:0,0:0:0:0:
312,56,31514,1,8,0:1:0:0:
122,61,31811,1,2,0:0:0:0:
216,64,31960,6,8,P|264:120|200:192,1,179.999995231629,2|8,0:0|0:1,0:1:0:0:
120,192,32405,2,0,L|264:328,2,179.999995231629,2|8|2,0:0|0:1|0:0,0:0:0:0:
48,192,33148,1,0,0:0:0:0:
216,192,33297,6,0,L|216:0,1,179.999995231629,2|0,0:0|0:0,0:0:0:0:
48,192,33891,2,0,L|48:376,1,179.999995231629,8|0,0:1|3:0,0:0:0:0:
136,368,34336,2,0,P|224:320|240:208,1,179.999995231629,2|8,0:0|0:1,0:0:0:0:
168,232,34782,2,0,L|288:80,1,179.999995231629,2|8,0:0|0:1,0:0:0:0:
128,88,35376,1,0,3:0:0:0:
128,88,35524,1,8,0:1:0:0:
280,88,35673,6,0,P|376:160|256:344,1,359.999990463257,2|8,0:0|0:1,0:0:0:0:
408,336,36564,1,2,0:0:0:0:
248,336,36712,6,8,L|248:128,1,179.999995231629,2|8,0:0|0:1,0:1:0:0:
144,232,37158,2,0,L|144:32,1,179.999995231629,0|8,3:0|0:1,0:0:0:0:
32,56,37752,1,2,0:0:0:0:
32,56,37901,1,0,0:0:0:0:
184,48,38049,6,0,P|176:208|-8:304,1,359.999990463257,2|8,0:0|0:1,0:0:0:0:
464,344,38940,2,0,L|464:56,1,269.999992847443,14|0,0:0|0:0,0:0:0:0:
320,80,39534,1,8,0:3:0:0:
192,80,39831,1,4,0:3:0:0:
440,248,40128,1,4,0:3:0:0:
80,344,40425,6,0,P|32:264|88:216,1,179.999995231629,14|0,0:0|0:0,0:0:0:0:
160,216,40871,1,8,0:1:0:0:
160,216,41019,1,8,0:0:0:0:
304,352,41316,1,2,0:0:0:0:
146,350,41465,6,0,P|114:246|170:214,1,179.999995231629,2|0,0:0|0:0,0:0:0:0:
304,224,41910,2,0,L|312:16,1,179.999995231629,10|8,0:0|0:1,0:0:0:0:
464,40,42505,1,2,0:0:0:0:
96,352,42802,6,8,L|88:144,1,179.999995231629,10|0,0:0|0:0,0:0:0:0:
256,272,43247,2,0,L|264:56,1,179.999995231629,10|0,0:1|0:0,0:0:0:0:
184,96,43693,1,2,0:0:0:0:
432,344,43990,2,0,L|240:152,2,269.999992847443,2|2|2,0:0|0:0|0:0,0:0:0:0:
440,264,45029,1,2,0:0:0:0:
232,264,45178,6,0,P|168:168|216:120,1,179.999995231629,10|0,0:0|0:0,0:0:0:0:
280,128,45623,1,8,0:1:0:0:
280,128,45772,1,8,0:0:0:0:
128,128,46069,1,2,0:0:0:0:
280,128,46217,6,0,P|328:216|256:256,1,179.999995231629,2|0,0:0|0:0,0:0:0:0:
208,312,46663,2,0,L|360:192,2,179.999995231629,2|10|2,0:0|0:1|0:0,0:0:0:0:
64,320,47406,2,8,L|16:320,1,44.9999988079071,0|0,0:0|3:0,0:0:0:0:
208,312,47554,6,0,L|216:128,1,179.999995231629,10|0,0:0|0:0,0:0:0:0:
368,248,48000,2,0,L|376:56,1,179.999995231629,10|0,0:1|0:0,0:0:0:0:
248,64,48445,1,2,0:0:0:0:
375,68,48594,2,0,L|431:68,1,44.9999988079071,0|0,3:0|3:0,3:0:0:0:
248,344,48742,5,8,3:0:0:0:
368,336,48891,2,0,L|376:136,1,179.999995231629,4|8,0:3|0:3,0:0:0:0:
504,152,49336,1,8,0:3:0:0:
376,112,49485,1,8,0:3:0:0:
248,72,49633,1,4,0:3:0:0:
376,40,49782,1,4,0:3:0:0:
96,336,49930,6,0,L|88:120,1,179.999995231629,14|2,0:0|0:0,0:0:0:0:
216,216,50376,2,0,L|224:112,1,89.9999976158143,2|8,0:0|0:0,0:0:0:0:
88,160,50673,2,0,L|80:32,1,89.9999976158143,2|0,0:0|0:0,0:0:0:0:
240,352,50970,1,2,0:0:0:0:
344,336,51118,6,0,L|352:128,1,179.999995231629,8|0,0:0|0:0,0:0:0:0:
144,224,51712,2,0,L|128:24,1,179.999995231629,8|2,0:0|0:0,0:0:0:0:
216,48,52158,1,0,3:0:0:0:
368,32,52306,6,0,L|218:180,1,179.999995231629,10|0,0:0|0:0,0:0:0:0:
384,352,52752,2,0,L|392:136,1,179.999995231629,2|0,0:0|0:0,0:0:0:0:
240,160,53198,2,0,L|400:272,1,179.999995231629,2|8,0:0|0:0,0:0:0:0:
136,336,53792,1,2,0:0:0:0:
296,256,54089,1,10,0:0:0:0:
72,224,54386,1,2,0:0:0:0:
464,264,54683,6,0,P|448:112|328:56,1,269.999992847443,10|0,0:0|0:0,0:0:0:0:
248,56,55277,1,8,0:0:0:0:
344,336,55574,1,2,0:0:0:0:
192,344,55722,6,0,L|184:240,1,89.9999976158143,2|8,0:0|0:0,0:0:0:0:
56,256,56168,1,8,0:0:0:0:
432,264,56465,2,0,L|440:48,1,179.999995231629,12|0,0:1|0:0,0:0:0:0:
56,72,57059,6,0,L|216:208,1,179.999995231629,14|2,0:0|0:0,0:0:0:0:
352,192,57505,2,0,L|360:88,1,89.9999976158143,2|8,0:0|0:0,0:0:0:0:
193,188,57802,2,0,L|185:84,1,89.9999976158143,2|8,0:0|0:0,0:0:0:0:
280,104,58099,1,2,0:0:0:0:
72,336,58247,6,0,L|80:232,1,89.9999976158143,8|0,0:0|0:0,0:0:0:0:
224,336,58544,2,0,L|320:264,1,89.9999976158143,8|8,0:1|0:0,0:0:0:0:
240,280,58767,1,8,0:0:0:0:
80,176,58841,2,8,L|184:176,1,89.9999976158143,8|8,0:1|0:1,0:1:0:0:
376,176,59138,2,0,L|472:176,1,89.9999976158143,8|4,0:3|0:3,0:0:0:0:
176,40,59435,6,0,L|167:159,1,89.9999976158143,14|0,0:0|0:0,0:0:0:0:
40,136,59732,1,4,0:3:0:0:
288,336,59881,2,0,L|408:336,1,89.9999976158143,14|0,0:0|0:0,0:0:0:0:
128,224,60178,1,4,0:3:0:0:
384,224,60326,2,0,L|392:104,1,89.9999976158143,14|0,0:0|0:0,0:0:0:0:
144,72,60623,6,8,L|72:72,1,44.9999988079071,8|8,0:1|0:1,0:1:0:0:
344,344,60772,2,8,L|416:344,1,44.9999988079071,8|8,0:1|0:0,0:1:0:0:
184,280,60920,2,8,L|160:216,1,44.9999988079071,8|8,0:3|0:3,0:3:0:0:
344,104,61069,2,4,L|288:104,1,44.9999988079071,4|4,0:3|0:3,0:3:0:0:
152,104,61217,1,8,0:1:0:0:
392,104,61366,2,0,P|417:199|353:271,1,179.999995231629,8|0,0:1|0:0,0:0:0:0:
136,304,61811,5,14,0:0:0:0:
272,304,61960,2,0,P|312:224|256:144,1,179.999995231629,8|8,0:0|0:0,0:0:0:0:
64,216,62406,2,0,L|56:16,1,179.999995231629,8|2,0:1|0:0,0:0:0:0:
336,32,62851,6,0,L|128:32,1,179.999995231629,2|8,0:0|0:1,0:0:0:0:
392,152,63297,2,0,P|448:152|504:152,1,89.9999976158143,8|8,0:0|0:0,0:0:0:0:
192,288,63594,2,0,L|96:288,1,89.9999976158143,8|8,0:1|0:0,0:0:0:0:
240,352,63891,1,10,0:0:0:0:
104,352,64039,2,8,L|32:352,1,44.9999988079071
240,224,64188,6,0,L|368:224,1,89.9999976158143,10|0,0:0|0:0,0:0:0:0:
200,96,64485,2,0,L|96:96,1,89.9999976158143,2|0,0:0|0:0,0:0:0:0:
352,344,64782,2,0,L|360:224,1,89.9999976158143,10|0,0:1|0:0,0:0:0:0:
216,240,65079,1,10,0:0:0:0:
360,256,65227,6,0,P|448:208|448:96,1,179.999995231629,8|8,0:0|0:1,0:0:0:0:
224,112,65673,2,0,L|120:112,1,89.9999976158143,10|8,0:0|0:0,0:0:0:0:
360,256,65970,1,10,0:1:0:0:
136,328,66118,1,10,0:0:0:0:
360,328,66267,2,8,L|480:328,1,89.9999976158143,10|8,0:0|0:1,0:1:0:0:
128,240,66564,5,14,0:0:0:0:
256,240,66712,2,0,L|264:48,1,179.999995231629,8|8,0:0|0:0,0:0:0:0:
392,64,67158,2,0,L|184:64,1,179.999995231629,8|10,0:1|0:0,0:0:0:0:
448,200,67604,6,0,P|416:296|336:312,1,179.999995231629,10|8,0:0|0:1,0:0:0:0:
488,320,68049,1,10,0:0:0:0:
347,314,68198,2,8,L|259:314,1,44.9999988079071
120,256,68346,1,10,0:1:0:0:
248,216,68495,1,8,0:1:0:0:
40,168,68643,1,8,0:3:0:0:
248,136,68792,1,4,0:3:0:0:
488,320,68940,6,0,L|496:112,1,179.999995231629,14|8,0:0|0:1,0:0:0:0:
248,136,69386,2,2,L|440:136,1,179.999995231629,14|2,0:0|0:0,0:0:0:0:
168,312,69831,1,8,0:1:0:0:
432,312,69980,6,8,L|496:312,1,44.9999988079071
320,232,70128,1,14,0:0:0:0:
184,184,70277,1,8,0:0:0:0:
320,128,70425,1,8,0:1:0:0:
72,344,70574,6,0,L|64:128,1,179.999995231629,14|0,0:0|1:0,0:0:0:0:
128,168,70945,1,0,1:0:0:0:
320,160,71019,1,0,1:0:0:0:
184,96,71168,1,8,0:1:0:0:
456,336,71316,6,0,L|464:208,1,89.9999976158143,14|0,0:0|0:0,0:0:0:0:
184,224,71613,2,0,L|176:112,1,89.9999976158143,10|8,0:0|0:0,0:0:0:0:
464,104,71910,2,0,L|360:104,1,89.9999976158143,10|0,0:1|0:0,0:0:0:0:
112,328,72207,1,10,0:0:0:0:
256,328,72356,6,8,L|264:128,1,179.999995231629,8|8,0:0|0:1,0:1:0:0:
112,152,72802,2,0,L|104:32,1,89.9999976158143,8|8,0:0|0:0,0:0:0:0:
352,280,73099,2,0,L|360:64,1,179.999995231629,8|10,0:1|0:0,0:0:0:0:
480,104,73544,2,8,L|424:104,1,44.9999988079071
216,328,73693,5,10,0:0:0:0:
352,320,73841,2,8,P|328:208|248:160,1,179.999995231629
144,168,74287,2,0,L|16:168,1,89.9999976158143,8|0,0:1|0:0,0:0:0:0:
288,136,74584,1,10,0:0:0:0:
48,96,74732,6,0,L|256:96,1,179.999995231629,2|8,0:0|0:1,0:0:0:0:
376,96,75178,1,8,0:0:0:0:
240,232,75326,2,8,L|160:232,1,44.9999988079071
48,304,75475,1,8,0:1:0:0:
176,304,75623,1,8,0:1:0:0:
304,304,75772,1,8,0:3:0:0:
432,304,75920,1,4,0:3:0:0:
176,304,76069,6,0,P|128:224|200:168,1,179.999995231629,14|0,0:0|0:0,0:0:0:0:
336,168,76514,1,8,0:0:0:0:
202,170,76663,2,0,L|194:50,1,89.9999976158143,8|0,0:1|0:0,0:0:0:0:
72,88,76960,1,10,0:0:0:0:
329,24,77108,6,0,P|377:112|305:176,1,179.999995231629,2|8,0:0|0:1,0:0:0:0:
208,224,77554,2,0,L|312:224,1,89.9999976158143,8|8,0:0|0:0,0:0:0:0:
64,336,77851,2,0,L|56:216,1,89.9999976158143,10|8,0:1|0:3,0:0:0:0:
336,280,78148,1,4,0:3:0:0:
200,280,78297,2,8,L|136:280,1,44.9999988079071
336,168,78445,6,0,L|456:168,1,89.9999976158143,14|0,0:0|0:0,0:0:0:0:
304,280,78742,1,8,0:0:0:0:
32,224,78891,2,0,L|24:104,1,89.9999976158143,14|0,0:1|0:0,0:0:0:0:
171,128,79188,2,8,L|243:128,1,44.9999988079071
432,128,79336,6,0,L|320:128,1,89.9999976158143,14|0,0:1|0:0,0:0:0:0:
216,128,79633,1,8,0:0:0:0:
456,328,79782,1,8,0:1:0:0:
226,329,79930,2,0,L|216:208,1,89.9999976158143,8|8,0:1|0:0,0:0:0:0:
280,240,80153,1,8,0:0:0:0:
456,240,80227,1,8,0:1:0:0:
216,176,80376,1,8,0:1:0:0:
352,136,80524,1,8,0:1:0:0:
96,96,80673,1,8,0:3:0:0:
352,64,80821,5,14,0:0:0:0:
112,272,89584,6,8,L|104:192,1,44.9999988079071
296,232,89732,1,8,0:1:0:0:
408,224,89881,2,0,L|416:24,1,179.999995231629,8|0,0:0|0:0,0:0:0:0:
160,48,90326,5,14,0:0:0:0:
296,48,90475,2,0,L|304:160,1,89.9999976158143,10|0,0:0|0:0,0:0:0:0:
160,208,90772,1,10,0:0:0:0:
304,208,90920,2,0,L|312:320,1,89.9999976158143,10|0,0:1|0:0,0:0:0:0:
160,336,91217,1,10,0:0:0:0:
440,336,91366,1,10,0:0:0:0:
104,280,92108,5,0,0:0:0:0:
56,184,92257,1,8,0:1:0:0:
112,80,92406,1,8,0:0:0:0:
360,72,92703,5,2,0:0:0:0:
112,72,93000,1,8,0:0:0:0:
480,224,93297,1,8,0:1:0:0:
264,192,93594,1,10,0:0:0:0:
480,152,93742,1,2,0:0:0:0:
264,288,94336,5,8,0:0:0:0:
384,304,94484,1,8,0:1:0:0:
488,320,94633,1,8,0:0:0:0:
368,248,94782,2,0,L|360:136,1,89.9999976158143,2|2,0:0|0:0,0:0:0:0:
80,160,95079,5,10,0:0:0:0:
216,160,95227,2,0,L|224:272,1,89.9999976158143,10|0,0:0|0:0,0:0:0:0:
352,272,95524,1,10,0:0:0:0:
222,249,95673,2,0,L|216:160,1,89.9999976158143,10|0,0:1|0:0,0:0:0:0:
80,160,95970,1,10,0:0:0:0:
352,152,96118,1,10,0:0:0:0:
144,96,96564,6,0,L|96:48,2,59.9999984105428
216,128,96861,1,0,3:0:0:0:
112,192,97009,1,8,0:1:0:0:
216,256,97158,1,8,0:0:0:0:
56,328,97455,5,2,0:0:0:0:
368,328,97752,1,10,0:0:0:0:
144,192,98049,1,10,0:1:0:0:
368,136,98346,1,10,0:0:0:0:
144,96,98495,1,10,0:0:0:0:
312,96,99089,6,8,L|320:32,1,44.9999988079071
144,304,99237,1,8,0:1:0:0:
272,304,99386,2,0,P|360:272|376:160,1,179.999995231629,14|0,0:0|0:0,0:0:0:0:
144,192,99831,5,14,0:0:0:0:
272,184,99980,2,0,L|280:56,1,89.9999976158143,10|0,0:0|0:0,0:0:0:0:
416,96,100277,1,10,0:0:0:0:
280,96,100425,2,0,L|168:96,1,89.9999976158143,10|0,0:1|0:0,0:0:0:0:
304,264,100722,1,10,0:0:0:0:
48,264,100871,1,10,0:0:0:0:
304,152,101316,6,0,L|360:96,2,59.9999984105428
232,184,101613,1,8,0:0:0:0:
336,248,101761,1,8,0:1:0:0:
232,312,101910,1,8,0:0:0:0:
400,336,102207,5,2,0:0:0:0:
88,336,102504,1,10,0:0:0:0:
312,200,102801,1,10,0:1:0:0:
88,144,103098,1,10,0:0:0:0:
312,104,103247,1,10,0:0:0:0:
168,112,103841,5,8,0:0:0:0:
432,48,103990,2,0,L|440:328,1,269.999992847443,14|0,0:1|0:0,0:0:0:0:
152,320,104584,5,14,0:0:0:0:
280,328,104732,2,0,L|376:328,1,89.9999976158143,2|0,0:0|0:0,0:0:0:0:
248,240,105029,1,10,0:0:0:0:
376,224,105178,2,0,L|384:104,1,89.9999976158143,10|0,0:1|0:0,0:0:0:0:
504,128,105475,1,10,0:0:0:0:
224,112,105623,1,10,0:0:0:0:
384,144,106069,6,0,L|432:72,2,59.9999984105428
320,192,106366,1,8,0:0:0:0:
424,248,106514,1,8,0:1:0:0:
320,304,106663,1,8,0:0:0:0:
112,304,106960,5,10,0:0:0:0:
392,200,107257,2,0,L|400:88,1,89.9999976158143,10|0,0:0|0:0,0:0:0:0:
112,144,107554,2,0,L|104:32,1,89.9999976158143,10|0,0:1|0:0,0:0:0:0:
240,48,107851,1,10,0:0:0:0:
104,32,108000,1,8,0:0:0:0:
368,304,108148,6,0,L|480:304,1,89.9999976158143,14|0,0:0|0:0,0:0:0:0:
248,184,108445,2,8,L|160:184,2,59.9999984105428,8|8|8,3:0|3:0|3:0,3:0:0:0:
88,304,108742,2,8,L|16:248,2,59.9999984105428,8|8|8,3:3|3:3|3:3,3:3:0:0:
264,312,109039,1,4,0:3:0:0:
192,288,109138,1,4,0:3:0:0:
120,264,109237,1,4,0:3:0:0:
344,240,109336,6,0,P|392:152|312:96,1,179.999995231629,14|0,0:0|0:0,0:0:0:0:
176,96,109930,1,0,0:0:0:0:
352,104,110227,1,2,0:0:0:0:
208,288,110376,6,0,P|224:176|368:104,1,269.999992847443,2|2,0:0|0:0,0:0:0:0:
184,352,111118,2,0,P|104:320|136:216,1,179.999995231629,2|0,0:0|0:0,0:0:0:0:
384,264,111712,6,0,B|296:248|312:112|176:72,2,269.999992847443,2|2|2,0:0|0:0|0:0,0:0:0:0:
222,346,112901,2,0,P|318:266|334:114,1,269.999992847443,2|0,0:0|0:0,0:0:0:0:
72,120,113792,1,2,0:0:0:0:
72,120,113940,1,2,0:0:0:0:
240,112,114089,6,0,L|256:328,1,179.999995231629,2|0,0:0|0:0,0:0:0:0:
344,304,114534,1,0,0:0:0:0:
344,304,114683,1,0,0:0:0:0:
176,336,114980,1,2,0:0:0:0:
344,336,115128,6,0,P|432:256|416:176,1,179.999995231629,2|0,0:0|0:0,0:0:0:0:
296,208,115574,2,0,P|328:96|416:80,2,179.999995231629,2|2|0,0:0|0:0|0:0,0:0:0:0:
72,344,116465,6,0,L|64:136,1,179.999995231629,2|0,0:0|0:0,0:0:0:0:
232,344,116910,2,0,P|328:272|328:192,1,179.999995231629,2|0,0:0|0:0,0:0:0:0:
176,224,117356,6,0,P|80:144|80:64,1,179.999995231629,2|0,0:0|0:0,0:0:0:0:
304,88,118099,1,2,0:0:0:0:
312,168,118247,1,0,0:0:0:0:
80,320,118544,2,0,L|72:192,1,89.9999976158143,2|0,0:0|0:0,0:0:0:0:
312,168,118841,6,0,P|272:88|184:56,1,179.999995231629,14|0,0:0|0:0,0:0:0:0:
328,320,119287,2,0,L|336:192,1,89.9999976158143,2|8,0:0|0:0,0:0:0:0:
192,224,119584,2,0,L|184:112,1,89.9999976158143,2|0,0:0|0:0,0:0:0:0:
80,128,119881,1,2,0:0:0:0:
232,128,120029,6,0,L|240:344,1,179.999995231629,8|0,0:0|0:0,0:0:0:0:
456,328,120623,2,0,L|472:120,1,179.999995231629,8|0,0:1|0:0,0:0:0:0:
352,144,121069,1,8,0:0:0:0:
136,336,121217,6,0,P|72:288|120:176,1,179.999995231629,10|0,0:0|0:0,0:0:0:0:
240,232,121663,2,0,P|304:176|256:80,1,179.999995231629,2|0,0:0|0:0,0:0:0:0:
144,64,122108,2,0,L|312:192,1,179.999995231629,2|8,0:0|0:0,0:0:0:0:
56,288,122703,5,2,0:0:0:0:
56,288,122851,1,2,0:0:0:0:
304,288,123000,2,0,L|424:288,1,89.9999976158143,8|0,0:1|0:0,0:0:0:0:
256,168,123297,2,0,L|160:168,1,89.9999976158143,2|0,0:0|0:0,0:0:0:0:
440,240,123594,6,0,L|456:24,1,179.999995231629,10|0,0:0|0:0,0:0:0:0:
232,336,124188,2,0,L|216:120,1,179.999995231629,8|0,0:0|0:0,0:0:0:0:
312,120,124633,1,8,0:0:0:0:
216,88,124782,5,10,0:0:0:0:
432,56,125079,1,8,0:0:0:0:
80,48,125376,1,14,0:1:0:0:
312,120,125673,2,0,L|320:232,1,89.9999976158143,8|0,0:0|0:0,0:0:0:0:
72,336,125970,6,0,L|80:128,1,179.999995231629,14|2,0:1|0:0,0:0:0:0:
216,144,126415,2,0,L|328:136,1,89.9999976158143,2|8,0:0|0:0,0:0:0:0:
456,136,126712,2,0,L|464:24,1,89.9999976158143,2|8,0:0|0:3,0:0:0:0:
360,48,127009,1,2,0:0:0:0:
480,296,127158,6,0,L|368:296,1,89.9999976158143,8|0,0:0|0:0,0:0:0:0:
248,256,127455,1,8,0:1:0:0:
392,232,127604,2,8,L|464:232,1,44.9999988079071
288,168,127752,1,8,0:1:0:0:
168,136,127901,1,8,0:1:0:0:
392,96,128049,1,4,0:3:0:0:
168,48,128198,1,4,0:3:0:0:
432,320,128346,6,0,L|440:200,1,89.9999976158143,14|0,0:0|0:0,0:0:0:0:
168,224,128643,1,8,0:1:0:0:
304,168,128792,2,0,L|96:168,1,179.999995231629,14|8,0:0|0:1,0:0:0:0:
352,328,129237,2,0,L|456:328,1,89.9999976158143,14|0,0:0|0:0,0:0:0:0:
144,320,129534,6,8,L|80:320,1,44.9999988079071,8|8,0:1|0:1,0:1:0:0:
307,328,129683,2,8,L|351:328,1,44.9999988079071,8|8,0:1|0:1,0:1:0:0:
208,224,129831,2,8,L|144:224,1,44.9999988079071,8|8,0:3|0:3,0:3:0:0:
208,176,129980,2,4,L|256:176,1,44.9999988079071,4|4,0:3|0:3,0:3:0:0:
72,312,130128,6,0,P|72:224|128:192,1,134.999996423721,10|0,0:1|0:0,0:0:0:0:
344,224,130425,2,8,L|400:224,1,44.9999988079071,8|8,0:1|0:1,0:1:0:0:
152,48,130574,2,8,L|96:48,1,44.9999988079071,8|8,0:1|0:1,0:1:0:0:
376,56,130722,5,14,0:0:0:0:
488,96,130871,2,0,L|488:288,1,179.999995231629,10|8,0:0|0:0,0:0:0:0:
216,336,131316,2,0,P|70:308|48:264,1,179.999995231629,14|2,0:1|0:0,0:0:0:0:
328,256,131762,6,0,P|368:176|304:104,1,179.999995231629,10|8,0:0|0:1,0:0:0:0:
112,96,132207,2,0,L|224:96,1,89.9999976158143,0|8,0:0|0:0,0:0:0:0:
456,312,132505,2,0,L|264:312,1,179.999995231629,10|2,0:1|0:0,0:0:0:0:
408,224,132950,2,8,L|472:224,1,44.9999988079071,10|8,0:0|0:0,0:0:0:0:
240,160,133099,6,0,L|120:160,1,89.9999976158143,10|0,0:0|0:0,0:0:0:0:
368,48,133396,2,0,L|480:48,1,89.9999976158143,2|8,0:0|0:0,0:0:0:0:
152,320,133693,2,0,L|144:192,1,89.9999976158143,8|0,0:1|0:0,0:0:0:0:
352,224,133990,1,10,0:0:0:0:
240,160,134138,6,0,L|440:160,1,179.999995231629,8|8,0:0|0:1,0:0:0:0:
136,336,134584,2,0,L|16:336,1,89.9999976158143,10|8,0:0|0:0,0:0:0:0:
104,336,134806,1,8,0:0:0:0:
312,312,134881,1,8,0:1:0:0:
192,264,135029,1,10,0:0:0:0:
432,224,135178,2,0,L|440:96,1,89.9999976158143,10|8,0:0|0:1,0:0:0:0:
192,120,135475,5,14,0:0:0:0:
320,120,135623,2,0,P|344:240|304:264,1,179.999995231629,8|8,0:0|0:0,0:0:0:0:
72,320,136069,2,2,L|272:320,1,179.999995231629,10|8,0:1|0:0,0:0:0:0:
40,240,136514,2,0,P|72:136|160:104,1,179.999995231629,10|8,0:0|0:0,0:0:0:0:
360,104,136960,5,10,0:3:0:0:
130,105,137108,2,8,L|50:105,1,44.9999988079071
304,192,137257,1,8,0:1:0:0:
424,240,137405,1,8,0:1:0:0:
168,288,137554,1,8,0:3:0:0:
424,336,137703,1,4,0:3:0:0:
88,336,137851,6,0,L|80:208,1,89.9999976158143,14|0,0:0|0:0,0:0:0:0:
344,224,138148,1,8,0:1:0:0:
80,184,138297,2,0,L|184:184,1,89.9999976158143,14|0,0:0|0:0,0:0:0:0:
440,184,138594,1,8,0:3:0:0:
304,120,138742,1,8,0:1:0:0:
440,72,138891,2,8,L|384:72,1,44.9999988079071,8|8,0:1|0:1,0:1:0:0:
128,320,139039,5,14,0:0:0:0:
256,288,139188,1,8,0:3:0:0:
384,256,139336,1,8,0:1:0:0:
96,240,139485,2,0,P|56:160|128:88,1,179.999995231629,14|8,0:0|0:0,0:0:0:0:
320,88,139930,2,8,L|400:88,1,44.9999988079071,8|8,0:1|0:1,0:1:0:0:
149,94,140079,2,8,L|85:94,1,44.9999988079071,8|8,0:1|0:1,0:1:0:0:
320,240,140227,6,0,L|440:240,1,89.9999976158143,14|0,0:0|0:0,0:0:0:0:
160,336,140524,2,0,L|48:336,1,89.9999976158143,2|8,0:0|0:0,0:0:0:0:
320,240,140821,2,0,L|328:112,1,89.9999976158143,10|0,0:1|0:0,0:0:0:0:
72,152,141118,1,10,0:0:0:0:
200,152,141267,6,0,L|360:264,1,179.999995231629,8|8,0:0|0:1,0:0:0:0:
472,272,141712,2,0,L|480:152,1,89.9999976158143,10|8,0:0|0:0,0:0:0:0:
200,152,142009,1,8,0:1:0:0:
312,96,142158,1,8,0:0:0:0:
200,48,142306,1,10,0:0:0:0:
440,40,142455,2,8,L|504:40,1,44.9999988079071
256,344,142604,5,10,0:0:0:0:
112,304,142752,2,0,L|104:88,1,179.999995231629,8|8,0:0|0:0,0:0:0:0:
376,296,143198,2,0,L|384:176,1,89.9999976158143,8|0,0:1|0:0,0:0:0:0:
104,128,143495,1,2,0:0:0:0:
384,120,143643,6,0,L|192:120,1,179.999995231629,10|8,0:0|0:1,0:0:0:0:
336,232,144089,1,10,0:0:0:0:
192,224,144237,2,8,L|112:224,1,44.9999988079071
336,320,144386,1,8,0:1:0:0:
472,280,144534,1,8,0:3:0:0:
384,200,144683,1,4,0:3:0:0:
488,160,144831,1,4,0:3:0:0:
208,344,144980,6,0,P|104:288|96:208,1,179.999995231629,14|8,0:0|0:0,0:0:0:0:
224,232,145425,1,8,0:0:0:0:
88,232,145574,2,0,L|80:112,1,89.9999976158143,8|0,0:1|0:0,0:0:0:0:
344,136,145871,1,10,0:0:0:0:
80,56,146019,6,0,L|288:48,1,179.999995231629,10|8,0:0|0:3,0:0:0:0:
392,80,146465,1,4,0:3:0:0:
256,152,146613,1,8,0:0:0:0:
480,264,146762,1,8,0:1:0:0:
256,344,146910,1,8,0:3:0:0:
392,344,147059,1,4,0:3:0:0:
248,272,147207,2,8,L|168:272,1,44.9999988079071
392,184,147356,6,0,L|488:184,2,89.9999976158143,14|8|8,0:0|0:0|0:0,0:0:0:0:
168,120,147802,1,14,0:1:0:0:
304,152,147950,2,0,L|312:272,1,89.9999976158143,8|8,0:0|0:0,0:0:0:0:
368,240,148173,1,8,0:0:0:0:
192,312,148247,6,0,L|80:304,1,89.9999976158143,14|0,0:1|0:0,0:0:0:0:
304,152,148470,2,0,L|368:152,1,44.9999988079071,8|8,0:0|0:0,0:0:0:0:
480,144,148693,1,8,0:1:0:0:
256,88,148841,1,8,0:1:0:0:
48,72,148990,1,8,0:1:0:0:
256,200,149138,1,8,0:1:0:0:
408,256,149287,1,8,0:1:0:0:
248,320,149435,1,8,0:1:0:0:
488,328,149584,1,8,0:1:0:0:
248,272,149732,5,14,0:0:0:0:
376,256,149881,2,10,L|384:48,1,179.999995231629,8|8,0:0|0:0,0:0:0:0:
88,72,150326,1,8,0:1:0:0:
224,120,150475,1,8,0:0:0:0:
88,176,150623,1,8,0:1:0:0:
336,344,150772,6,0,P|376:256|320:192,1,179.999995231629,14|0,0:0|0:0,0:0:0:0:
64,152,151217,2,0,L|192:152,1,89.9999976158143,10|8,0:0|0:0,0:0:0:0:
448,64,151514,2,8,L|336:64,1,89.9999976158143,8|0,0:1|0:0,0:1:0:0:
136,64,151811,1,10,0:0:0:0:
256,64,151960,2,8,L|312:64,1,44.9999988079071,8|8,0:1|0:1,0:1:0:0:
64,288,152108,5,14,0:0:0:0:
192,288,152257,2,0,L|384:288,1,179.999995231629,8|8,0:0|0:0,0:0:0:0:
136,152,152703,2,0,L|16:152,1,89.9999976158143,12|0,0:1|0:0,0:0:0:0:
328,232,153000,1,8,0:1:0:0:
48,152,153148,6,0,P|64:64|176:32,1,179.999995231629,14|0,0:0|0:0,0:0:0:0:
384,32,153594,2,0,L|392:144,1,89.9999976158143,10|0,0:0|0:0,0:0:0:0:
80,304,153891,2,0,L|72:184,1,89.9999976158143,6|0,0:1|0:0,0:0:0:0:
320,192,154188,2,8,L|376:192,1,44.9999988079071,8|8,0:1|0:1,0:1:0:0:
192,72,154336,2,8,L|120:72,1,44.9999988079071,8|8,0:1|0:1,0:1:0:0:
400,320,154485,5,10,0:0:0:0:
272,304,154633,2,0,L|256:88,1,179.999995231629,8|0,0:0|0:0,0:0:0:0:
120,112,155079,2,0,L|0:112,1,89.9999976158143,10|0,0:1|0:0,0:0:0:0:
176,208,155376,1,2,0:0:0:0:
440,208,155524,6,0,L|448:24,1,179.999995231629,14|8,0:0|0:0,0:0:0:0:
192,40,155970,2,0,L|72:40,1,89.9999976158143,10|0,0:0|0:0,0:0:0:0:
336,240,156267,1,10,0:1:0:0:
216,168,156415,2,8,L|280:168,1,44.9999988079071
432,168,156564,1,10,0:1:0:0:
168,352,156712,6,0,P|80:312|56:232,1,179.999995231629,14|0,0:0|0:0,0:0:0:0:
184,240,157158,2,0,L|192:112,1,89.9999976158143,8|0,0:0|0:0,0:0:0:0:
456,160,157455,2,0,L|464:40,1,89.9999976158143,12|0,0:1|0:0,0:0:0:0:
400,64,157678,1,8,0:0:0:0:
232,64,157752,1,8,0:1:0:0:
456,344,157901,6,0,P|424:248|336:200,1,179.999995231629,14|0,0:0|0:0,0:0:0:0:
136,184,158346,2,0,L|24:184,1,89.9999976158143,14|8,0:0|0:0,0:0:0:0:
328,64,158643,2,0,L|208:64,1,89.9999976158143,14|8,0:1|0:0,0:0:0:0:
448,256,158940,1,10,0:1:0:0:
136,352,159089,6,0,P|48:288|64:192,1,179.999995231629,14|0,0:0|0:0,0:0:0:0:
176,184,159534,1,8,0:0:0:0:
48,152,159683,1,0,0:0:0:0:
352,320,159831,2,0,L|360:192,1,89.9999976158143,14|8,0:1|0:0,0:0:0:0:
120,128,160128,1,8,0:1:0:0:
360,72,160277,6,0,L|160:72,1,179.999995231629,14|0,0:0|0:0,0:0:0:0:
392,264,160722,2,8,L|464:264,1,44.9999988079071,8|8,0:3|0:3,0:3:0:0:
232,256,160871,2,12,L|184:256,1,44.9999988079071,12|4,0:3|0:3,0:3:0:0:
368,128,161019,2,8,L|304:128,1,44.9999988079071,8|8,0:3|0:3,0:3:0:0:
96,136,161168,2,4,L|144:136,1,44.9999988079071,4|4,0:3|0:3,0:3:0:0:
328,344,161316,2,8,L|392:344,1,44.9999988079071,8|8,0:3|0:3,0:3:0:0:
152,64,161465,6,0,P|96:120|176:176,1,179.999995231629,14|8,0:0|0:0,0:0:0:0:
272,224,161910,2,0,L|360:304,1,89.9999976158143,8|0,0:0|0:0,0:0:0:0:
48,304,162207,2,0,L|144:304,1,89.9999976158143,14|8,0:1|0:0,0:0:0:0:
368,304,162505,1,10,0:1:0:0:
138,304,162653,6,0,P|114:208|170:136,1,179.999995231629,14|0,0:0|0:0,0:0:0:0:
424,176,163099,2,0,L|432:64,1,89.9999976158143,10|0,0:0|0:0,0:0:0:0:
176,64,163396,2,0,L|72:64,1,89.9999976158143,8|0,0:1|3:0,0:0:0:0:
184,136,163693,1,0,3:0:0:0:
264,192,163792,1,0,3:0:0:0:
184,256,163891,1,0,3:0:0:0:
384,336,163990,6,0,L|392:216,1,89.9999976158143,14|0,0:0|0:0,0:0:0:0:
264,240,164287,1,10,0:0:0:0:
389,246,164435,2,0,L|381:126,1,89.9999976158143,10|8,0:0|0:1,0:0:0:0:
496,144,164732,1,2,0:0:0:0:
368,144,164881,2,0,L|264:144,1,89.9999976158143,10|8,0:0|0:0,0:0:0:0:
408,40,165178,6,0,L|280:40,1,89.9999976158143,8|0,0:1|0:0,0:0:0:0:
192,96,165475,2,0,L|304:96,1,89.9999976158143,10|8,0:0|0:0,0:0:0:0:
56,304,165772,1,10,0:1:0:0:
192,248,165920,1,8,0:1:0:0:
56,200,166069,2,0,L|48:88,1,89.9999976158143,10|8,0:0|0:0,0:0:0:0:
104,104,166292,1,8,0:0:0:0:
288,96,166366,6,0,L|384:96,2,89.9999976158143,14|8|8,0:1|0:0|0:0,0:0:0:0:
48,88,166811,1,8,0:1:0:0:
160,152,166960,1,8,0:0:0:0:
48,216,167108,1,8,0:0:0:0:
384,320,167257,1,12,0:1:0:0:
256,248,167405,1,8,0:0:0:0:
384,200,167554,1,8,0:0:0:0:
160,136,167703,1,12,0:1:0:0:
424,112,167851,2,0,L|432:0,1,89.9999976158143,10|8,0:0|0:0,0:0:0:0:
152,32,168148,6,8,L|80:32,1,44.9999988079071,8|8,0:1|0:1,0:1:0:0:
320,224,168297,2,8,L|376:224,1,44.9999988079071,8|8,0:1|0:1,0:1:0:0:
160,264,168445,2,8,L|112:216,1,44.9999988079071,8|8,0:3|0:3,0:3:0:0:
272,120,168594,2,4,L|216:120,1,44.9999988079071,4|4,0:3|0:3,0:3:0:0:
56,120,168742,5,10,0:1:0:0:
344,112,168891,2,0,L|352:280,1,134.999996423721,8|0,0:0|0:0,0:0:0:0:
184,256,169188,2,8,L|112:256,1,44.9999988079071
424,336,169336,1,8,0:1:0:0:
304,248,169485,1,8,0:0:0:0:
432,176,169633,1,8,0:1:0:0:
160,336,169782,6,0,P|56:256|216:40,1,449.999988079071,14|0,0:0|0:0,0:0:0:0:
40,128,170821,1,2,0:0:0:0:
272,128,171118,5,2,0:0:0:0:
424,328,177653,6,0,P|456:184|384:80,1,269.999992847443,8|0,0:3|0:0,0:0:0:0:
80,72,178247,5,14,0:1:0:0:
208,112,178396,1,8,0:0:0:0:
80,168,178544,1,8,0:1:0:0:
344,344,178693,2,0,P|440:264|440:184,1,179.999995231629,14|2,0:0|0:0,0:0:0:0:
208,136,179138,1,8,0:1:0:0:
448,96,179287,2,8,L|368:96,1,44.9999988079071
192,304,179435,5,14,0:0:0:0:
304,272,179584,1,8,0:0:0:0:
424,248,179732,1,8,0:1:0:0:
136,224,179881,2,0,P|136:120|216:64,1,179.999995231629,14|8,0:0|0:0,0:0:0:0:
352,72,180252,2,0,L|408:72,1,44.9999988079071,8|8,0:0|0:1,0:0:0:0:
184,176,180475,1,8,0:1:0:0:
456,256,180623,6,0,L|328:256,1,89.9999976158143,14|0,0:0|0:0,0:0:0:0:
120,264,180920,2,0,L|24:264,1,89.9999976158143,10|8,0:0|0:0,0:0:0:0:
296,128,181217,2,0,L|184:128,1,89.9999976158143,8|0,0:1|0:0,0:0:0:0:
72,120,181514,1,10,0:0:0:0:
206,128,181663,6,0,P|262:200|190:264,1,179.999995231629,8|8,0:0|0:1,0:0:0:0:
72,336,182108,2,0,L|64:208,1,89.9999976158143,8|8,0:0|0:0,0:0:0:0:
312,176,182405,1,8,0:1:0:0:
192,136,182554,1,8,0:0:0:0:
416,80,182703,1,10,0:0:0:0:
160,64,182851,2,8,L|88:64,1,44.9999988079071,10|8,0:0|0:0,0:0:0:0:
304,296,183000,5,10,0:0:0:0:
440,288,183148,2,0,L|448:96,1,179.999995231629,8|8,0:0|0:0,0:0:0:0:
296,168,183594,2,0,L|288:48,1,89.9999976158143,8|0,0:1|0:0,0:0:0:0:
48,80,183891,1,10,0:0:0:0:
288,80,184039,6,0,P|392:152|392:216,1,179.999995231629,10|8,0:0|0:0,0:0:0:0:
144,328,184485,1,8,0:1:0:0:
272,304,184633,2,8,L|280:224,1,44.9999988079071
72,216,184782,1,8,0:1:0:0:
200,160,184930,1,8,0:1:0:0:
72,112,185079,1,8,0:3:0:0:
208,64,185227,1,4,0:3:0:0:
440,56,185376,6,0,L|248:56,1,179.999995231629,14|0,0:0|0:0,0:0:0:0:
384,144,185821,1,8,0:0:0:0:
128,312,185970,2,0,L|120:112,1,179.999995231629,8|10,0:1|0:0,0:0:0:0:
368,200,186415,6,0,P|416:120|336:56,1,179.999995231629,10|8,0:0|0:1,0:0:0:0:
224,64,186861,2,0,L|336:64,1,89.9999976158143,10|8,0:0|0:0,0:0:0:0:
192,160,187158,1,8,0:1:0:0:
456,208,187306,1,8,0:3:0:0:
192,296,187455,1,6,0:3:0:0:
312,288,187604,2,8,L|376:288,1,44.9999988079071
112,328,187752,5,14,0:1:0:0:
229,329,187901,2,0,L|232:200,1,89.9999976158143,8|8,0:0|0:0,0:0:0:0:
440,200,188198,1,14,0:1:0:0:
328,152,188346,1,8,0:0:0:0:
440,104,188495,2,8,L|496:104,1,44.9999988079071
248,56,188643,6,0,L|136:56,2,89.9999976158143,14|8|8,0:1|0:0|0:0,0:0:0:0:
24,304,189089,1,8,0:1:0:0:
144,288,189237,2,0,L|152:160,1,89.9999976158143,8|8,0:1|0:0,0:0:0:0:
208,200,189460,1,8,0:0:0:0:
392,200,189534,1,8,0:1:0:0:
152,152,189683,1,8,0:1:0:0:
392,80,189831,1,8,0:1:0:0:
152,40,189980,1,8,0:1:0:0:
392,32,190128,6,0,B|480:24|528:48|528:192|440:208|288:32|304:296|344:320|456:288,1,449.999988079071,2|0,0:0|0:0,0:0:0:0:
120,336,191019,1,2,0:0:0:0:
352,344,191168,2,0,L|360:224,1,89.9999976158143,14|0,0:0|0:0,0:0:0:0:
496,240,191465,1,8,0:1:0:0:
240,200,191613,6,0,L|120:200,1,89.9999976158143,4|8,0:3|0:0,0:0:0:0:
376,120,191910,2,8,L|312:120,1,44.9999988079071,12|8,0:1|0:1,0:1:0:0:
144,128,192059,2,8,L|80:128,1,44.9999988079071,8|8,0:1|0:1,0:1:0:0:
264,32,192207,2,8,L|344:32,1,44.9999988079071,8|8,0:1|0:1,0:1:0:0:
72,32,192356,2,8,L|8:32,1,44.9999988079071,8|8,0:1|0:1,0:1:0:0:
376,208,192505,6,0,L|496:208,1,89.9999976158143,14|0,0:0|0:0,0:0:0:0:
192,320,192802,2,0,L|304:320,1,89.9999976158143,10|8,0:0|0:0,0:0:0:0:
48,152,193099,2,0,L|168:152,1,89.9999976158143,10|0,0:1|0:0,0:0:0:0:
384,152,193396,1,10,0:0:0:0:
248,216,193544,6,0,P|216:112|264:56,1,179.999995231629,8|8,0:0|0:1,0:0:0:0:
464,336,193990,2,0,L|472:208,1,89.9999976158143,10|0,0:0|0:0,0:0:0:0:
248,192,194287,1,8,0:1:0:0:
368,160,194435,1,10,0:0:0:0:
160,64,194584,2,0,L|56:64,1,89.9999976158143,10|8,0:0|0:1,0:0:0:0:
304,320,194881,5,14,0:0:0:0:
168,296,195029,2,0,L|160:88,1,179.999995231629,8|8,0:0|0:0,0:0:0:0:
32,112,195475,2,0,L|40:8,1,89.9999976158143,8|0,0:1|0:0,0:0:0:0:
304,64,195772,1,10,0:0:0:0:
160,112,195920,6,0,P|88:176|80:272,1,179.999995231629,8|8,0:0|0:1,0:0:0:0:
348,201,196366,2,0,L|468:201,1,89.9999976158143,10|0,0:0|0:0,0:0:0:0:
192,264,196663,1,8,0:1:0:0:
440,320,196811,1,8,0:0:0:0:
192,336,196960,1,14,0:0:0:0:
320,336,197108,2,8,L|392:336,1,44.9999988079071
88,128,197257,5,14,0:1:0:0:
208,160,197405,1,8,0:0:0:0:
88,216,197554,1,8,0:0:0:0:
408,312,197703,2,0,L|304:312,1,89.9999976158143,14|8,0:1|0:0,0:0:0:0:
80,312,198000,2,8,L|163:311,1,44.9999988079071
320,232,198148,1,8,0:1:0:0:
200,200,198297,1,8,0:0:0:0:
464,184,198445,5,14,0:0:0:0:
336,112,198594,1,8,0:0:0:0:
464,56,198742,1,8,0:1:0:0:
200,200,198891,2,0,P|120:152|128:40,1,179.999995231629,14|8,0:0|0:0,0:0:0:0:
328,64,199336,2,8,L|376:64,1,44.9999988079071,8|8,0:1|0:1,0:1:0:0:
152,32,199485,2,8,L|80:32,1,44.9999988079071,8|8,0:1|0:1,0:1:0:0:
360,240,199633,6,0,L|472:240,1,89.9999976158143,14|0,0:0|0:0,0:0:0:0:
168,320,199930,2,0,L|56:320,1,89.9999976158143,10|8,0:0|0:0,0:0:0:0:
296,144,200227,2,0,L|192:144,1,89.9999976158143,8|0,0:1|0:0,0:0:0:0:
432,328,200524,1,2,0:0:0:0:
304,312,200673,6,0,L|288:96,1,179.999995231629,8|8,0:0|0:1,0:0:0:0:
432,152,201118,2,0,L|440:32,1,89.9999976158143,10|8,0:0|0:0,0:0:0:0:
216,48,201415,1,8,0:1:0:0:
312,72,201564,1,8,0:0:0:0:
216,104,201712,1,10,0:0:0:0:
432,256,201861,2,8,L|488:256,1,44.9999988079071
280,328,202009,5,14,0:0:0:0:
144,280,202158,2,0,L|136:88,1,179.999995231629,8|8,0:0|0:0,0:0:0:0:
376,184,202604,2,0,L|384:72,1,89.9999976158143,8|8,0:1|0:0,0:0:0:0:
136,88,202901,1,2,0:0:0:0:
376,56,203049,6,0,L|168:56,1,179.999995231629,10|8,0:0|0:1,0:0:0:0:
424,168,203495,2,0,L|432:296,1,89.9999976158143,14|0,0:0|0:0,0:0:0:0:
200,344,203792,1,8,3:0:0:0:
272,304,203891,1,8,3:0:0:0:
200,272,203990,1,8,3:0:0:0:
384,264,204089,1,4,3:0:0:0:
448,224,204188,1,4,3:0:0:0:
384,192,204287,1,4,3:0:0:0:
160,192,204386,6,0,L|40:192,1,89.9999976158143,14|0,0:0|0:0,0:0:0:0:
192,136,204683,1,8,0:0:0:0:
320,104,204831,1,8,0:0:0:0:
70,192,204980,2,0,L|62:88,1,89.9999976158143,14|0,0:1|0:0,0:0:0:0:
320,256,205277,1,2,0:0:0:0:
192,136,205425,6,0,L|384:136,1,179.999995231629,2|8,0:0|0:1,0:0:0:0:
224,224,205871,1,8,0:0:0:0:
360,272,206019,2,8,L|408:272,1,44.9999988079071
224,320,206168,2,0,L|96:320,1,89.9999976158143,8|8,0:1|0:3,0:0:0:0:
360,176,206465,2,0,L|464:176,1,89.9999976158143,4|0,0:3|0:0,0:0:0:0:
224,224,206762,6,0,P|192:152|256:72,1,179.999995231629,14|0,0:0|0:0,0:0:0:0:
400,328,207207,2,0,P|304:96|112:32,1,449.999988079071,2|0,0:0|0:0,0:0:0:0:
352,312,208247,5,2,0:0:0:0:
144,296,208544,2,0,L|136:176,1,89.9999976158143,2|2,0:0|0:0,0:0:0:0:
280,184,208841,2,0,L|288:72,1,89.9999976158143,2|0,0:0|0:0,0:0:0:0:
56,88,209138,5,14,0:0:0:0:
184,144,209287,2,0,P|112:264|48:280,1,179.999995231629,8|0,0:0|0:0,0:0:0:0:
336,344,209732,2,0,L|344:224,1,89.9999976158143,8|0,0:1|0:0,0:0:0:0:
464,240,210029,1,2,0:0:0:0:
240,240,210178,6,0,P|152:200|144:112,1,179.999995231629,10|8,0:0|0:1,0:0:0:0:
272,104,210623,1,10,0:0:0:0:
408,152,210772,1,8,0:0:0:0:
272,200,210920,1,8,0:1:0:0:
40,248,211069,1,8,0:0:0:0:
320,312,211217,1,2,0:0:0:0:
192,304,211366,2,8,L|184:232,1,44.9999988079071
400,256,211514,5,10,0:0:0:0:
280,184,211663,2,0,P|312:96|392:56,1,179.999995231629,8|8,0:0|0:0,0:0:0:0:
152,40,212108,2,0,L|144:160,1,89.9999976158143,8|0,0:1|0:0,0:0:0:0:
24,176,212405,1,2,0:0:0:0:
280,224,212554,6,0,P|216:328|136:344,1,179.999995231629,8|8,0:0|0:1,0:0:0:0:
392,344,213000,2,0,L|496:344,1,89.9999976158143,10|8,0:0|0:0,0:0:0:0:
272,192,213297,1,8,0:1:0:0:
392,136,213445,1,8,0:0:0:0:
272,96,213594,1,8,0:1:0:0:
488,40,213742,2,8,L|496:112,1,44.9999988079071
272,96,213891,5,14,0:0:0:0:
152,136,214039,2,0,L|136:336,1,179.999995231629,8|0,0:0|0:0,0:0:0:0:
392,344,214485,2,0,L|400:216,1,89.9999976158143,8|8,0:1|0:0,0:0:0:0:
280,256,214782,1,10,0:1:0:0:
488,120,214930,6,0,L|272:120,1,179.999995231629,2|8,0:0|0:1,0:0:0:0:
168,120,215376,1,10,0:0:0:0:
312,192,215524,2,8,L|248:192,1,44.9999988079071
40,192,215673,1,8,0:1:0:0:
160,248,215821,1,8,0:3:0:0:
40,312,215970,1,4,0:3:0:0:
248,328,216118,2,8,L|296:328,1,44.9999988079071
448,328,216267,5,10,0:1:0:0:
328,320,216415,2,0,P|272:240|288:144,1,179.999995231629,8|8,0:0|0:0,0:0:0:0:
488,96,216861,2,0,L|384:96,1,89.9999976158143,8|8,0:1|0:0,0:0:0:0:
160,88,217158,1,8,0:1:0:0:
398,96,217306,6,0,P|438:144|382:256,1,179.999995231629,14|0,0:0|0:0,0:0:0:0:
64,336,217752,2,0,P|72:248|128:208,1,134.999996423721,8|0,0:1|0:0,0:0:0:0:
347,195,218049,2,0,P|432:171|461:109,1,134.999996423721,10|0,0:1|0:0,0:0:0:0:
128,200,218346,2,0,P|40:144|40:88,1,134.999996423721,10|0,0:1|0:0,0:0:0:0:
320,136,218643,5,14,0:0:0:0:
456,136,218792,2,0,L|464:344,1,179.999995231629,8|8,0:0|0:0,0:0:0:0:
104,328,219237,2,0,L|232:328,1,89.9999976158143,8|0,0:1|0:0,0:0:0:0:
400,320,219534,1,8,0:0:0:0:
194,328,219683,6,0,P|114:272|122:176,1,179.999995231629,14|0,0:0|0:0,0:0:0:0:
248,208,220128,2,0,L|256:96,1,89.9999976158143,10|8,0:0|0:0,0:0:0:0:
32,176,220425,2,0,L|40:72,1,89.9999976158143,10|8,0:1|0:0,0:0:0:0:
312,64,220722,1,10,0:0:0:0:
184,64,220871,2,8,L|120:64,1,44.9999988079071,10|8,0:0|0:0,0:0:0:0:
352,288,221019,5,14,0:0:0:0:
480,248,221168,2,0,L|488:48,1,179.999995231629,8|8,0:0|0:0,0:0:0:0:
208,56,221613,1,8,0:1:0:0:
328,88,221762,1,8,0:0:0:0:
104,208,221910,1,10,0:1:0:0:
448,360,222059,6,0,P|408:256|312:224,1,179.999995231629,14|8,0:0|0:1,0:0:0:0:
104,224,222505,1,10,0:0:0:0:
240,224,222653,2,8,L|304:224,1,44.9999988079071
432,184,222802,1,8,0:1:0:0:
288,144,222950,1,8,0:1:0:0:
152,104,223099,1,8,0:1:0:0:
288,64,223247,1,8,0:1:0:0:
72,224,223396,5,14,0:0:0:0:
192,272,223544,1,2,0:0:0:0:
72,344,223693,1,2,0:0:0:0:
400,224,223841,1,10,0:0:0:0:
272,272,223989,1,10,0:1:0:0:
384,344,224138,1,2,0:0:0:0:
160,184,224287,5,2,0:0:0:0:
256,152,224435,1,10,0:0:0:0:
352,128,224584,1,2,0:0:0:0:
104,120,224732,1,10,0:1:0:0:
192,64,224881,1,10,0:0:0:0:
96,40,225029,1,2,0:0:0:0:
368,304,225178,1,8,0:1:0:0:
296,240,225277,2,2,L|232:192,2,59.9999984105428
416,160,225623,1,8,0:0:0:0:
176,104,225772,6,0,P|80:168|72:256,1,179.999995231629,14|0,0:0|0:0,0:0:0:0:
320,312,226217,1,8,0:1:0:0:
184,288,226366,2,0,L|176:160,1,89.9999976158143,8|8,0:0|0:0,0:0:0:0:
240,200,226589,1,8,0:0:0:0:
392,200,226663,1,8,0:1:0:0:
160,352,226811,6,0,P|64:296|48:216,1,179.999995231629,14|8,0:0|0:0,0:0:0:0:
176,224,227257,1,8,0:0:0:0:
248,184,227356,1,8,0:0:0:0:
176,144,227455,1,8,0:0:0:0:
400,184,227554,1,8,0:1:0:0:
440,136,227653,1,8,0:3:0:0:
400,96,227752,1,8,0:3:0:0:
176,96,227851,1,4,0:3:0:0:
240,56,227950,1,4,0:3:0:0:
176,24,228049,1,4,0:3:0:0:
400,32,228148,5,14,0:0:0:0:
256,192,228297,12,0,237505,0:0:0:0:
