osu file format v14

[General]
AudioFilename: audio.mp3
AudioLeadIn: 0
PreviewTime: 58862
Countdown: 0
SampleSet: Soft
StackLeniency: 0.7
Mode: 3
LetterboxInBreaks: 0
SpecialStyle: 0
WidescreenStoryboard: 0

[Editor]
DistanceSpacing: 1
BeatDivisor: 4
GridSize: 32
TimelineZoom: 2.3

[Metadata]
Title:BWLAUTE BEIRRD
TitleUnicode:BWLAUTE BEIRRD
Artist:Yumeno Yuki
ArtistUnicode:夢乃ゆき
Creator:Nabi-
Version:rEXpresS
Source:抜きゲーみたいな島に住んでる貧乳はどうすりゃいいですか? 2
Tags:ml-ysg paran nukitashi 2 ぬきたし Nukige Mitai na Shima ni Sunderu Watashi wa Dou Surya Ii Desu ka? opening short version eroge visual novel japanese pop rock j-pop jpop jrock j-rock op Is the prospect Hope or Despair? english 抜きゲーみたいな島に住んでる貧乳(わたし)はどうすりゃいいですか? 2 blue bird VN 冷泉院桐香 Tohka Reizeiin qruppo
BeatmapID:3529314
BeatmapSetID:1726978

[Difficulty]
HPDrainRate:8.5
CircleSize:4
OverallDifficulty:8
ApproachRate:5
SliderMultiplier:1.4
SliderTickRate:1

[Events]
//Background and Video events
0,0,"131.png",0,0
//Break Periods
//Storyboard Layer 0 (Background)
//Storyboard Layer 1 (Fail)
//Storyboard Layer 2 (Pass)
//Storyboard Layer 3 (Foreground)
//Storyboard Layer 4 (Overlay)
//Storyboard Sound Samples

[TimingPoints]
614,304.568527918782,4,2,1,60,1,0
58938,-100,4,2,1,60,0,1
68228,-100,4,2,1,60,0,0
68685,-100,4,2,1,60,0,1
78431,-100,4,2,1,60,0,0
80867,-66.6666666666667,4,2,1,60,0,0
81020,-200,4,2,1,60,0,0
81172,-66.6666666666667,4,2,1,60,0,0
81325,-200,4,2,1,60,0,0
81476,-66.6666666666667,4,2,1,60,0,0
81629,-200,4,2,1,60,0,0
81781,-66.6666666666667,4,2,1,60,0,0
81934,-200,4,2,1,60,0,0
82086,-66.6666666666667,4,2,1,60,0,0
82238,-200,4,2,1,60,0,0
82390,-100,4,2,1,60,0,0

[HitObjects]
64,192,9751,128,0,10131:0:0:0:0:
192,192,9827,128,0,10131:0:0:0:0:
64,192,10207,1,2,0:0:0:0:
192,192,10207,128,4,10360:0:0:0:0:
320,192,10207,128,0,10664:0:0:0:0:
448,192,10207,128,0,10512:0:0:0:0:
192,192,10512,128,0,10664:0:0:0:0:
64,192,10664,128,0,10817:0:0:0:0:
448,192,10664,128,0,11273:0:0:0:0:
320,192,10817,128,0,10969:0:0:0:0:
64,192,10969,128,0,11121:0:0:0:0:
320,192,11121,128,0,11273:0:0:0:0:
64,192,11273,128,0,11883:0:0:0:0:
192,192,11273,128,0,11426:0:0:0:0:
448,192,11426,128,0,11730:0:0:0:0:
320,192,11730,128,0,11883:0:0:0:0:
192,192,11883,128,0,12035:0:0:0:0:
448,192,11883,128,0,12187:0:0:0:0:
320,192,12035,128,0,12187:0:0:0:0:
64,192,12187,1,8,0:0:0:0:
192,192,12187,1,0,0:0:0:0:
192,192,12339,1,2,0:0:0:0:
320,192,12339,1,0,0:0:0:0:
64,192,12492,1,8,0:0:0:0:
320,192,12492,1,0,0:0:0:0:
448,192,12492,1,0,0:0:0:0:
64,192,12644,128,2,12796:0:0:0:0:
192,192,12644,128,4,13101:0:0:0:0:
320,192,12644,128,0,12949:0:0:0:0:
448,192,12644,1,0,0:0:0:0:
64,192,12949,128,0,13101:0:0:0:0:
320,192,13101,128,0,13710:0:0:0:0:
448,192,13101,128,0,13253:0:0:0:0:
192,192,13253,128,0,13405:0:0:0:0:
448,192,13405,128,0,13558:0:0:0:0:
192,192,13558,128,0,13710:0:0:0:0:
64,192,13710,128,0,13862:0:0:0:0:
448,192,13710,128,0,14319:0:0:0:0:
320,192,13862,128,0,14167:0:0:0:0:
192,192,14167,128,0,14319:0:0:0:0:
64,192,14319,128,0,14471:0:0:0:0:
320,192,14319,128,0,14471:0:0:0:0:
192,192,14471,1,2,0:0:0:0:
448,192,14471,1,0,0:0:0:0:
320,192,14548,1,2,0:0:0:0:
64,192,14624,1,8,0:0:0:0:
192,192,14624,1,2,0:0:0:0:
448,192,14624,128,0,14928:0:0:0:0:
64,192,14776,1,2,0:0:0:0:
320,192,14776,128,0,14928:0:0:0:0:
192,192,14928,128,0,15081:0:0:0:0:
64,192,15081,128,2,15233:0:0:0:0:
320,192,15081,128,4,15385:0:0:0:0:
448,192,15081,128,0,15537:0:0:0:0:
64,192,15385,128,0,15537:0:0:0:0:
192,192,15537,128,2,15842:0:0:0:0:
320,192,15537,128,0,15690:0:0:0:0:
64,192,15690,128,0,15842:0:0:0:0:
320,192,15842,128,8,15994:0:0:0:0:
448,192,15842,128,0,16146:0:0:0:60:Hat Open.wav
64,192,15994,128,2,16146:0:0:0:0:
192,192,15994,1,0,0:0:0:0:
320,192,16146,128,0,16299:0:0:0:0:
64,192,16299,1,2,0:0:0:0:
192,192,16299,128,4,16603:0:0:0:0:
448,192,16299,128,0,16756:0:0:0:0:
320,192,16603,128,0,16756:0:0:0:0:
64,192,16756,128,2,16908:0:0:0:0:
192,192,16756,128,0,17060:0:0:0:0:
448,192,16908,128,2,17060:0:0:0:0:
64,192,17060,128,8,17365:0:0:0:0:
320,192,17060,128,0,17212:0:0:0:60:Hat Open.wav
192,192,17212,128,2,17365:0:0:0:0:
448,192,17212,1,0,0:0:0:0:
320,192,17365,128,0,17517:0:0:0:0:
64,192,17517,128,2,17822:0:0:0:0:
192,192,17517,128,4,17669:0:0:0:0:
448,192,17517,128,0,17822:0:0:0:0:
192,192,17822,128,0,17974:0:0:0:0:
64,192,17974,1,2,0:0:0:0:
448,192,17974,1,8,0:0:0:0:
320,192,18050,1,0,0:0:0:20:Snare.wav
192,192,18126,1,0,0:0:0:20:Snare.wav
64,192,18202,1,0,0:0:0:20:Snare.wav
320,192,18278,1,8,0:0:0:0:
448,192,18278,1,2,0:0:0:0:
64,192,18355,1,0,0:0:0:25:Snare.wav
192,192,18431,1,0,0:0:0:25:Snare.wav
320,192,18507,1,0,0:0:0:25:Snare.wav
64,192,18583,1,8,0:0:0:0:
448,192,18583,1,2,0:0:0:0:
320,192,18659,1,0,0:0:0:30:Snare.wav
192,192,18735,1,0,0:0:0:30:Snare.wav
64,192,18811,1,0,0:0:0:30:Snare.wav
320,192,18888,1,8,0:0:0:0:
448,192,18888,1,2,0:0:0:0:
64,192,18964,1,0,0:0:0:35:Snare.wav
192,192,19040,1,8,0:0:0:0:
320,192,19040,1,0,0:0:0:35:Snare.wav
448,192,19116,1,0,0:0:0:35:Snare.wav
64,192,19192,1,8,0:0:0:0:
192,192,19192,1,2,0:0:0:0:
448,192,19268,1,0,0:0:0:35:Snare.wav
192,192,19344,1,8,0:0:0:0:
320,192,19344,1,0,0:0:0:35:Snare.wav
64,192,19421,1,0,0:0:0:35:Snare.wav
448,192,19497,128,0,20030:0:0:0:0:
320,192,19649,128,0,20030:0:0:0:0:
192,192,19801,128,0,20030:0:0:0:0:
64,192,20106,1,4,0:0:0:0:
192,192,20106,1,2,0:0:0:0:
320,192,20106,1,0,0:0:0:0:
448,192,20106,1,0,0:0:0:0:
320,192,20258,1,0,0:0:0:0:
64,192,20410,1,8,0:0:0:0:
192,192,20410,1,2,0:0:0:0:
448,192,20410,1,0,0:0:0:60:Hat Open.wav
320,192,20563,1,0,0:0:0:0:
64,192,20715,1,2,0:0:0:0:
448,192,20715,1,0,0:0:0:60:Hat Open.wav
192,192,20867,1,0,0:0:0:0:
64,192,21020,1,8,0:0:0:0:
320,192,21020,1,2,0:0:0:0:
448,192,21020,1,0,0:0:0:60:Hat Open.wav
448,192,21172,1,0,0:0:0:0:
192,192,21324,1,2,0:0:0:0:
320,192,21324,1,0,0:0:0:60:Hat Open.wav
192,192,21476,1,0,0:0:0:0:
64,192,21629,1,8,0:0:0:0:
320,192,21629,1,2,0:0:0:0:
448,192,21629,1,0,0:0:0:60:Hat Open.wav
192,192,21781,1,0,0:0:0:0:
320,192,21933,1,2,0:0:0:0:
448,192,21933,1,0,0:0:0:60:Hat Open.wav
64,192,22086,1,0,0:0:0:0:
192,192,22238,1,8,0:0:0:0:
320,192,22238,1,0,0:0:0:60:Hat Open.wav
448,192,22238,1,0,0:0:0:0:
64,192,22390,1,2,0:0:0:0:
448,192,22390,1,0,0:0:0:0:
320,192,22542,1,0,0:0:0:60:Hat Open.wav
64,192,22695,1,2,0:0:0:0:
192,192,22695,1,0,0:0:0:0:
64,192,22847,1,2,0:0:0:0:
320,192,22847,1,8,0:0:0:0:
448,192,22847,1,0,0:0:0:60:Hat Open.wav
192,192,22999,1,0,0:0:0:0:
320,192,23152,1,2,0:0:0:0:
448,192,23152,1,0,0:0:0:60:Hat Open.wav
64,192,23304,1,0,0:0:0:0:
192,192,23456,1,8,0:0:0:0:
320,192,23456,1,2,0:0:0:0:
448,192,23456,1,0,0:0:0:60:Hat Open.wav
320,192,23608,1,0,0:0:0:0:
64,192,23761,1,2,0:0:0:0:
192,192,23761,1,0,0:0:0:60:Hat Open.wav
192,192,23913,1,0,0:0:0:0:
64,192,24065,1,2,0:0:0:0:
320,192,24065,1,8,0:0:0:0:
448,192,24065,1,0,0:0:0:60:Hat Open.wav
192,192,24218,1,0,0:0:0:0:
64,192,24370,1,8,0:0:0:0:
320,192,24370,1,0,0:0:0:60:Hat Open.wav
448,192,24370,1,0,0:0:0:0:
192,192,24522,1,2,0:0:0:0:
320,192,24522,1,0,0:0:0:0:
64,192,24674,1,8,0:0:0:0:
192,192,24674,1,0,0:0:0:60:Hat Open.wav
448,192,24674,1,0,0:0:0:0:
64,192,24827,128,2,25131:0:0:0:0:
320,192,24827,1,4,0:0:0:0:
448,192,24827,1,0,0:0:0:0:
192,192,25131,1,2,0:0:0:0:
320,192,25131,1,0,0:0:0:0:
64,192,25284,1,8,0:0:0:0:
192,192,25284,1,0,0:0:0:60:Hat Open.wav
448,192,25284,1,0,0:0:0:0:
320,192,25436,1,0,0:0:0:0:
64,192,25588,1,2,0:0:0:0:
192,192,25588,1,0,0:0:0:60:Hat Open.wav
448,192,25740,1,0,0:0:0:0:
64,192,25893,1,8,0:0:0:0:
192,192,25893,1,2,0:0:0:0:
320,192,25893,1,0,0:0:0:60:Hat Open.wav
192,192,26045,1,0,0:0:0:0:
320,192,26197,1,2,0:0:0:0:
448,192,26197,1,0,0:0:0:60:Hat Open.wav
320,192,26350,1,0,0:0:0:0:
64,192,26502,1,8,0:0:0:0:
192,192,26502,1,2,0:0:0:0:
448,192,26502,1,0,0:0:0:60:Hat Open.wav
320,192,26654,1,0,0:0:0:0:
64,192,26806,1,2,0:0:0:0:
448,192,26806,1,0,0:0:0:60:Hat Open.wav
192,192,26959,1,0,0:0:0:0:
64,192,27111,1,8,0:0:0:0:
320,192,27111,1,0,0:0:0:60:Hat Open.wav
448,192,27111,1,0,0:0:0:0:
64,192,27263,1,2,0:0:0:0:
192,192,27263,128,4,27568:0:0:0:0:
448,192,27263,1,0,0:0:0:0:
64,192,27568,1,0,0:0:0:0:
320,192,27720,1,2,0:0:0:0:
448,192,27720,1,8,0:0:0:0:
192,192,27796,1,0,0:0:0:20:Snare.wav
64,192,27872,1,0,0:0:0:20:Snare.wav
448,192,27949,1,0,0:0:0:20:Snare.wav
64,192,28025,1,8,0:0:0:0:
192,192,28025,1,2,0:0:0:0:
320,192,28101,1,0,0:0:0:25:Snare.wav
448,192,28177,1,0,0:0:0:25:Snare.wav
64,192,28253,1,0,0:0:0:25:Snare.wav
320,192,28329,1,8,0:0:0:0:
448,192,28329,1,2,0:0:0:0:
192,192,28405,1,0,0:0:0:30:Snare.wav
64,192,28482,1,0,0:0:0:30:Snare.wav
448,192,28558,1,0,0:0:0:30:Snare.wav
64,192,28634,1,8,0:0:0:0:
192,192,28634,1,2,0:0:0:0:
320,192,28710,1,0,0:0:0:35:Snare.wav
192,192,28786,1,8,0:0:0:0:
448,192,28786,1,0,0:0:0:35:Snare.wav
64,192,28862,1,0,0:0:0:35:Snare.wav
320,192,28938,1,8,0:0:0:0:
448,192,28938,1,2,0:0:0:0:
192,192,29015,1,0,0:0:0:35:Snare.wav
64,192,29091,1,8,0:0:0:0:
320,192,29091,1,0,0:0:0:35:Snare.wav
448,192,29167,1,0,0:0:0:35:Snare.wav
64,192,29243,1,8,0:0:0:0:
192,192,29243,1,2,0:0:0:0:
320,192,29319,1,0,0:0:0:35:Snare.wav
192,192,29395,1,8,0:0:0:0:
448,192,29395,1,0,0:0:0:35:Snare.wav
64,192,29471,1,0,0:0:0:35:Snare.wav
320,192,29548,1,10,0:0:0:0:
448,192,29548,1,0,0:0:0:50:Tom3.wav
192,192,29624,1,0,0:0:0:0:
320,192,29700,1,0,0:0:0:0:
64,192,29852,1,4,0:0:0:0:
192,192,29852,1,2,0:0:0:0:
448,192,29852,1,0,0:0:0:0:
320,192,30004,128,2,30157:0:0:0:0:
448,192,30004,1,0,0:0:0:0:
64,192,30157,128,8,30309:0:0:0:0:
192,192,30157,1,0,0:0:0:0:
448,192,30157,1,0,0:0:0:0:
320,192,30309,128,0,30461:0:0:0:0:
64,192,30461,128,0,30614:0:0:0:0:
320,192,30614,128,0,30766:0:0:0:0:
64,192,30766,128,8,30918:0:0:0:0:
192,192,30766,1,0,0:0:0:0:
448,192,30766,1,0,0:0:0:0:
448,192,30918,128,0,31223:0:0:0:0:
192,192,31070,1,0,0:0:0:0:
320,192,31223,128,0,31375:0:0:0:0:
64,192,31375,128,8,31527:0:0:0:0:
192,192,31375,1,0,0:0:0:0:
448,192,31375,1,0,0:0:0:0:
320,192,31527,128,0,31679:0:0:0:0:
192,192,31679,128,0,31832:0:0:0:0:
64,192,31832,128,2,31984:0:0:0:0:
448,192,31832,1,0,0:0:0:0:
192,192,31984,128,8,32136:0:0:0:0:
320,192,31984,1,0,0:0:0:0:
448,192,31984,1,0,0:0:0:0:
64,192,32136,128,2,32289:0:0:0:0:
320,192,32136,1,0,0:0:0:0:
64,192,32441,128,2,32593:0:0:0:0:
320,192,32441,1,0,0:0:0:0:
192,192,32593,1,8,0:0:0:0:
320,192,32593,128,0,32745:0:0:0:0:
448,192,32593,1,0,0:0:0:0:
64,192,32745,128,0,32898:0:0:0:0:
320,192,32898,128,0,33050:0:0:0:0:
64,192,33050,128,0,33202:0:0:0:0:
192,192,33202,1,8,0:0:0:0:
320,192,33202,128,0,33355:0:0:0:0:
448,192,33202,1,0,0:0:0:0:
192,192,33355,128,0,33659:0:0:0:0:
448,192,33507,1,0,0:0:0:0:
64,192,33659,128,0,33811:0:0:0:0:
192,192,33811,1,8,0:0:0:0:
320,192,33811,128,0,33964:0:0:0:0:
448,192,33811,1,0,0:0:0:0:
64,192,33964,128,0,34116:0:0:0:0:
192,192,34116,128,0,34268:0:0:0:0:
320,192,34268,128,2,34421:0:0:0:0:
448,192,34268,1,0,0:0:0:0:
64,192,34421,1,8,0:0:0:0:
192,192,34421,1,0,0:0:0:0:
448,192,34421,128,0,34573:0:0:0:0:
192,192,34573,128,0,34725:0:0:0:0:
320,192,34725,1,2,0:0:0:0:
448,192,34725,1,0,0:0:0:0:
192,192,34877,128,2,35030:0:0:0:0:
320,192,34877,1,0,0:0:0:0:
64,192,35030,1,8,0:0:0:0:
320,192,35030,1,0,0:0:0:0:
448,192,35030,128,0,35182:0:0:0:0:
192,192,35182,128,0,35334:0:0:0:0:
448,192,35334,128,0,35487:0:0:0:0:
192,192,35487,128,0,35639:0:0:0:0:
64,192,35639,1,8,0:0:0:0:
320,192,35639,1,0,0:0:0:0:
448,192,35639,128,0,35791:0:0:0:0:
64,192,35791,128,0,36096:0:0:0:0:
192,192,35943,1,0,0:0:0:0:
320,192,36096,128,0,36248:0:0:0:0:
64,192,36248,1,8,0:0:0:0:
192,192,36248,1,0,0:0:0:0:
448,192,36248,128,0,36400:0:0:0:0:
320,192,36400,128,0,36553:0:0:0:0:
192,192,36553,128,0,36705:0:0:0:0:
64,192,36705,128,2,36857:0:0:0:0:
448,192,36705,1,0,0:0:0:0:
192,192,36857,1,8,0:0:0:0:
320,192,36857,1,0,0:0:0:0:
448,192,36857,128,0,37009:0:0:0:0:
64,192,37009,1,2,0:0:0:0:
320,192,37009,128,0,37162:0:0:0:0:
192,192,37162,1,0,0:0:0:0:
64,192,37314,1,2,0:0:0:0:
320,192,37314,128,0,37466:0:0:0:0:
64,192,37466,128,8,37619:0:0:0:0:
192,192,37466,1,0,0:0:0:0:
448,192,37466,1,0,0:0:0:0:
320,192,37619,128,0,37771:0:0:0:0:
64,192,37771,128,0,37923:0:0:0:0:
320,192,37923,128,0,38075:0:0:0:0:
64,192,38075,128,8,38228:0:0:0:0:
192,192,38075,1,0,0:0:0:0:
448,192,38075,1,0,0:0:0:0:
448,192,38228,128,0,38380:0:0:0:0:
320,192,38380,128,0,38456:0:0:0:0:
320,192,38532,1,0,0:0:0:0:
64,192,38685,128,0,38761:0:0:0:0:
64,192,38837,1,0,0:0:0:0:
192,192,38989,128,0,39065:0:0:0:0:
320,192,38989,128,0,39141:0:0:0:0:
192,192,39141,128,0,39294:0:0:0:0:
64,192,39294,128,0,39446:0:0:0:60:Hat Open.wav
448,192,39294,128,0,39370:0:0:0:0:
448,192,39446,1,0,0:0:0:0:
64,192,39598,1,2,0:0:0:0:
192,192,39598,1,4,0:0:0:0:
320,192,39598,1,0,0:0:0:0:
448,192,39598,1,0,0:0:0:0:
64,192,39751,1,2,0:0:0:0:
192,192,39751,1,0,0:0:0:50:Tom3.wav
192,192,39903,1,8,0:0:0:0:
320,192,39903,1,0,0:0:0:50:Tom3.wav
448,192,39903,1,0,0:0:0:0:
64,192,40055,1,2,0:0:0:0:
448,192,40055,1,0,0:0:0:50:Tom3.wav
192,192,40207,1,0,0:0:0:50:Tom2.wav
320,192,40207,1,0,0:0:0:0:
448,192,40284,1,0,0:0:0:50:Tom2.wav
64,192,40360,1,2,0:0:0:0:
192,192,40360,1,0,0:0:0:50:Tom3.wav
64,192,40512,1,8,0:0:0:0:
320,192,40512,1,0,0:0:0:50:Tom3.wav
448,192,40512,1,0,0:0:0:0:
448,192,40664,128,0,40969:0:0:0:50:Tom3.wav
192,192,40817,1,0,0:0:0:50:Tom3.wav
64,192,40969,1,2,0:0:0:0:
320,192,40969,1,0,0:0:0:50:Tom3.wav
64,192,41121,1,8,0:0:0:0:
192,192,41121,1,0,0:0:0:50:Tom3.wav
448,192,41121,1,0,0:0:0:0:
192,192,41273,1,2,0:0:0:0:
320,192,41273,1,0,0:0:0:50:Tom3.wav
64,192,41426,1,0,0:0:0:50:Tom2.wav
448,192,41426,1,0,0:0:0:0:
192,192,41502,1,0,0:0:0:50:Tom2.wav
320,192,41578,1,2,0:0:0:0:
448,192,41578,1,0,0:0:0:50:Tom3.wav
64,192,41730,1,8,0:0:0:0:
192,192,41730,1,0,0:0:0:50:Tom3.wav
320,192,41730,1,0,0:0:0:0:
64,192,41883,1,2,0:0:0:0:
448,192,41883,1,0,0:0:0:50:Tom3.wav
320,192,42035,1,0,0:0:0:0:
64,192,42187,1,2,0:0:0:0:
192,192,42187,1,0,0:0:0:50:Tom3.wav
192,192,42339,1,8,0:0:0:0:
320,192,42339,1,0,0:0:0:50:Tom3.wav
448,192,42339,1,0,0:0:0:0:
64,192,42492,1,0,0:0:0:50:Tom3.wav
320,192,42644,1,0,0:0:0:50:Tom2.wav
448,192,42644,1,0,0:0:0:0:
192,192,42720,1,0,0:0:0:50:Tom2.wav
64,192,42796,1,2,0:0:0:0:
448,192,42796,1,0,0:0:0:50:Tom3.wav
64,192,42949,1,8,0:0:0:0:
192,192,42949,1,0,0:0:0:50:Tom3.wav
320,192,42949,1,0,0:0:0:0:
320,192,43101,128,0,43405:0:0:0:50:Tom3.wav
64,192,43253,1,2,0:0:0:0:
448,192,43253,1,0,0:0:0:50:Tom3.wav
64,192,43405,1,2,0:0:0:0:
192,192,43405,1,0,0:0:0:50:Tom3.wav
192,192,43558,1,8,0:0:0:0:
320,192,43558,1,0,0:0:0:50:Tom3.wav
448,192,43558,1,0,0:0:0:0:
64,192,43710,1,2,0:0:0:0:
448,192,43710,1,0,0:0:0:50:Tom3.wav
192,192,43862,1,0,0:0:0:50:Tom2.wav
320,192,43862,1,0,0:0:0:0:
448,192,43938,1,0,0:0:0:50:Tom2.wav
64,192,44015,1,2,0:0:0:0:
192,192,44015,1,0,0:0:0:50:Tom3.wav
64,192,44167,1,8,0:0:0:0:
320,192,44167,1,0,0:0:0:50:Tom3.wav
448,192,44167,1,0,0:0:0:0:
64,192,44319,1,2,0:0:0:0:
192,192,44319,1,4,0:0:0:0:
320,192,44319,128,0,44624:0:0:0:0:
448,192,44319,1,0,0:0:0:0:
64,192,44624,1,2,0:0:0:0:
192,192,44624,1,0,0:0:0:0:
192,192,44776,1,8,0:0:0:0:
320,192,44776,1,0,0:0:0:60:Hat Open.wav
448,192,44776,1,0,0:0:0:0:
448,192,44928,1,0,0:0:0:0:
64,192,45081,1,0,0:0:0:60:Hat Open.wav
192,192,45233,1,2,0:0:0:0:
320,192,45233,1,0,0:0:0:0:
64,192,45385,1,8,0:0:0:0:
320,192,45385,1,0,0:0:0:60:Hat Open.wav
448,192,45385,1,0,0:0:0:0:
64,192,45537,128,0,45842:0:0:0:0:
320,192,45690,1,0,0:0:0:60:Hat Open.wav
192,192,45842,1,2,0:0:0:0:
448,192,45842,1,0,0:0:0:0:
64,192,45994,1,8,0:0:0:0:
192,192,45994,1,0,0:0:0:60:Hat Open.wav
320,192,45994,1,0,0:0:0:0:
320,192,46146,1,2,0:0:0:0:
448,192,46146,1,0,0:0:0:0:
64,192,46299,1,0,0:0:0:60:Hat Open.wav
192,192,46451,1,2,0:0:0:0:
320,192,46451,1,0,0:0:0:0:
64,192,46603,1,8,0:0:0:0:
192,192,46603,1,0,0:0:0:60:Hat Open.wav
448,192,46603,1,0,0:0:0:0:
320,192,46756,1,2,0:0:0:0:
448,192,46756,128,0,47669:0:0:0:0:
64,192,46908,1,0,0:0:0:60:Hat Open.wav
192,192,47060,1,2,0:0:0:0:
320,192,47060,1,0,0:0:0:0:
64,192,47212,1,8,0:0:0:0:
192,192,47212,1,0,0:0:0:60:Hat Open.wav
320,192,47212,1,0,0:0:0:0:
64,192,47365,1,0,0:0:0:0:
320,192,47517,1,0,0:0:0:60:Hat Open.wav
64,192,47669,1,2,0:0:0:0:
192,192,47669,1,0,0:0:0:0:
64,192,47822,1,8,0:0:0:0:
192,192,47822,1,0,0:0:0:0:
320,192,47822,1,0,0:0:0:0:
64,192,47974,128,2,48583:0:0:0:0:
192,192,47974,1,4,0:0:0:0:
320,192,47974,1,0,0:0:0:0:
448,192,47974,128,0,48278:0:0:0:0:
192,192,48278,1,2,0:0:0:0:
320,192,48278,1,0,0:0:0:0:
192,192,48431,1,8,0:0:0:0:
320,192,48431,1,0,0:0:0:60:Hat Open.wav
448,192,48431,1,0,0:0:0:0:
320,192,48583,1,2,0:0:0:0:
448,192,48583,1,0,0:0:0:0:
64,192,48735,1,8,0:0:0:0:
192,192,48735,1,0,0:0:0:0:
448,192,48735,1,0,0:0:0:0:
192,192,48888,1,2,0:0:0:0:
320,192,48888,1,0,0:0:0:0:
64,192,49192,1,2,0:0:0:0:
192,192,49192,128,4,49497:0:0:0:0:
320,192,49192,1,0,0:0:0:0:
448,192,49192,128,0,49649:0:0:0:0:
64,192,49497,1,2,0:0:0:0:
320,192,49497,1,0,0:0:0:0:
320,192,49649,1,0,0:0:0:30:Ride.wav
64,192,49801,1,8,0:0:0:0:
192,192,49801,1,0,0:0:0:0:
448,192,49801,1,0,0:0:0:0:
192,192,49954,128,0,50258:0:0:0:30:Ride.wav
320,192,50106,1,2,0:0:0:0:
448,192,50106,1,0,0:0:0:0:
64,192,50258,1,8,0:0:0:0:
320,192,50258,1,0,0:0:0:30:Ride.wav
448,192,50258,1,0,0:0:0:0:
64,192,50410,128,2,50715:0:0:0:0:
192,192,50410,1,0,0:0:0:0:
320,192,50715,1,2,0:0:0:0:
448,192,50715,1,0,0:0:0:0:
192,192,50867,128,0,51172:0:0:0:30:Ride.wav
64,192,51020,1,8,0:0:0:0:
320,192,51020,1,0,0:0:0:0:
448,192,51020,1,0,0:0:0:0:
320,192,51172,128,0,51476:0:0:0:30:Ride.wav
64,192,51324,1,2,0:0:0:0:
192,192,51324,1,0,0:0:0:0:
64,192,51476,1,8,0:0:0:0:
192,192,51476,1,0,0:0:0:0:
448,192,51476,1,0,0:0:0:0:
64,192,51629,128,4,51933:0:0:0:0:
192,192,51629,1,2,0:0:0:0:
320,192,51629,1,0,0:0:0:0:
448,192,51629,128,0,51933:0:0:0:0:
192,192,51933,128,2,52086:0:0:0:0:
320,192,51933,1,0,0:0:0:0:
64,192,52086,1,8,0:0:0:0:
320,192,52086,128,0,52390:0:0:0:50:Tom3.wav
448,192,52086,128,0,52238:0:0:0:0:
192,192,52238,128,0,52390:0:0:0:50:Tom3.wav
64,192,52390,128,0,52695:0:0:0:50:Tom1.wav
320,192,52542,128,2,52695:0:0:0:0:
448,192,52542,1,0,0:0:0:50:Tom3.wav
192,192,52695,128,8,52999:0:0:0:0:
448,192,52695,128,0,52847:0:0:0:50:Tom3.wav
320,192,52847,128,0,52999:0:0:0:50:Tom3.wav
64,192,52999,1,2,0:0:0:0:
448,192,52999,128,0,53304:0:0:0:50:Tom3.wav
64,192,53152,128,2,53304:0:0:0:0:
320,192,53152,1,0,0:0:0:50:Tom3.wav
192,192,53304,128,8,53456:0:0:0:0:
320,192,53304,128,0,53456:0:0:0:50:Tom3.wav
64,192,53456,1,2,0:0:0:0:
448,192,53456,1,0,0:0:0:50:Tom3.wav
64,192,53608,128,8,53913:0:0:0:0:
192,192,53608,1,0,0:0:0:60:Hat Open.wav
320,192,53608,1,0,0:0:0:0:
448,192,53608,128,0,53913:0:0:0:0:
192,192,53761,128,2,53913:0:0:0:0:
320,192,53761,128,0,53913:0:0:0:0:
64,192,54065,128,2,54522:0:0:0:0:
192,192,54065,1,4,0:0:0:0:
320,192,54065,128,0,54370:0:0:0:0:
448,192,54065,1,0,0:0:0:0:
192,192,54370,1,2,0:0:0:0:
448,192,54370,1,0,0:0:0:0:
192,192,54522,1,8,0:0:0:0:
320,192,54522,1,0,0:0:0:60:Hat Open.wav
448,192,54522,1,0,0:0:0:0:
64,192,54674,1,0,0:0:0:0:
320,192,54827,128,0,55131:0:0:0:60:Hat Open.wav
64,192,54979,1,2,0:0:0:0:
192,192,54979,1,0,0:0:0:0:
64,192,55131,1,8,0:0:0:0:
192,192,55131,1,0,0:0:0:60:Hat Open.wav
448,192,55131,1,0,0:0:0:0:
64,192,55284,1,2,0:0:0:0:
448,192,55284,128,0,55588:0:0:0:0:
320,192,55436,1,0,0:0:0:60:Hat Open.wav
64,192,55588,1,2,0:0:0:0:
192,192,55588,1,0,0:0:0:0:
64,192,55740,1,8,0:0:0:0:
320,192,55740,128,0,56045:0:0:0:60:Hat Open.wav
448,192,55740,1,0,0:0:0:0:
192,192,56045,128,0,56350:0:0:0:60:Hat Open.wav
320,192,56197,1,2,0:0:0:0:
448,192,56197,1,0,0:0:0:0:
64,192,56350,1,8,0:0:0:0:
320,192,56350,1,0,0:0:0:0:
448,192,56350,1,0,0:0:0:0:
64,192,56502,128,2,56654:0:0:0:0:
192,192,56502,1,0,0:0:0:50:Short Cymbal.wav
448,192,56502,1,0,0:0:0:0:
64,192,56806,128,0,56959:0:0:0:0:
320,192,56959,128,0,57111:0:0:0:0:
64,192,57111,128,0,57263:0:0:0:0:
320,192,57263,128,0,57416:0:0:0:0:
192,192,57416,128,0,57568:0:0:0:0:
448,192,57568,128,0,57644:0:0:0:0:
64,192,57720,128,2,57796:0:0:0:0:
192,192,57720,128,0,57796:0:0:0:50:Short Cymbal.wav
320,192,57720,128,0,57796:0:0:0:0:
448,192,57720,128,0,57796:0:0:0:0:
64,192,58025,128,2,58101:0:0:0:0:
192,192,58025,128,0,58101:0:0:0:50:Short Cymbal.wav
320,192,58025,128,0,58101:0:0:0:0:
448,192,58025,128,0,58101:0:0:0:0:
64,192,58329,128,2,58710:0:0:0:0:
192,192,58329,128,0,58405:0:0:0:0:
192,192,58482,128,8,58558:0:0:0:0:
320,192,58482,128,0,58558:0:0:0:0:
448,192,58482,128,0,58558:0:0:0:0:
192,192,58634,128,8,58710:0:0:0:0:
320,192,58634,128,0,58710:0:0:0:0:
448,192,58634,128,0,58710:0:0:0:0:
64,192,58938,1,2,0:0:0:0:
192,192,58938,1,4,0:0:0:0:
320,192,58938,128,0,59243:0:0:0:0:
448,192,58938,128,0,59395:0:0:0:0:
192,192,59243,128,0,59395:0:0:0:0:
64,192,59395,128,10,59700:0:0:0:0:
320,192,59395,128,0,59548:0:0:0:60:Hat Open.wav
192,192,59548,128,0,59700:0:0:0:0:
320,192,59700,128,2,59852:0:0:0:0:
448,192,59700,128,0,60004:0:0:0:60:Hat Open.wav
192,192,59852,128,0,60157:0:0:0:0:
64,192,60004,1,10,0:0:0:0:
320,192,60004,128,0,60309:0:0:0:60:Hat Open.wav
64,192,60157,128,0,60461:0:0:0:0:
192,192,60309,128,2,60461:0:0:0:0:
448,192,60309,1,0,0:0:0:60:Hat Open.wav
320,192,60461,128,0,60614:0:0:0:0:
64,192,60614,128,2,60766:0:0:0:0:
192,192,60614,1,8,0:0:0:0:
448,192,60614,128,0,60766:0:0:0:60:Hat Open.wav
192,192,60766,128,0,60918:0:0:0:0:
64,192,60918,128,2,61070:0:0:0:0:
320,192,60918,128,0,60994:0:0:0:60:Hat Open.wav
448,192,60918,1,0,0:0:0:0:
320,192,61070,128,0,61223:0:0:0:0:
64,192,61223,1,2,0:0:0:0:
192,192,61223,1,8,0:0:0:0:
448,192,61223,1,0,0:0:0:60:Hat Open.wav
192,192,61375,128,2,61603:0:0:0:0:
448,192,61375,128,0,61603:0:0:0:0:
320,192,61527,1,0,0:0:0:60:Hat Open.wav
192,192,61679,128,2,61832:0:0:0:0:
448,192,61679,128,0,61756:0:0:0:0:
64,192,61832,128,8,62136:0:0:0:0:
320,192,61832,128,2,61984:0:0:0:0:
448,192,61832,1,0,0:0:0:60:Hat Open.wav
192,192,61984,128,0,62060:0:0:0:0:
192,192,62136,128,2,62289:0:0:0:0:
448,192,62136,128,0,62212:0:0:0:60:Hat Open.wav
448,192,62289,128,0,62441:0:0:0:0:
64,192,62441,128,2,62593:0:0:0:0:
192,192,62441,1,8,0:0:0:0:
320,192,62441,1,0,0:0:0:60:Hat Open.wav
320,192,62593,128,0,62898:0:0:0:0:
64,192,62745,1,2,0:0:0:0:
192,192,62745,128,0,62898:0:0:0:60:Hat Open.wav
448,192,62898,128,0,62974:0:0:0:0:
64,192,63050,128,8,63202:0:0:0:0:
192,192,63050,1,2,0:0:0:0:
448,192,63050,128,0,63202:0:0:0:60:Hat Open.wav
320,192,63202,128,0,63355:0:0:0:0:
64,192,63355,1,8,0:0:0:0:
192,192,63355,1,0,0:0:0:60:Hat Open.wav
448,192,63355,1,0,0:0:0:0:
192,192,63507,1,2,0:0:0:0:
320,192,63507,1,0,0:0:0:0:
64,192,63659,1,8,0:0:0:0:
320,192,63659,1,0,0:0:0:60:Hat Open.wav
448,192,63659,1,0,0:0:0:0:
64,192,63811,128,2,64116:0:0:0:0:
192,192,63811,128,4,63964:0:0:0:0:
320,192,63811,1,0,0:0:0:0:
448,192,63811,128,0,64116:0:0:0:0:
192,192,64116,128,2,64268:0:0:0:0:
320,192,64116,1,0,0:0:0:0:
64,192,64268,128,8,64421:0:0:0:0:
320,192,64268,1,2,0:0:0:0:
448,192,64268,128,0,64344:0:0:0:60:Hat Open.wav
448,192,64421,128,0,64573:0:0:0:0:
192,192,64573,128,2,64725:0:0:0:0:
320,192,64573,128,0,64877:0:0:0:60:Hat Open.wav
64,192,64725,128,0,64877:0:0:0:0:
192,192,64877,1,10,0:0:0:0:
448,192,64877,128,0,65030:0:0:0:60:Hat Open.wav
192,192,65030,128,0,65334:0:0:0:0:
64,192,65182,128,2,65334:0:0:0:0:
320,192,65182,1,0,0:0:0:60:Hat Open.wav
448,192,65334,128,0,65487:0:0:0:0:
64,192,65487,1,2,0:0:0:0:
192,192,65487,1,8,0:0:0:0:
320,192,65487,128,0,65639:0:0:0:60:Hat Open.wav
64,192,65639,128,0,65791:0:0:0:0:
320,192,65791,128,2,65943:0:0:0:0:
448,192,65791,128,0,66096:0:0:0:60:Hat Open.wav
192,192,65943,128,0,66096:0:0:0:0:
64,192,66096,1,10,0:0:0:0:
320,192,66096,1,0,0:0:0:60:Hat Open.wav
64,192,66248,128,2,66629:0:0:0:0:
192,192,66248,1,4,0:0:0:0:
320,192,66248,1,0,0:0:0:0:
448,192,66248,128,0,66629:0:0:0:0:
192,192,66553,128,2,66629:0:0:0:0:
320,192,66553,128,0,66629:0:0:0:0:
64,192,66705,128,8,66781:0:0:0:0:
192,192,66705,128,0,66781:0:0:0:60:Hat Open.wav
448,192,66705,128,0,66933:0:0:0:0:
192,192,66857,128,2,66933:0:0:0:0:
320,192,66857,128,0,66933:0:0:0:0:
64,192,67009,128,8,67238:0:0:0:0:
320,192,67009,128,0,67086:0:0:0:60:Hat Open.wav
448,192,67009,128,0,67086:0:0:0:0:
192,192,67162,128,2,67238:0:0:0:0:
448,192,67162,128,0,67238:0:0:0:0:
64,192,67314,128,8,67390:0:0:0:0:
192,192,67314,128,0,67390:0:0:0:60:Hat Open.wav
448,192,67314,1,0,0:0:0:0:
64,192,67466,128,2,67923:0:0:0:0:
320,192,67466,1,4,0:0:0:0:
448,192,67466,128,0,67771:0:0:0:0:
192,192,67771,1,2,0:0:0:0:
320,192,67771,1,0,0:0:0:0:
192,192,67923,1,8,0:0:0:0:
320,192,67923,1,0,0:0:0:60:Hat Open.wav
448,192,67923,1,0,0:0:0:0:
64,192,68075,1,2,0:0:0:0:
448,192,68075,1,0,0:0:0:0:
64,192,68228,1,0,0:0:0:50:Tom1.wav
192,192,68228,1,0,0:0:0:0:
320,192,68304,1,0,0:0:0:50:Tom1.wav
448,192,68304,1,0,0:0:0:0:
64,192,68380,1,2,0:0:0:0:
192,192,68380,1,0,0:0:0:50:Tom3.wav
192,192,68532,1,8,0:0:0:0:
320,192,68532,1,0,0:0:0:0:
448,192,68532,1,0,0:0:0:0:
64,192,68685,128,2,69141:0:0:0:0:
192,192,68685,128,4,68989:0:0:0:0:
320,192,68685,1,0,0:0:0:0:
448,192,68685,1,0,0:0:0:0:
320,192,68989,128,0,69141:0:0:0:0:
192,192,69141,128,10,69294:0:0:0:0:
448,192,69141,128,0,69446:0:0:0:60:Hat Open.wav
320,192,69294,128,0,69446:0:0:0:0:
64,192,69446,128,2,69751:0:0:0:0:
192,192,69446,128,0,69598:0:0:0:60:Hat Open.wav
320,192,69598,128,0,69903:0:0:0:0:
192,192,69751,128,10,70055:0:0:0:0:
448,192,69751,1,0,0:0:0:60:Hat Open.wav
448,192,69903,128,0,70207:0:0:0:0:
64,192,70055,1,2,0:0:0:0:
320,192,70055,128,0,70207:0:0:0:60:Hat Open.wav
192,192,70207,128,0,70360:0:0:0:0:
64,192,70360,128,8,70512:0:0:0:0:
320,192,70360,1,2,0:0:0:0:
448,192,70360,128,0,70512:0:0:0:60:Hat Open.wav
320,192,70512,128,0,70664:0:0:0:0:
192,192,70664,128,2,70740:0:0:0:0:
448,192,70664,128,0,70817:0:0:0:60:Hat Open.wav
192,192,70817,128,0,70969:0:0:0:0:
64,192,70969,1,8,0:0:0:0:
320,192,70969,1,2,0:0:0:0:
448,192,70969,1,0,0:0:0:60:Hat Open.wav
64,192,71121,128,2,71426:0:0:0:0:
320,192,71121,128,0,71273:0:0:0:0:
192,192,71273,1,0,0:0:0:60:Hat Open.wav
320,192,71426,1,2,0:0:0:0:
448,192,71426,128,0,71578:0:0:0:0:
64,192,71578,1,8,0:0:0:0:
192,192,71578,128,2,71730:0:0:0:0:
320,192,71578,128,0,71730:0:0:0:60:Hat Open.wav
448,192,71730,128,0,71883:0:0:0:0:
64,192,71883,128,2,71959:0:0:0:0:
192,192,71883,128,0,72035:0:0:0:60:Hat Open.wav
64,192,72035,128,0,72187:0:0:0:0:
192,192,72187,1,2,0:0:0:0:
320,192,72187,128,8,72339:0:0:0:0:
448,192,72187,128,0,72263:0:0:0:60:Hat Open.wav
448,192,72339,128,0,72644:0:0:0:0:
64,192,72492,128,2,72644:0:0:0:0:
320,192,72492,1,0,0:0:0:60:Hat Open.wav
192,192,72644,128,0,72796:0:0:0:0:
64,192,72796,1,2,0:0:0:0:
320,192,72796,128,8,72949:0:0:0:0:
448,192,72796,128,0,72949:0:0:0:60:Hat Open.wav
192,192,72949,128,0,73101:0:0:0:0:
64,192,73101,1,8,0:0:0:0:
320,192,73101,1,0,0:0:0:60:Hat Open.wav
448,192,73101,1,0,0:0:0:0:
192,192,73253,1,2,0:0:0:0:
320,192,73253,1,0,0:0:0:0:
64,192,73405,1,8,0:0:0:0:
192,192,73405,1,0,0:0:0:60:Hat Open.wav
448,192,73405,1,0,0:0:0:0:
64,192,73558,128,2,73862:0:0:0:0:
192,192,73558,1,4,0:0:0:0:
320,192,73558,128,0,73710:0:0:0:0:
448,192,73558,128,0,73862:0:0:0:0:
192,192,73862,128,2,74015:0:0:0:0:
320,192,73862,1,0,0:0:0:0:
64,192,74015,128,8,74091:0:0:0:0:
320,192,74015,1,2,0:0:0:0:
448,192,74015,128,0,74167:0:0:0:60:Hat Open.wav
64,192,74167,128,0,74319:0:0:0:0:
192,192,74319,128,2,74471:0:0:0:0:
320,192,74319,128,0,74395:0:0:0:60:Hat Open.wav
320,192,74471,128,0,74624:0:0:0:0:
64,192,74624,128,8,74776:0:0:0:0:
192,192,74624,1,2,0:0:0:0:
448,192,74624,1,0,0:0:0:60:Hat Open.wav
448,192,74776,128,0,75081:0:0:0:0:
192,192,74928,1,2,0:0:0:0:
320,192,74928,128,0,75081:0:0:0:40:Ride.wav
64,192,75081,128,0,75233:0:0:0:0:
192,192,75233,128,8,75385:0:0:0:0:
320,192,75233,1,2,0:0:0:0:
448,192,75233,1,0,0:0:0:40:Ride.wav
448,192,75385,128,0,75537:0:0:0:0:
64,192,75537,128,2,75842:0:0:0:0:
192,192,75537,1,0,0:0:0:40:Ride.wav
320,192,75690,128,0,75842:0:0:0:0:
192,192,75842,1,10,0:0:0:0:
448,192,75842,1,0,0:0:0:40:Ride.wav
64,192,75994,128,2,76146:0:0:0:0:
192,192,75994,128,4,76146:0:0:0:0:
320,192,75994,1,0,0:0:0:0:
448,192,75994,128,0,76146:0:0:0:0:
320,192,76299,128,0,76451:0:0:0:0:
64,192,76451,128,2,76603:0:0:0:0:
192,192,76451,1,8,0:0:0:0:
448,192,76603,1,0,0:0:0:10:Snare.wav
320,192,76679,1,0,0:0:0:10:Snare.wav
192,192,76756,1,2,0:0:0:0:
448,192,76756,128,8,76908:0:0:0:0:
320,192,76908,128,0,77060:0:0:0:20:Snare.wav
192,192,76984,1,0,0:0:0:20:Snare.wav
64,192,77060,128,2,77212:0:0:0:0:
448,192,77060,1,8,0:0:0:0:
448,192,77212,1,0,0:0:0:25:Snare.wav
320,192,77289,1,0,0:0:0:25:Snare.wav
64,192,77365,1,8,0:0:0:0:
192,192,77365,1,2,0:0:0:0:
448,192,77441,1,0,0:0:0:30:Snare.wav
64,192,77517,1,8,0:0:0:0:
320,192,77517,1,0,0:0:0:30:Snare.wav
192,192,77593,1,0,0:0:0:30:Snare.wav
320,192,77669,1,8,0:0:0:0:
448,192,77669,1,2,0:0:0:0:
64,192,77745,1,0,0:0:0:30:Snare.wav
192,192,77822,1,8,0:0:0:0:
448,192,77822,1,0,0:0:0:30:Snare.wav
320,192,77898,1,0,0:0:0:30:Snare.wav
64,192,77974,1,8,0:0:0:0:
192,192,77974,1,2,0:0:0:0:
448,192,78050,1,0,0:0:0:30:Snare.wav
64,192,78126,1,8,0:0:0:0:
320,192,78126,1,0,0:0:0:30:Snare.wav
192,192,78202,1,0,0:0:0:30:Snare.wav
320,192,78278,1,2,0:0:0:0:
448,192,78278,1,0,0:0:0:50:Tom3.wav
64,192,78431,128,2,79497:0:0:0:0:
192,192,78431,1,4,0:0:0:0:
320,192,78431,128,0,78735:0:0:0:0:
448,192,78431,128,0,78735:0:0:0:0:
192,192,78888,128,0,79040:0:0:0:0:
448,192,79192,128,0,79344:0:0:0:0:
320,192,79344,128,0,79497:0:0:0:0:
64,192,79649,128,2,79954:0:0:0:0:
192,192,79649,128,4,79954:0:0:0:0:
320,192,79649,1,0,0:0:0:0:
448,192,79649,128,0,80715:0:0:0:0:
320,192,80106,128,0,80258:0:0:0:0:
192,192,80410,128,0,80563:0:0:0:0:
192,192,80715,128,0,80867:0:0:0:0:
64,192,80867,1,2,0:0:0:0:
320,192,80867,1,0,0:0:0:50:Short Cymbal.wav
448,192,80867,1,0,0:0:0:0:
64,192,81172,1,2,0:0:0:0:
320,192,81172,1,0,0:0:0:50:Short Cymbal.wav
448,192,81172,1,0,0:0:0:0:
64,192,81476,1,2,0:0:0:0:
320,192,81476,1,0,0:0:0:50:Short Cymbal.wav
448,192,81476,1,0,0:0:0:0:
64,192,81781,1,2,0:0:0:0:
320,192,81781,1,0,0:0:0:50:Short Cymbal.wav
448,192,81781,1,0,0:0:0:0:
64,192,82086,1,2,0:0:0:0:
320,192,82086,1,0,0:0:0:50:Short Cymbal.wav
448,192,82086,1,0,0:0:0:0:
64,192,82390,1,2,0:0:0:0:
192,192,82390,1,0,0:0:0:0:
320,192,82466,1,2,0:0:0:0:
64,192,82542,1,8,0:0:0:0:
192,192,82542,1,0,0:0:0:0:
448,192,82542,1,0,0:0:0:0:
320,192,82695,1,2,0:0:0:0:
448,192,82695,1,0,0:0:0:0:
64,192,82847,1,8,0:0:0:0:
192,192,82847,1,0,0:0:0:60:Hat Open.wav
320,192,82847,1,0,0:0:0:0:
64,192,82999,1,2,0:0:0:0:
448,192,82999,1,0,0:0:0:0:
64,192,83152,128,0,83380:0:0:0:0:
448,192,83152,128,0,83380:0:0:0:0:
64,192,83456,1,4,0:0:0:0:
192,192,83456,128,2,83761:0:0:0:0:
320,192,83456,1,0,0:0:0:0:
448,192,83456,1,0,0:0:0:0:
320,192,83608,1,0,0:0:0:0:
64,192,83761,1,8,0:0:0:0:
320,192,83761,1,2,0:0:0:0:
448,192,83761,1,0,0:0:0:60:Hat Open.wav
64,192,83913,1,0,0:0:0:0:
320,192,84065,128,2,84370:0:0:0:0:
448,192,84065,1,0,0:0:0:60:Hat Open.wav
192,192,84218,1,0,0:0:0:0:
64,192,84370,1,8,0:0:0:0:
192,192,84370,1,2,0:0:0:0:
448,192,84370,1,0,0:0:0:60:Hat Open.wav
64,192,84522,128,0,84979:0:0:0:0:
192,192,84674,1,2,0:0:0:0:
320,192,84674,1,0,0:0:0:60:Hat Open.wav
448,192,84827,1,0,0:0:0:0:
192,192,84979,1,8,0:0:0:0:
320,192,84979,1,2,0:0:0:0:
448,192,84979,1,0,0:0:0:60:Hat Open.wav
320,192,85131,1,0,0:0:0:0:
192,192,85284,1,2,0:0:0:0:
448,192,85284,1,0,0:0:0:60:Hat Open.wav
64,192,85436,1,0,0:0:0:0:
64,192,85588,1,8,0:0:0:0:
320,192,85588,1,0,0:0:0:60:Hat Open.wav
448,192,85588,1,0,0:0:0:0:
192,192,85740,1,2,0:0:0:0:
448,192,85740,128,0,86045:0:0:0:0:
320,192,85893,1,0,0:0:0:60:Hat Open.wav
64,192,86045,1,2,0:0:0:0:
192,192,86045,1,0,0:0:0:0:
64,192,86197,1,2,0:0:0:0:
192,192,86197,1,8,0:0:0:0:
320,192,86197,1,0,0:0:0:60:Hat Open.wav
320,192,86350,1,0,0:0:0:0:
64,192,86502,1,2,0:0:0:0:
192,192,86502,128,0,86806:0:0:0:60:Hat Open.wav
448,192,86654,1,0,0:0:0:0:
64,192,86806,1,8,0:0:0:0:
320,192,86806,1,2,0:0:0:0:
448,192,86806,1,0,0:0:0:60:Hat Open.wav
320,192,86959,128,0,87416:0:0:0:0:
192,192,87111,1,2,0:0:0:0:
448,192,87111,1,0,0:0:0:60:Hat Open.wav
64,192,87263,1,0,0:0:0:0:
64,192,87416,1,2,0:0:0:0:
192,192,87416,1,8,0:0:0:0:
448,192,87416,1,0,0:0:0:60:Hat Open.wav
192,192,87568,1,0,0:0:0:0:
64,192,87720,1,8,0:0:0:0:
320,192,87720,1,0,0:0:0:60:Hat Open.wav
448,192,87720,1,0,0:0:0:0:
192,192,87872,1,2,0:0:0:0:
320,192,87872,1,0,0:0:0:0:
64,192,88025,1,8,0:0:0:0:
192,192,88025,1,0,0:0:0:60:Hat Open.wav
448,192,88025,1,0,0:0:0:0:
64,192,88177,1,2,0:0:0:0:
192,192,88177,1,4,0:0:0:0:
320,192,88177,128,0,88482:0:0:0:0:
448,192,88177,1,0,0:0:0:0:
192,192,88482,1,2,0:0:0:0:
448,192,88482,1,0,0:0:0:0:
64,192,88634,1,8,0:0:0:0:
192,192,88634,1,0,0:0:0:60:Hat Open.wav
448,192,88634,1,0,0:0:0:0:
320,192,88786,1,0,0:0:0:0:
64,192,88938,1,2,0:0:0:0:
448,192,88938,128,0,89243:0:0:0:60:Hat Open.wav
320,192,89091,1,0,0:0:0:0:
64,192,89243,1,8,0:0:0:0:
192,192,89243,1,2,0:0:0:0:
320,192,89243,1,0,0:0:0:60:Hat Open.wav
64,192,89395,128,0,89700:0:0:0:0:
320,192,89548,1,2,0:0:0:0:
448,192,89548,1,0,0:0:0:60:Hat Open.wav
192,192,89700,1,0,0:0:0:0:
64,192,89852,1,8,0:0:0:0:
192,192,89852,1,2,0:0:0:0:
448,192,89852,1,0,0:0:0:60:Hat Open.wav
320,192,90004,1,0,0:0:0:0:
64,192,90157,1,2,0:0:0:0:
448,192,90157,128,0,90461:0:0:0:60:Hat Open.wav
320,192,90309,1,0,0:0:0:0:
64,192,90461,1,8,0:0:0:0:
192,192,90461,1,0,0:0:0:60:Hat Open.wav
320,192,90461,1,0,0:0:0:0:
64,192,90614,128,2,90918:0:0:0:0:
192,192,90614,128,4,90918:0:0:0:0:
320,192,90614,1,0,0:0:0:0:
448,192,90614,1,0,0:0:0:0:
320,192,90918,1,0,0:0:0:0:
192,192,91070,1,2,0:0:0:0:
448,192,91070,1,8,0:0:0:0:
320,192,91146,1,0,0:0:0:20:Snare.wav
64,192,91223,1,0,0:0:0:20:Snare.wav
448,192,91299,1,0,0:0:0:20:Snare.wav
64,192,91375,1,8,0:0:0:0:
320,192,91375,1,2,0:0:0:0:
192,192,91451,1,0,0:0:0:25:Snare.wav
448,192,91527,1,0,0:0:0:25:Snare.wav
64,192,91603,1,0,0:0:0:25:Snare.wav
192,192,91679,1,8,0:0:0:0:
448,192,91679,1,2,0:0:0:0:
320,192,91756,1,0,0:0:0:30:Snare.wav
64,192,91832,1,8,0:0:0:0:
192,192,91832,1,0,0:0:0:30:Snare.wav
448,192,91908,1,0,0:0:0:30:Snare.wav
64,192,91984,1,8,0:0:0:0:
320,192,91984,1,2,0:0:0:0:
192,192,92060,1,0,0:0:0:35:Snare.wav
320,192,92136,1,8,0:0:0:0:
448,192,92136,1,0,0:0:0:35:Snare.wav
64,192,92212,1,0,0:0:0:35:Snare.wav
192,192,92289,1,8,0:0:0:0:
320,192,92289,1,2,0:0:0:0:
448,192,92365,1,0,0:0:0:35:Snare.wav
64,192,92441,1,8,0:0:0:0:
192,192,92441,1,0,0:0:0:35:Snare.wav
448,192,92517,1,0,0:0:0:35:Snare.wav
192,192,92593,1,8,0:0:0:0:
320,192,92593,1,2,0:0:0:0:
64,192,92669,1,0,0:0:0:35:Snare.wav
320,192,92745,1,8,0:0:0:0:
448,192,92745,1,0,0:0:0:35:Snare.wav
64,192,92822,1,0,0:0:0:35:Snare.wav
192,192,92898,1,8,0:0:0:0:
320,192,92898,1,2,0:0:0:0:
448,192,92974,1,0,0:0:0:0:
64,192,93050,1,0,0:0:0:30:Snare.wav
192,192,93050,1,0,0:0:0:0:
320,192,93126,1,0,0:0:0:30:Snare.wav
448,192,93126,1,0,0:0:0:0:
192,192,93355,128,0,93431:0:0:0:0:
320,192,93431,128,0,93507:0:0:0:0:
64,192,93507,128,0,93964:0:0:0:0:
192,192,93659,128,0,94116:0:0:0:0:
320,192,93811,128,0,94116:0:0:0:0:
448,192,93964,128,0,94116:0:0:0:0:
64,192,94116,128,0,94573:0:0:0:0:
192,192,94268,128,2,94573:0:0:0:0:
320,192,94268,128,4,94573:0:0:0:0:
448,192,94268,128,0,94573:0:0:0:0:
