osu file format v14

[General]
AudioFilename: audio.mp3
AudioLeadIn: 0
PreviewTime: 58862
Countdown: 0
SampleSet: Soft
StackLeniency: 0.7
Mode: 3
LetterboxInBreaks: 0
SpecialStyle: 0
WidescreenStoryboard: 1

[Editor]
DistanceSpacing: 1
BeatDivisor: 4
GridSize: 32
TimelineZoom: 1.3

[Metadata]
Title:BWLAUTE BEIRRD
TitleUnicode:BWLAUTE BEIRRD
Artist:Yumeno Yuki
ArtistUnicode:夢乃ゆき
Creator:Nabi-
Version:Paran's Easy
Source:抜きゲーみたいな島に住んでる貧乳はどうすりゃいいですか? 2
Tags:ml-ysg paran nukitashi 2 ぬきたし Nukige Mitai na Shima ni Sunderu Watashi wa Dou Surya Ii Desu ka? opening short version eroge visual novel japanese pop rock j-pop jpop jrock j-rock op Is the prospect Hope or Despair? english 抜きゲーみたいな島に住んでる貧乳(わたし)はどうすりゃいいですか? 2 blue bird VN 冷泉院桐香 Tohka Reizeiin qruppo
BeatmapID:3593410
BeatmapSetID:1726978

[Difficulty]
HPDrainRate:7
CircleSize:4
OverallDifficulty:7
ApproachRate:5
SliderMultiplier:1.4
SliderTickRate:1

[Events]
//Background and Video events
0,0,"131.png",0,0
//Break Periods
//Storyboard Layer 0 (Background)
//Storyboard Layer 1 (Fail)
//Storyboard Layer 2 (Pass)
//Storyboard Layer 3 (Foreground)
//Storyboard Layer 4 (Overlay)
//Storyboard Sound Samples
Sample,20715,0,"Hat Open.wav",60
Sample,21933,0,"Hat Open.wav",60
Sample,22238,0,"Hat Open.wav",60
Sample,23152,0,"Hat Open.wav",60
Sample,24370,0,"Hat Open.wav",60
Sample,24674,0,"Hat Open.wav",60
Sample,25588,0,"Hat Open.wav",60
Sample,26502,0,"Hat Open.wav",60
Sample,26806,0,"Hat Open.wav",60
Sample,29395,0,"Snare.wav",35
Sample,29548,0,"Tom3.wav",50
Sample,39903,0,"Tom3.wav",50
Sample,40512,0,"Tom3.wav",50
Sample,41121,0,"Tom3.wav",50
Sample,41578,0,"Tom3.wav",50
Sample,41730,0,"Tom3.wav",50
Sample,41883,0,"Tom3.wav",50
Sample,42187,0,"Tom3.wav",50
Sample,42339,0,"Tom3.wav",50
Sample,42949,0,"Tom3.wav",50
Sample,43253,0,"Tom3.wav",50
Sample,43558,0,"Tom3.wav",50
Sample,44015,0,"Tom3.wav",50
Sample,44167,0,"Tom3.wav",50
Sample,44776,0,"Hat Open.wav",60
Sample,45385,0,"Hat Open.wav",60
Sample,45994,0,"Hat Open.wav",60
Sample,46603,0,"Hat Open.wav",60
Sample,47212,0,"Hat Open.wav",60
Sample,48431,0,"Hat Open.wav",60
Sample,50258,0,"Ride.wav",30
Sample,52086,0,"Tom3.wav",50
Sample,52542,0,"Tom3.wav",50
Sample,52695,0,"Tom3.wav",50
Sample,52999,0,"Tom3.wav",50
Sample,53152,0,"Tom3.wav",50
Sample,53304,0,"Tom3.wav",50
Sample,55131,0,"Hat Open.wav",60
Sample,55740,0,"Hat Open.wav",60
Sample,59395,0,"Hat Open.wav",60
Sample,59700,0,"Hat Open.wav",60
Sample,60004,0,"Hat Open.wav",60
Sample,60309,0,"Hat Open.wav",60
Sample,60614,0,"Hat Open.wav",60
Sample,60918,0,"Hat Open.wav",60
Sample,61223,0,"Hat Open.wav",60
Sample,61832,0,"Hat Open.wav",60
Sample,62136,0,"Hat Open.wav",60
Sample,62441,0,"Hat Open.wav",60
Sample,62745,0,"Hat Open.wav",60
Sample,63050,0,"Hat Open.wav",60
Sample,63355,0,"Hat Open.wav",60
Sample,63659,0,"Hat Open.wav",60
Sample,64268,0,"Hat Open.wav",60
Sample,64573,0,"Hat Open.wav",60
Sample,64877,0,"Hat Open.wav",60
Sample,65182,0,"Hat Open.wav",60
Sample,65487,0,"Hat Open.wav",60
Sample,65791,0,"Hat Open.wav",60
Sample,66096,0,"Hat Open.wav",60
Sample,66705,0,"Hat Open.wav",60
Sample,67009,0,"Hat Open.wav",60
Sample,67314,0,"Hat Open.wav",60
Sample,67923,0,"Hat Open.wav",60
Sample,68380,0,"Tom3.wav",50
Sample,69141,0,"Hat Open.wav",60
Sample,69446,0,"Hat Open.wav",60
Sample,69751,0,"Hat Open.wav",60
Sample,70055,0,"Hat Open.wav",60
Sample,70360,0,"Hat Open.wav",60
Sample,70664,0,"Hat Open.wav",60
Sample,70969,0,"Hat Open.wav",60
Sample,71578,0,"Hat Open.wav",60
Sample,71883,0,"Hat Open.wav",60
Sample,72187,0,"Hat Open.wav",60
Sample,72492,0,"Hat Open.wav",60
Sample,72796,0,"Hat Open.wav",60
Sample,73101,0,"Hat Open.wav",60
Sample,73405,0,"Hat Open.wav",60
Sample,74015,0,"Hat Open.wav",60
Sample,74319,0,"Hat Open.wav",60
Sample,74624,0,"Hat Open.wav",60
Sample,74928,0,"Ride.wav",40
Sample,75233,0,"Ride.wav",40
Sample,75537,0,"Ride.wav",40
Sample,75842,0,"Ride.wav",40
Sample,78278,0,"Tom3.wav",50
Sample,82847,0,"Hat Open.wav",60
Sample,84065,0,"Hat Open.wav",60
Sample,85284,0,"Hat Open.wav",60
Sample,85588,0,"Hat Open.wav",60
Sample,86502,0,"Hat Open.wav",60
Sample,87720,0,"Hat Open.wav",60
Sample,88025,0,"Hat Open.wav",60
Sample,88938,0,"Hat Open.wav",60
Sample,89852,0,"Hat Open.wav",60
Sample,90157,0,"Hat Open.wav",60
Sample,92745,0,"Snare.wav",35

[TimingPoints]
614,304.568527918782,4,2,1,60,1,0
58938,-100,4,2,1,60,0,1
68228,-100,4,2,1,60,0,0
68685,-100,4,2,1,60,0,1
78431,-100,4,2,1,60,0,0

[HitObjects]
320,192,9751,128,0,10207:0:0:0:0:
64,192,10207,1,2,0:0:0:0:
448,192,10207,1,4,0:0:0:0:
192,192,10664,1,0,0:0:0:0:
320,192,11273,1,0,0:0:0:0:
448,192,11883,1,0,0:0:0:0:
64,192,12187,1,8,0:0:0:0:
320,192,12339,1,2,0:0:0:0:
64,192,12492,1,8,0:0:0:0:
192,192,12644,1,2,0:0:0:0:
448,192,12644,1,4,0:0:0:0:
320,192,13101,1,0,0:0:0:0:
192,192,13710,1,0,0:0:0:0:
64,192,14319,1,0,0:0:0:0:
448,192,14471,1,2,0:0:0:0:
320,192,14624,1,10,0:0:0:0:
192,192,14776,1,2,0:0:0:0:
64,192,15081,1,2,0:0:0:0:
448,192,15081,1,4,0:0:0:0:
320,192,15537,1,2,0:0:0:0:
64,192,15842,1,8,0:0:0:0:
192,192,15842,1,0,0:0:0:60:Hat Open.wav
448,192,15994,1,2,0:0:0:0:
64,192,16299,1,2,0:0:0:0:
320,192,16299,1,4,0:0:0:0:
448,192,16756,128,2,17060:0:0:0:0:
64,192,17060,1,8,0:0:0:0:
192,192,17060,1,0,0:0:0:60:Hat Open.wav
320,192,17212,1,2,0:0:0:0:
64,192,17517,1,2,0:0:0:0:
448,192,17517,1,4,0:0:0:0:
192,192,17974,128,10,18278:0:0:0:0:
448,192,18278,128,10,18583:0:0:0:0:
64,192,18583,128,10,18888:0:0:0:0:
320,192,18888,128,10,19192:0:0:0:0:
192,192,19192,128,10,19497:0:0:0:0:
448,192,19497,128,0,20106:0:0:0:0:
64,192,20106,128,4,20715:0:0:0:0:
320,192,20106,1,2,0:0:0:0:
192,192,20715,128,2,21172:0:0:0:0:
320,192,21172,128,0,21933:0:0:0:0:
448,192,21933,1,2,0:0:0:0:
64,192,22238,1,8,0:0:0:0:
448,192,22390,128,2,23152:0:0:0:0:
320,192,23152,128,2,23608:0:0:0:0:
192,192,23608,128,0,24370:0:0:0:0:
64,192,24370,1,8,0:0:0:0:
320,192,24522,1,2,0:0:0:0:
192,192,24674,1,8,0:0:0:0:
64,192,24827,128,2,25588:0:0:0:0:
448,192,24827,1,4,0:0:0:0:
192,192,25588,128,2,26045:0:0:0:0:
320,192,26045,128,0,26502:0:0:0:0:
448,192,26502,1,10,0:0:0:0:
64,192,26806,128,2,27263:0:0:0:0:
320,192,27263,1,2,0:0:0:0:
448,192,27263,128,4,29243:0:0:0:0:
64,192,27720,1,10,0:0:0:0:
192,192,28025,1,10,0:0:0:0:
320,192,28329,1,10,0:0:0:0:
64,192,28634,1,10,0:0:0:0:
192,192,28938,1,10,0:0:0:0:
320,192,29243,1,10,0:0:0:0:
64,192,29395,1,8,0:0:0:0:
448,192,29548,1,10,0:0:0:0:
64,192,29852,1,4,0:0:0:0:
448,192,29852,1,2,0:0:0:0:
192,192,30004,1,2,0:0:0:0:
320,192,30157,1,8,0:0:0:0:
192,192,30766,1,8,0:0:0:0:
64,192,31375,1,8,0:0:0:0:
448,192,31832,1,2,0:0:0:0:
64,192,31984,1,8,0:0:0:0:
320,192,32136,1,2,0:0:0:0:
192,192,32441,1,2,0:0:0:0:
448,192,32593,1,8,0:0:0:0:
320,192,33202,1,8,0:0:0:0:
192,192,33811,1,8,0:0:0:0:
64,192,34268,1,2,0:0:0:0:
448,192,34421,1,8,0:0:0:0:
320,192,34725,1,2,0:0:0:0:
192,192,34877,1,2,0:0:0:0:
64,192,35030,1,8,0:0:0:0:
448,192,35639,1,8,0:0:0:0:
320,192,36248,1,8,0:0:0:0:
192,192,36705,1,2,0:0:0:0:
448,192,36857,1,8,0:0:0:0:
64,192,37009,1,2,0:0:0:0:
320,192,37314,1,2,0:0:0:0:
192,192,37466,1,8,0:0:0:0:
448,192,38075,1,8,0:0:0:0:
64,192,38380,128,0,38685:0:0:0:0:
192,192,38685,128,0,38989:0:0:0:0:
320,192,38989,128,0,39294:0:0:0:0:
448,192,39294,128,0,39598:0:0:0:60:Hat Open.wav
64,192,39598,1,2,0:0:0:0:
192,192,39598,1,4,0:0:0:0:
320,192,39903,1,8,0:0:0:0:
448,192,40207,1,0,0:0:0:50:Tom2.wav
64,192,40512,1,8,0:0:0:0:
192,192,40817,1,0,0:0:0:50:Tom3.wav
448,192,41121,1,8,0:0:0:0:
320,192,41426,1,0,0:0:0:50:Tom2.wav
192,192,41578,1,2,0:0:0:0:
64,192,41730,1,8,0:0:0:0:
448,192,41883,1,2,0:0:0:0:
320,192,42187,1,2,0:0:0:0:
192,192,42339,1,8,0:0:0:0:
64,192,42644,1,0,0:0:0:50:Tom2.wav
448,192,42949,1,8,0:0:0:0:
320,192,43253,1,2,0:0:0:0:
64,192,43558,1,8,0:0:0:0:
192,192,43862,1,0,0:0:0:50:Tom2.wav
320,192,44015,1,2,0:0:0:0:
448,192,44167,1,8,0:0:0:0:
64,192,44319,1,2,0:0:0:0:
192,192,44319,1,4,0:0:0:0:
320,192,44624,1,2,0:0:0:0:
64,192,44776,1,8,0:0:0:0:
448,192,45081,1,0,0:0:0:60:Hat Open.wav
192,192,45385,1,8,0:0:0:0:
320,192,45842,1,2,0:0:0:0:
64,192,45994,1,8,0:0:0:0:
448,192,46146,1,2,0:0:0:0:
192,192,46451,1,2,0:0:0:0:
448,192,46603,1,8,0:0:0:0:
64,192,46756,1,2,0:0:0:0:
320,192,47060,1,2,0:0:0:0:
192,192,47212,1,8,0:0:0:0:
448,192,47669,1,2,0:0:0:0:
64,192,47822,1,8,0:0:0:0:
192,192,47974,1,2,0:0:0:0:
320,192,47974,128,4,48735:0:0:0:0:
64,192,48431,1,8,0:0:0:0:
448,192,48735,1,8,0:0:0:0:
192,192,48888,1,2,0:0:0:0:
64,192,49192,1,2,0:0:0:0:
448,192,49192,128,4,49801:0:0:0:0:
320,192,49801,1,8,0:0:0:0:
64,192,50106,1,2,0:0:0:0:
448,192,50258,1,8,0:0:0:0:
192,192,50410,1,2,0:0:0:0:
192,192,50715,1,2,0:0:0:0:
320,192,51020,1,8,0:0:0:0:
448,192,51324,1,2,0:0:0:0:
64,192,51476,1,8,0:0:0:0:
192,192,51629,1,4,0:0:0:0:
320,192,51629,1,2,0:0:0:0:
448,192,51933,1,2,0:0:0:0:
64,192,52086,1,8,0:0:0:0:
320,192,52390,1,0,0:0:0:50:Tom1.wav
192,192,52542,1,2,0:0:0:0:
448,192,52695,1,8,0:0:0:0:
64,192,52999,1,2,0:0:0:0:
448,192,53152,1,2,0:0:0:0:
192,192,53304,1,8,0:0:0:0:
64,192,53608,1,8,0:0:0:0:
448,192,53608,1,0,0:0:0:60:Hat Open.wav
320,192,53761,1,2,0:0:0:0:
64,192,54065,128,2,54674:0:0:0:0:
448,192,54065,1,4,0:0:0:0:
192,192,54674,1,0,0:0:0:0:
448,192,54979,1,2,0:0:0:0:
64,192,55131,1,8,0:0:0:0:
320,192,55284,1,2,0:0:0:0:
320,192,55588,1,2,0:0:0:0:
192,192,55740,1,8,0:0:0:0:
64,192,56197,1,2,0:0:0:0:
448,192,56350,1,8,0:0:0:0:
192,192,56502,1,2,0:0:0:0:
320,192,56502,1,0,0:0:0:50:Short Cymbal.wav
64,192,56806,128,0,57111:0:0:0:0:
192,192,57111,128,0,57416:0:0:0:0:
320,192,57416,128,0,57720:0:0:0:0:
64,192,57720,1,2,0:0:0:0:
448,192,57720,1,0,0:0:0:50:Short Cymbal.wav
192,192,58025,1,2,0:0:0:0:
320,192,58025,1,0,0:0:0:50:Short Cymbal.wav
64,192,58329,1,2,0:0:0:0:
448,192,58329,1,0,0:0:0:0:
320,192,58482,1,8,0:0:0:0:
192,192,58634,1,8,0:0:0:0:
64,192,58938,1,2,0:0:0:0:
448,192,58938,1,4,0:0:0:0:
320,192,59395,1,10,0:0:0:0:
192,192,59700,1,2,0:0:0:0:
320,192,60004,1,10,0:0:0:0:
192,192,60309,1,2,0:0:0:0:
64,192,60614,1,10,0:0:0:0:
448,192,60918,1,2,0:0:0:0:
192,192,61223,1,10,0:0:0:0:
320,192,61375,1,2,0:0:0:0:
64,192,61679,1,2,0:0:0:0:
192,192,61832,1,10,0:0:0:0:
448,192,62136,1,2,0:0:0:0:
320,192,62441,1,10,0:0:0:0:
192,192,62745,1,2,0:0:0:0:
64,192,63050,1,10,0:0:0:0:
320,192,63355,1,8,0:0:0:0:
192,192,63507,1,2,0:0:0:0:
320,192,63659,1,8,0:0:0:0:
64,192,63811,1,2,0:0:0:0:
448,192,63811,1,4,0:0:0:0:
192,192,64116,1,2,0:0:0:0:
448,192,64268,1,10,0:0:0:0:
64,192,64573,1,2,0:0:0:0:
192,192,64877,1,10,0:0:0:0:
320,192,65182,1,2,0:0:0:0:
448,192,65487,1,10,0:0:0:0:
320,192,65791,1,2,0:0:0:0:
192,192,66096,1,10,0:0:0:0:
64,192,66248,1,2,0:0:0:0:
448,192,66248,1,4,0:0:0:0:
320,192,66553,1,2,0:0:0:0:
192,192,66705,1,8,0:0:0:0:
448,192,67009,1,8,0:0:0:0:
64,192,67314,1,8,0:0:0:0:
192,192,67466,1,2,0:0:0:0:
320,192,67466,128,4,68228:0:0:0:0:
64,192,67923,1,8,0:0:0:0:
448,192,68228,1,0,0:0:0:50:Tom1.wav
320,192,68380,1,2,0:0:0:0:
192,192,68532,1,8,0:0:0:0:
64,192,68685,1,2,0:0:0:0:
448,192,68685,1,4,0:0:0:0:
192,192,69141,1,10,0:0:0:0:
320,192,69446,1,2,0:0:0:0:
192,192,69751,1,10,0:0:0:0:
320,192,70055,1,2,0:0:0:0:
448,192,70360,1,10,0:0:0:0:
64,192,70664,1,2,0:0:0:0:
320,192,70969,1,10,0:0:0:0:
192,192,71121,1,2,0:0:0:0:
448,192,71426,1,2,0:0:0:0:
320,192,71578,1,10,0:0:0:0:
64,192,71883,1,2,0:0:0:0:
192,192,72187,1,10,0:0:0:0:
320,192,72492,1,2,0:0:0:0:
448,192,72796,1,10,0:0:0:0:
192,192,73101,1,8,0:0:0:0:
320,192,73253,1,2,0:0:0:0:
192,192,73405,1,8,0:0:0:0:
64,192,73558,1,2,0:0:0:0:
448,192,73558,1,4,0:0:0:0:
320,192,73862,1,2,0:0:0:0:
64,192,74015,1,10,0:0:0:0:
448,192,74319,1,2,0:0:0:0:
320,192,74624,1,10,0:0:0:0:
192,192,74928,1,2,0:0:0:0:
64,192,75233,1,10,0:0:0:0:
192,192,75537,1,2,0:0:0:0:
320,192,75842,1,10,0:0:0:0:
64,192,75994,1,2,0:0:0:0:
448,192,75994,1,4,0:0:0:0:
192,192,76451,128,10,76756:0:0:0:0:
320,192,76756,128,10,77060:0:0:0:0:
448,192,77060,128,10,77365:0:0:0:0:
64,192,77365,128,10,77669:0:0:0:0:
320,192,77669,128,10,77974:0:0:0:0:
192,192,77974,128,10,78278:0:0:0:0:
448,192,78278,1,2,0:0:0:0:
64,192,78431,128,2,78888:0:0:0:0:
320,192,78431,1,4,0:0:0:0:
192,192,78888,128,0,79192:0:0:0:0:
320,192,79192,1,0,0:0:0:0:
448,192,79344,128,0,79649:0:0:0:0:
64,192,79649,128,2,80106:0:0:0:0:
320,192,79649,1,4,0:0:0:0:
192,192,80106,128,0,80410:0:0:0:0:
448,192,80410,128,0,80715:0:0:0:0:
320,192,80715,1,0,0:0:0:0:
64,192,80867,1,2,0:0:0:0:
192,192,80867,1,0,0:0:0:50:Short Cymbal.wav
320,192,81172,1,2,0:0:0:0:
448,192,81172,1,0,0:0:0:50:Short Cymbal.wav
192,192,81476,1,2,0:0:0:0:
320,192,81476,1,0,0:0:0:50:Short Cymbal.wav
64,192,81781,1,2,0:0:0:0:
192,192,81781,1,0,0:0:0:50:Short Cymbal.wav
320,192,82086,1,2,0:0:0:0:
448,192,82086,1,0,0:0:0:50:Short Cymbal.wav
64,192,82390,1,2,0:0:0:0:
320,192,82542,1,8,0:0:0:0:
192,192,82695,1,2,0:0:0:0:
448,192,82847,1,8,0:0:0:0:
64,192,82999,1,2,0:0:0:0:
192,192,83456,1,4,0:0:0:0:
448,192,83456,128,2,84065:0:0:0:0:
320,192,84065,128,2,84522:0:0:0:0:
192,192,84522,128,0,85284:0:0:0:0:
64,192,85284,1,2,0:0:0:0:
448,192,85588,1,8,0:0:0:0:
64,192,85740,128,2,86502:0:0:0:0:
192,192,86502,128,2,86959:0:0:0:0:
320,192,86959,128,0,87720:0:0:0:0:
448,192,87720,1,8,0:0:0:0:
192,192,87872,1,2,0:0:0:0:
320,192,88025,1,8,0:0:0:0:
64,192,88177,1,2,0:0:0:0:
448,192,88177,128,4,88938:0:0:0:0:
320,192,88938,128,2,89395:0:0:0:0:
192,192,89395,128,0,89852:0:0:0:0:
64,192,89852,1,10,0:0:0:0:
448,192,90157,128,2,90614:0:0:0:0:
64,192,90614,128,2,92593:0:0:0:0:
192,192,90614,1,4,0:0:0:0:
448,192,91070,1,10,0:0:0:0:
320,192,91375,1,10,0:0:0:0:
192,192,91679,1,10,0:0:0:0:
448,192,91984,1,10,0:0:0:0:
320,192,92289,1,10,0:0:0:0:
192,192,92593,1,10,0:0:0:0:
448,192,92745,1,8,0:0:0:0:
64,192,92898,1,10,0:0:0:0:
320,192,93050,1,0,0:0:0:30:Snare.wav
192,192,93355,128,0,93659:0:0:0:0:
448,192,93659,128,0,93964:0:0:0:0:
320,192,93964,128,0,94268:0:0:0:0:
64,192,94268,128,2,94573:0:0:0:0:
192,192,94268,1,4,0:0:0:0:
