osu file format v14

[General]
AudioFilename: audio2.mp3
AudioLeadIn: 0
PreviewTime: 59445
Countdown: 0
SampleSet: Soft
StackLeniency: 0.7
Mode: 0
LetterboxInBreaks: 0
WidescreenStoryboard: 1

[Editor]
Bookmarks: 10790,20689,30435,40181,49775,59521,79014,84039,84115,84191,93785,103379,113125,122872,132618,137491,147237,152110,159420,166729,169166,172592,172821,174039,175257,182567,192313,202059,211806,216831,226729,227643,227948
DistanceSpacing: 0.4
BeatDivisor: 4
GridSize: 32
TimelineZoom: 2.2

[Metadata]
Title:BWLAUTE BEIRRD
TitleUnicode:BWLAUTE BEIRRD
Artist:Yumeno Yuki
ArtistUnicode:夢乃ゆき
Creator:Lasse
Version:Resolve.
Source:抜きゲーみたいな島に住んでる貧乳(わたし)はどうすりゃいいですか? 2
Tags:nukitashi 2 Is the prospect LMT AIR or Kalibe Hope or Despair opening full version eroge visual novel blue bird water japanese pop rock english sbeve
BeatmapID:2122301
BeatmapSetID:1014034

[Difficulty]
HPDrainRate:5
CircleSize:4
OverallDifficulty:9
ApproachRate:9.4
SliderMultiplier:1.92
SliderTickRate:1

[Events]
//Background and Video events
0,0,"d.jpg",0,0
//Break Periods
//Storyboard Layer 0 (Background)
//Storyboard Layer 1 (Fail)
//Storyboard Layer 2 (Pass)
//Storyboard Layer 3 (Foreground)
//Storyboard Layer 4 (Overlay)
//Storyboard Sound Samples

[TimingPoints]
1197,304.568527918782,4,2,0,70,1,0
10334,-100,4,2,34,40,0,0
10638,-100,4,2,34,5,0,0
10714,-100,4,2,34,5,0,0
10790,-166.666666666667,4,2,35,55,0,0
15054,-142.857142857143,4,2,35,55,0,0
15664,-125,4,2,35,55,0,0
18100,-111.111111111111,4,2,35,55,0,0
18557,-111.111111111111,4,2,35,55,0,0
19318,-100,4,2,35,60,0,0
20080,-166.666666666667,4,2,35,65,0,0
20156,-166.666666666667,4,2,35,5,0,0
20613,-166.666666666667,4,2,35,5,0,0
20689,-90.9090909090909,4,2,34,68,0,0
25410,-90.9090909090909,4,2,35,68,0,0
25714,-90.9090909090909,4,2,34,68,0,0
27846,-90.9090909090909,4,2,35,68,0,0
30435,-125,4,2,35,50,0,0
38049,-125,4,2,35,50,0,0
38202,-125,4,2,35,40,0,0
38354,-125,4,2,35,50,0,0
38506,-125,4,2,35,40,0,0
38658,-125,4,2,35,50,0,0
38811,-125,4,2,35,40,0,0
38963,-125,4,2,35,42,0,0
39115,-125,4,2,35,44,0,0
39268,-125,4,2,35,46,0,0
39420,-125,4,2,35,48,0,0
39572,-125,4,2,35,50,0,0
39724,-125,4,2,35,52,0,0
39877,-125,4,2,35,54,0,0
40029,-125,4,2,35,56,0,0
40181,-100,4,2,34,60,0,0
44902,-100,4,2,35,60,0,0
45207,-100,4,2,34,60,0,0
47339,-90.9090909090909,4,2,35,62,0,0
48557,-83.3333333333333,4,2,35,64,0,0
49775,-125,4,2,35,60,0,0
52212,-100,4,2,35,64,0,0
52669,-100,4,2,35,62,0,0
54648,-125,4,2,35,60,0,0
57085,-125,4,2,35,50,0,0
57389,-125,4,2,35,40,0,0
57846,-142.857142857143,4,2,35,40,0,0
58151,-142.857142857143,4,2,35,30,0,0
58303,-125,4,2,35,64,0,0
58912,-125,4,2,35,66,0,0
59065,-125,4,2,35,68,0,0
59217,-125,4,2,35,70,0,0
59521,-76.9230769230769,4,2,34,76,0,1
59978,-90.9090909090909,4,2,35,76,0,1
64394,-76.9230769230769,4,2,35,76,0,1
64699,-90.9090909090909,4,2,35,76,0,1
66831,-76.9230769230769,4,2,35,76,0,1
68049,-71.4285714285714,4,2,35,76,0,1
68811,-100,4,2,35,76,0,1
69115,-100,4,2,35,76,0,0
69268,-76.9230769230769,4,2,34,76,0,1
69724,-90.9090909090909,4,2,35,76,0,1
74141,-76.9230769230769,4,2,35,76,0,1
74598,-90.9090909090909,4,2,35,76,0,1
76577,-76.9230769230769,4,2,35,76,0,1
77339,-100,4,2,35,76,0,1
79014,-166.666666666667,4,2,35,60,0,0
79090,-166.666666666667,4,2,35,5,0,0
80080,-166.666666666667,4,2,35,35,0,0
80232,-166.666666666667,4,2,35,60,0,0
80308,-166.666666666667,4,2,35,5,0,0
81298,-166.666666666667,4,2,35,35,0,0
81450,-166.666666666667,4,2,35,60,0,0
82973,-111.111111111111,4,2,35,60,0,0
83735,-166.666666666667,4,2,35,50,0,0
83963,-166.666666666667,4,2,35,5,0,0
84039,-142.857142857143,4,2,35,48,0,0
88912,-128.205128205128,4,2,35,50,0,0
92567,-128.205128205128,4,2,35,52,0,0
93024,-128.205128205128,4,2,35,54,0,0
93633,-128.205128205128,4,2,35,48,0,0
93785,-100,4,2,34,60,0,0
98506,-100,4,2,35,60,0,0
98811,-100,4,2,35,60,0,0
100943,-90.9090909090909,4,2,35,60,0,0
102161,-83.3333333333333,4,2,35,60,0,0
103379,-125,4,2,35,60,0,0
105816,-100,4,2,35,60,0,0
106273,-100,4,2,35,60,0,0
108252,-125,4,2,35,60,0,0
108405,-125,4,2,35,5,0,0
109318,-125,4,2,35,40,0,0
109471,-111.111111111111,4,2,35,62,0,0
109547,-111.111111111111,4,2,35,5,0,0
110537,-111.111111111111,4,2,35,42,0,0
110689,-125,4,2,35,60,0,0
110993,-125,4,2,35,40,0,0
111450,-142.857142857143,4,2,35,40,0,0
111755,-142.857142857143,4,2,35,30,0,0
111907,-125,4,2,35,64,0,0
112516,-125,4,2,35,66,0,0
112669,-125,4,2,35,68,0,0
112821,-125,4,2,35,70,0,0
113125,-71.4285714285714,4,2,34,76,0,1
113582,-83.3333333333333,4,2,35,76,0,1
117999,-71.4285714285714,4,2,35,76,0,1
118455,-83.3333333333333,4,2,35,76,0,1
120435,-71.4285714285714,4,2,35,76,0,1
121501,-66.6666666666667,4,2,35,76,0,1
122719,-66.6666666666667,4,2,35,76,0,0
122872,-71.4285714285714,4,2,34,76,0,1
123328,-83.3333333333333,4,2,35,76,0,1
127745,-71.4285714285714,4,2,35,76,0,1
128202,-83.3333333333333,4,2,35,76,0,1
130181,-71.4285714285714,4,2,35,76,0,1
130943,-100,4,2,35,76,0,1
132618,-166.666666666667,4,2,35,60,0,0
132770,-166.666666666667,4,2,35,5,0,0
133684,-166.666666666667,4,2,35,35,0,0
133836,-166.666666666667,4,2,35,60,0,0
133988,-166.666666666667,4,2,35,5,0,0
134902,-166.666666666667,4,2,35,35,0,0
135054,-166.666666666667,4,2,35,60,0,0
136577,-111.111111111111,4,2,35,60,0,0
137491,-71.4285714285714,4,2,34,72,0,1
137948,-83.3333333333334,4,2,35,72,0,1
140156,-83.3333333333334,4,2,35,32,0,1
140232,-83.3333333333334,4,2,35,72,0,1
141907,-83.3333333333334,4,2,35,72,0,0
142364,-71.4285714285714,4,2,35,72,0,1
142821,-83.3333333333334,4,2,35,72,0,1
144801,-71.4285714285714,4,2,35,72,0,1
146019,-71.4285714285714,4,2,35,74,0,1
146933,-100,4,2,35,72,0,0
147085,-100,4,2,35,70,0,0
147237,-66.6666666666667,4,2,34,74,0,1
147694,-83.3333333333333,4,2,35,74,0,1
151653,-83.3333333333333,4,2,35,74,0,0
152110,-83.3333333333333,4,2,35,74,0,1
154090,-83.3333333333333,4,2,35,74,0,0
154547,-62.5,4,2,35,74,0,1
155765,-62.5,4,2,35,75,0,1
156983,-71.4285714285714,4,2,35,76,0,1
157745,-71.4285714285714,4,2,35,77,0,1
158354,-71.4285714285714,4,2,35,78,0,1
158963,-71.4285714285714,4,2,35,80,0,1
159420,-200,4,2,35,52,0,0
159496,-200,4,2,35,5,0,0
160638,-200,4,2,35,32,0,0
160790,-200,4,2,35,5,0,0
161856,-200,4,2,35,34,0,0
164293,-200,4,2,35,36,0,0
164445,-200,4,2,35,5,0,0
166273,-200,4,2,35,32,0,0
166729,-142.857142857143,4,2,35,38,0,0
167948,-133.333333333333,4,2,35,39,0,0
169166,-125,4,2,35,40,0,0
170384,-125,4,2,35,50,0,0
170993,-125,4,2,35,52,0,0
171603,-125,4,2,35,54,0,0
171907,-111.111111111111,4,2,35,56,0,0
172212,-76.9230769230769,4,2,35,58,0,0
172516,-66.6666666666667,4,2,35,60,0,0
174039,-66.6666666666667,4,2,35,74,0,1
174344,-66.6666666666667,4,2,35,66,0,1
174496,-66.6666666666667,4,2,35,68,0,0
174648,-66.6666666666667,4,2,35,70,0,0
174801,-66.6666666666667,4,2,35,72,0,0
174953,-66.6666666666667,4,2,35,74,0,0
175105,-66.6666666666667,4,2,35,76,0,0
175257,-62.5,4,2,34,78,0,1
175714,-76.9230769230769,4,2,35,78,0,1
177694,-66.6666666666667,4,2,35,78,0,1
178151,-76.9230769230769,4,2,35,78,0,1
180131,-66.6666666666667,4,2,35,78,0,1
182415,-100,4,2,35,78,0,0
182567,-66.6666666666667,4,2,34,78,0,1
183024,-76.9230769230769,4,2,35,78,0,1
187440,-66.6666666666667,4,2,35,78,0,1
187897,-76.9230769230769,4,2,35,78,0,1
189877,-66.6666666666667,4,2,35,78,0,1
191095,-62.5,4,2,35,78,0,1
191400,-62.5,4,2,35,72,0,1
191552,-62.5,4,2,35,74,0,1
191856,-62.5,4,2,35,76,0,1
192161,-62.5,4,2,35,78,0,0
192313,-66.6666666666667,4,2,34,78,0,1
192770,-83.3333333333333,4,2,35,78,0,1
197186,-66.6666666666667,4,2,35,78,0,1
197643,-83.3333333333333,4,2,35,78,0,1
199623,-66.6666666666667,4,2,35,78,0,1
200841,-62.5,4,2,35,78,0,1
201603,-100,4,2,35,78,0,1
201907,-100,4,2,35,78,0,0
202059,-62.5,4,2,34,78,0,1
202516,-76.9230769230769,4,2,35,78,0,1
205181,-76.9230769230769,4,2,35,38,0,1
205257,-76.9230769230769,4,2,35,78,0,1
206933,-62.5,4,2,35,79,0,1
207389,-76.9230769230769,4,2,35,79,0,1
208151,-66.6666666666667,4,2,35,79,0,1
208608,-62.5,4,2,35,79,0,1
209369,-62.5,4,2,35,80,0,1
209826,-76.9230769230769,4,2,35,80,0,1
211349,-83.3333333333333,4,2,35,80,0,1
211653,-83.3333333333333,4,2,35,74,0,1
211806,-166.666666666667,4,2,35,60,0,0
211958,-166.666666666667,4,2,35,5,0,0
212872,-166.666666666667,4,2,35,35,0,0
213024,-166.666666666667,4,2,35,60,0,0
213176,-166.666666666667,4,2,35,5,0,0
214090,-166.666666666667,4,2,35,35,0,0
214242,-166.666666666667,4,2,35,60,0,0
215765,-111.111111111111,4,2,35,60,0,0
216526,-166.666666666667,4,2,35,50,0,0
216755,-166.666666666667,4,2,35,5,0,0
216831,-90.9090909090909,4,2,34,68,0,0
217136,-90.9090909090909,4,2,35,68,0,0
226120,-142.857142857143,4,2,35,68,0,0
226729,-142.857142857143,4,2,35,37,0,0
226882,-142.857142857143,4,2,35,38,0,0
227034,-142.857142857143,4,2,35,39,0,0
227186,-142.857142857143,4,2,35,40,0,0
227339,-142.857142857143,4,2,35,41,0,0
227491,-142.857142857143,4,2,35,42,0,0
227643,-166.666666666667,4,2,35,60,0,0
227948,-166.666666666667,4,2,35,40,0,0

[Colours]
Combo1 : 250,190,230
Combo2 : 130,200,230
Combo3 : 255,230,140
Combo4 : 170,245,170

[HitObjects]
79,283,10334,6,2,B|17:267|17:267|91:256|91:256|106:260|106:260|216:247,1,240,2|0,0:0|0:0,0:1:0:0:
256,192,10790,5,14,0:1:0:0:
191,10,12770,5,8,0:0:0:0:
58,146,12922,1,8,0:1:0:0:
44,38,13075,5,8,0:0:0:0:
209,126,13227,1,12,0:1:0:0:
14,285,15054,5,8,0:1:0:0:
14,285,15131,1,8,0:1:0:0:
14,285,15207,2,0,L|28:216,1,67.1999979492188,8|8,0:0|0:1,0:0:0:0:
80,131,15664,6,0,B|106:144|117:168|117:168|220:151,1,153.6,14|0,0:1|0:0,0:0:0:0:
349,49,16120,2,0,L|263:34,1,76.8,8|0,0:1|0:0,0:0:0:0:
357,185,16425,1,8,0:0:0:0:
432,198,16577,2,0,L|346:183,1,76.8,8|0,0:1|0:0,0:0:0:0:
493,255,16882,6,0,B|406:221|429:284|340:258,1,153.6,14|0,0:1|0:0,0:0:0:0:
214,359,17339,2,0,L|169:351,2,38.4,8|8|8,0:1|0:1|0:1,0:0:0:0:
334,335,17643,1,8,0:0:0:0:
334,335,17795,2,0,P|336:291|347:251,1,76.8,8|0,0:1|0:0,0:0:0:0:
232,125,18100,6,0,P|197:194|98:195,1,172.799994726563,14|0,0:1|0:0,0:0:0:0:
0,63,18557,5,10,3:2:0:0:
21,58,18633,1,0,3:0:0:0:
43,54,18709,1,0,3:0:0:0:
66,50,18785,1,0,3:0:0:0:
87,45,18861,1,8,3:1:0:0:
111,41,18938,1,0,3:0:0:0:
132,37,19014,1,0,3:0:0:0:
155,34,19090,1,0,3:0:0:0:
177,29,19166,1,8,3:2:0:0:
200,25,19242,1,0,3:0:0:0:
221,20,19318,5,2,3:2:0:0:
211,52,19394,1,0,3:0:0:0:
212,85,19471,1,8,3:2:0:0:
223,117,19547,1,0,3:0:0:0:
242,144,19623,1,0,3:0:0:0:
268,165,19699,1,0,3:0:0:0:
299,178,19775,1,8,3:2:0:0:
332,180,19851,1,0,3:0:0:0:
365,173,19927,1,0,3:0:0:0:
394,157,20004,1,0,3:0:0:0:
418,133,20080,6,2,B|441:92|441:92|373:75|373:75|396:169,1,201.599993847656,2|0,0:0|0:0,0:1:0:0:
432,225,20689,6,0,P|522:266|512:364,2,211.200006445313,14|8|8,0:1|0:0|0:1,0:0:0:0:
276,115,21450,2,0,P|334:112|390:104,1,105.600003222656,2|8,0:0|0:0,0:0:0:0:
147,229,21755,5,2,0:0:0:0:
147,229,21831,1,2,0:0:0:0:
147,229,21907,2,0,P|145:175|139:122,1,105.600003222656,8|0,0:1|0:0,0:0:0:0:
332,260,22212,2,0,P|333:313|339:366,1,105.600003222656,10|0,0:0|0:0,0:0:0:0:
90,370,22516,5,10,0:1:0:0:
232,287,22669,1,2,0:1:0:0:
90,370,22821,1,10,0:0:0:0:
14,217,22973,6,0,B|36:235|36:235|16:160|85:107|85:107|79:157,1,211.200006445313,10|8,0:1|0:1,0:0:0:0:
232,287,23430,2,0,P|180:273|128:266,1,105.600003222656,10|0,0:0|0:0,0:0:0:0:
277,186,23735,1,10,0:1:0:0:
339,359,23887,2,0,P|345:299|355:250,1,105.600003222656,2|8,0:0|0:0,0:0:0:0:
230,21,24191,5,2,0:0:0:0:
230,21,24268,1,2,0:0:0:0:
230,21,24344,2,0,B|195:18|195:18|164:32|164:32|116:36,1,105.600003222656,8|0,0:1|0:0,0:0:0:0:
354,107,24648,2,0,B|389:104|389:104|420:118|420:118|468:122,1,105.600003222656,8|0,0:0|0:0,0:0:0:0:
268,262,24953,5,10,0:1:0:0:
153,122,25105,1,10,0:1:0:0:
120,319,25257,1,8,0:0:0:0:
0,222,25410,6,0,B|59:212|59:212|89:220|89:220|232:198,1,211.200006445313,14|8,0:1|0:1,0:0:0:0:
395,101,25867,2,0,P|401:47|375:-13,1,105.600003222656,10|0,0:0|0:0,0:0:0:0:
279,118,26171,1,10,0:1:0:0:
405,222,26323,2,0,P|460:208|529:203,1,105.600003222656,2|8,0:0|0:0,0:0:0:0:
306,372,26628,5,2,0:0:0:0:
306,372,26704,1,2,0:0:0:0:
306,372,26780,2,0,B|297:330|297:330|297:322|297:322|286:268,1,105.600003222656,8|0,0:1|0:0,0:0:0:0:
143,116,27085,2,0,B|151:74|151:74|151:66|151:66|162:12,1,105.600003222656,10|0,0:0|0:0,0:0:0:0:
42,135,27389,5,10,0:1:0:0:
254,47,27542,1,2,0:0:0:0:
42,135,27694,1,10,0:0:0:0:
316,183,27846,6,0,B|439:193|371:261|516:281,1,211.200006445313,14|8,0:1|0:1,0:0:0:0:
279,384,28303,5,10,3:2:0:0:
280,347,28379,1,0,3:0:0:0:
275,310,28455,1,0,3:0:0:0:
262,275,28532,1,0,3:0:0:0:
244,244,28608,1,8,3:1:0:0:
219,216,28684,1,0,3:0:0:0:
190,193,28760,1,0,3:0:0:0:
157,177,28836,1,0,3:0:0:0:
121,167,28912,1,8,3:1:0:0:
84,163,28988,1,0,3:0:0:0:
48,168,29065,6,0,L|-6:177,2,52.8000016113282,2|0|8,3:2|3:2|3:1,0:0:0:0:
194,70,29369,5,2,3:2:0:0:
152,61,29445,1,0,3:0:0:0:
117,37,29521,1,8,0:0:0:0:
271,185,29674,5,2,3:2:0:0:
223,189,29750,1,0,3:0:0:0:
185,218,29826,1,8,3:1:0:0:
390,84,29978,5,2,3:2:0:0:
349,55,30054,1,0,3:0:0:0:
331,11,30131,1,8,3:2:0:0:
512,175,30435,6,0,L|412:158,1,76.8,14|8,0:1|0:1,0:0:0:0:
271,185,30740,5,10,0:0:0:0:
341,216,30892,1,0,0:0:0:0:
267,166,31044,5,2,0:0:0:0:
193,190,31197,1,0,0:0:0:0:
249,73,31349,5,10,0:0:0:0:
249,73,31501,2,0,B|168:67|198:12|109:6,1,153.6,0|0,0:0|0:0,0:0:0:0:
0,138,31958,6,0,L|98:117,1,76.8,10|0,0:0|0:0,0:0:0:0:
184,232,32262,5,2,0:0:0:0:
88,262,32415,1,8,0:1:0:0:
225,337,32567,5,10,0:0:0:0:
321,307,32719,2,0,P|405:296|493:300,1,153.6,8|8,0:1|0:1,0:0:0:0:
324,209,33176,6,0,P|319:163|302:109,1,76.8,10|0,0:0|0:0,0:0:0:0:
222,21,33481,5,2,0:0:0:0:
201,94,33633,1,0,0:0:0:0:
128,73,33785,1,8,0:0:0:0:
149,0,33938,1,0,0:0:0:0:
219,102,34090,5,2,0:0:0:0:
240,175,34242,1,0,0:0:0:0:
313,154,34394,1,8,0:0:0:0:
292,81,34547,1,0,0:0:0:0:
225,187,34699,5,2,0:0:0:0:
334,227,34851,1,8,0:1:0:0:
292,81,35004,2,0,P|233:71|127:36,1,153.6,10|8,0:0|0:1,0:0:0:0:
0,294,35613,5,10,0:0:0:0:
74,275,35765,1,0,0:0:0:0:
190,188,35917,5,2,0:0:0:0:
120,155,36070,1,0,0:0:0:0:
229,46,36222,5,10,0:0:0:0:
229,46,36374,2,0,B|281:38|281:38|286:35|286:35|293:37|293:37|393:23,1,153.6,0|0,0:0|0:0,0:0:0:0:
269,129,36831,6,0,P|277:158|280:205,1,76.8,10|0,0:0|0:0,0:0:0:0:
70,310,37136,5,2,0:0:0:0:
190,183,37288,1,8,0:1:0:0:
227,277,37440,5,10,0:0:0:0:
65,213,37592,1,8,0:1:0:0:
65,213,37897,5,10,0:1:0:0:
151,263,38049,2,0,P|186:266|239:281,1,76.8,10|0,0:0|0:0,0:0:0:0:
168,71,38354,2,0,P|147:100|107:138,1,76.8,2|0,0:0|0:0,0:0:0:0:
325,181,38658,2,0,P|309:148|296:94,1,76.8,10|0,0:0|0:0,0:0:0:0:
442,221,38963,5,2,0:3:0:0:
446,146,39115,5,2,0:3:0:0:
412,68,39268,5,2,0:3:0:0:
337,12,39420,5,2,0:3:0:0:
238,2,39572,5,2,0:3:0:0:
142,52,39724,5,2,0:3:0:0:
89,155,39877,5,2,0:3:0:0:
114,275,40029,5,2,0:3:0:0:
234,360,40181,6,0,B|268:358|268:358|270:356|270:356|271:357|271:357|348:354,1,96,14|8,0:1|0:1,0:0:0:0:
114,275,40486,2,0,B|80:273|80:273|78:271|78:271|77:272|77:272|0:269,1,96,10|8,0:0|0:1,0:0:0:0:
222,134,40790,5,10,0:1:0:0:
227,147,40867,1,8,0:1:0:0:
232,160,40943,1,8,0:1:0:0:
325,47,41095,1,10,0:0:0:0:
325,47,41247,2,0,B|287:40|287:40|272:45|272:45|231:37,1,96,8|8,0:1|0:1,0:0:0:0:
482,116,41552,5,10,0:1:0:0:
426,35,41704,1,8,0:0:0:0:
386,122,41856,1,8,0:1:0:0:
443,214,42009,5,10,0:1:0:0:
456,219,42085,1,8,0:1:0:0:
468,225,42161,1,8,0:1:0:0:
337,284,42313,1,10,0:0:0:0:
337,284,42466,2,0,B|324:255|324:255|326:222|326:222|312:183,1,96,8|0,0:1|0:0,0:0:0:0:
191,5,42770,5,10,0:1:0:0:
108,53,42922,1,8,0:0:0:0:
192,101,43075,1,8,0:1:0:0:
58,168,43227,5,10,0:1:0:0:
44,164,43303,1,8,0:1:0:0:
29,161,43379,1,8,0:1:0:0:
126,224,43532,2,0,B|189:214|189:214|146:193,1,96,10|8,0:0|0:1,0:0:0:0:
15,156,43836,5,10,0:1:0:0:
144,95,43988,1,8,0:1:0:0:
273,162,44141,2,0,L|262:60,1,96,10|8,0:0|0:1,0:0:0:0:
160,199,44445,5,10,0:1:0:0:
155,212,44521,1,8,0:1:0:0:
150,225,44598,1,8,0:1:0:0:
317,230,44750,1,10,0:0:0:0:
151,376,44902,1,12,0:1:0:0:
339,384,45207,5,10,0:1:0:0:
272,315,45359,1,8,0:0:0:0:
317,230,45511,1,8,0:1:0:0:
385,299,45664,6,0,B|404:323|404:323|498:334,1,96,2|8,0:0|0:1,0:0:0:0:
312,215,45968,2,0,B|277:172|277:172|140:157,1,192,10|0,0:0|0:0,0:0:0:0:
0,39,46425,5,10,0:1:0:0:
51,195,46577,1,8,0:0:0:0:
160,71,46729,1,8,0:1:0:0:
70,102,46882,5,2,0:0:0:0:
230,175,47034,1,8,0:1:0:0:
214,0,47186,1,8,0:0:0:0:
335,45,47339,6,0,B|445:38|397:119|510:163,1,211.200006445313,10|8,0:1|0:1,0:0:0:0:
337,305,47795,2,0,P|291:290|222:283,1,105.600003222656,10|0,0:0|0:0,0:0:0:0:
23,371,48100,5,10,0:1:0:0:
144,210,48252,1,10,0:1:0:0:
221,384,48405,1,10,0:0:0:0:
32,248,48557,6,0,B|0:205|0:205|65:4,1,230.39999296875,14|8,0:1|0:1,0:0:0:0:
273,206,49014,1,8,0:0:0:0:
384,14,49166,1,8,0:1:0:0:
384,14,49242,1,8,0:1:0:0:
384,14,49318,2,0,B|339:7|339:7|318:16|318:16|235:2,1,115.199996484375,10|8,0:0|0:1,0:0:0:0:
271,8,49775,6,0,L|424:19,2,153.6,14|8|8,0:1|0:1|0:0,0:0:0:0:
180,90,50537,1,2,0:0:0:0:
271,8,50689,1,8,0:1:0:0:
180,90,50841,1,8,0:0:0:0:
297,156,50993,6,0,P|371:120|451:116,1,153.6,10|8,0:1|0:1,0:0:0:0:
376,218,51450,1,2,0:0:0:0:
482,232,51603,1,8,0:0:0:0:
369,309,51755,1,2,0:0:0:0:
490,252,51907,1,8,0:1:0:0:
421,379,52059,1,10,0:0:0:0:
289,254,52212,6,0,P|199:223|104:225,1,192,14|8,0:1|0:1,0:0:0:0:
0,280,52669,5,10,0:0:0:0:
28,142,52821,1,8,0:1:0:0:
104,225,52973,5,10,0:1:0:0:
126,217,53049,1,8,0:1:0:0:
149,210,53125,1,8,0:1:0:0:
205,111,53278,5,10,0:0:0:0:
251,252,53430,1,8,0:1:0:0:
302,101,53582,5,10,0:1:0:0:
234,235,53735,1,8,0:1:0:0:
363,323,53887,5,10,0:0:0:0:
316,188,54039,1,8,0:1:0:0:
346,339,54191,5,10,0:0:0:0:
416,228,54344,1,8,0:1:0:0:
243,354,54648,6,0,B|159:328|168:369|89:355,1,153.6,14|8,0:1|0:1,0:0:0:0:
234,235,55105,2,0,P|242:169|323:134,1,153.6,8|2,0:0|0:0,0:0:0:0:
466,158,55562,1,8,0:1:0:0:
413,14,55714,1,8,0:0:0:0:
314,132,55867,6,0,P|240:122|217:48,1,153.6,10|8,0:1|0:1,0:0:0:0:
119,205,56323,2,0,P|160:203|210:207,1,76.8,10|0,0:0|0:0,0:0:0:0:
118,99,56628,5,2,0:0:0:0:
20,249,56780,1,8,0:1:0:0:
0,89,56933,1,8,0:0:0:0:
128,220,57085,6,0,B|152:242|152:242|296:224,1,153.6,14|0,0:1|0:0,0:0:0:0:
434,42,57542,5,2,3:0:0:0:
423,36,57618,1,0,3:3:0:0:
334,80,57770,1,2,3:0:0:0:
323,74,57846,2,0,B|279:59|279:59|250:71|250:71|190:52,1,134.399995898438,0|2,3:0|3:3,0:0:0:0:
87,0,58303,5,14,0:1:0:0:
308,172,58608,1,14,0:1:0:0:
0,231,58912,5,10,0:1:0:0:
196,54,59065,1,10,0:0:0:0:
263,349,59217,1,10,0:0:0:0:
427,9,59521,6,0,B|274:-25|351:93|196:54,1,249.599988574219,14|8,0:1|0:1,0:0:0:0:
388,115,59978,2,0,P|438:132|492:171,1,105.600003222656,10|0,0:0|0:0,0:0:0:0:
277,207,60283,1,10,0:1:0:0:
481,161,60435,1,2,0:2:0:0:
277,207,60587,1,8,0:0:0:0:
436,378,60740,6,0,B|471:351|471:351|462:293|428:237|428:237|351:244,1,211.200006445313,2|0,0:0|0:0,0:0:0:0:
156,302,61197,1,10,0:0:0:0:
383,241,61349,1,2,0:0:0:0:
170,175,61501,1,10,0:1:0:0:
316,353,61653,2,0,B|340:362|340:362|316:331,2,52.8000016113282,10|8|8,0:1|0:1|0:0,0:0:0:0:
206,91,61958,6,0,B|156:127|156:127|-9:93,1,211.200006445313,10|8,0:1|0:1,0:0:0:0:
206,91,62415,1,10,0:0:0:0:
26,224,62567,1,2,0:0:0:0:
210,371,62719,1,10,0:1:0:0:
186,228,62872,1,2,0:0:0:0:
21,366,63024,1,10,0:0:0:0:
205,215,63176,6,0,B|324:204|279:292|404:313,1,211.200006445313,2|0,0:0|0:0,0:0:0:0:
450,32,63633,1,10,0:0:0:0:
398,161,63785,1,2,0:1:0:0:
328,57,63938,1,8,0:0:0:0:
512,142,64090,1,10,0:1:0:0:
512,142,64166,1,8,0:1:0:0:
512,142,64242,1,8,0:0:0:0:
406,351,64394,6,0,B|381:335|344:328|344:328|321:273|287:233|287:233|244:231|216:217,1,249.599988574219,14|8,0:1|0:1,0:0:0:0:
90,29,64851,1,10,0:0:0:0:
217,217,65004,1,2,0:0:0:0:
0,154,65156,2,0,P|128:126|213:116,1,211.200006445313,10|8,0:1|0:0,0:0:0:0:
433,259,65613,5,2,0:0:0:0:
433,259,65689,1,2,0:0:0:0:
433,259,65765,2,0,B|399:238|399:238|408:176|408:176|415:166|415:166|422:105|422:105|388:82,1,211.200006445313,8|8,0:1|0:0,0:0:0:0:
319,151,66222,1,0,0:1:0:0:
499,337,66374,2,0,P|377:287|266:286,1,211.200006445313,10|8,0:1|0:0,0:0:0:0:
53,384,66831,6,0,L|84:114,1,249.599988574219,14|8,0:1|0:1,0:0:0:0:
312,7,67288,5,10,0:0:0:0:
81,136,67440,1,10,0:1:0:0:
49,46,67592,5,10,0:0:0:0:
349,91,67745,1,10,0:1:0:0:
405,14,67897,5,10,0:0:0:0:
238,289,68049,2,0,B|211:273|211:273|220:181|220:181|223:174|223:174|234:73|234:73|186:55,1,268.799991796875,14|8,0:1|0:1,0:0:0:0:
82,236,68506,5,8,0:0:0:0:
349,91,68658,1,8,0:1:0:0:
424,333,68811,5,8,0:3:0:0:
424,333,68887,1,8,0:3:0:0:
424,333,68963,2,0,B|448:340|466:351|466:351|455:334|439:303,1,96,4|8,0:3|0:0,0:0:0:0:
441,307,69268,6,0,P|381:287|230:397,1,249.599988574219,14|8,0:1|0:1,0:0:0:0:
44,201,69724,2,0,L|20:74,1,105.600003222656,10|0,0:0|0:0,0:0:0:0:
239,0,70029,1,10,0:1:0:0:
24,97,70181,1,2,0:0:0:0:
239,0,70334,1,10,0:2:0:0:
346,195,70486,6,0,B|397:177|397:177|237:149,1,211.200006445313,2|0,0:0|0:0,0:0:0:0:
445,254,70943,1,10,0:0:0:0:
359,59,71095,1,2,0:0:0:0:
217,247,71247,1,10,0:1:0:0:
445,254,71400,2,0,L|513:234,2,52.8000016113282,10|8|8,0:1|0:1|0:0,0:0:0:0:
253,384,71704,6,0,P|242:282|279:167,1,211.200006445313,10|8,0:1|0:1,0:0:0:0:
472,63,72161,2,0,B|480:37|459:8|459:8|468:35|449:76,1,105.600003222656,10|0,0:0|0:0,0:0:0:0:
335,224,72466,2,0,P|272:306|172:269,1,211.200006445313,10|8,0:1|0:0,0:0:0:0:
0,54,72922,6,0,B|35:82|35:82|229:48,1,211.200006445313,2|0,0:0|0:0,0:0:0:0:
423,125,73379,1,10,0:0:0:0:
198,53,73532,1,8,0:1:0:0:
335,224,73684,1,8,0:0:0:0:
323,0,73836,1,8,0:1:0:0:
323,0,73912,1,8,0:1:0:0:
323,0,73988,1,8,0:0:0:0:
461,207,74141,6,0,P|353:145|229:136,1,249.599988574219,14|8,0:1|0:1,0:0:0:0:
0,214,74598,1,10,0:0:0:0:
200,252,74750,1,2,0:0:0:0:
62,384,74902,2,0,P|72:265|147:165,1,211.200006445313,10|8,0:1|0:0,0:0:0:0:
329,12,75359,5,2,0:0:0:0:
329,12,75435,1,2,0:0:0:0:
329,12,75511,2,0,B|302:27|302:27|194:4,1,105.600003222656,10|0,0:1|0:0,0:0:0:0:
412,199,75816,2,0,B|439:214|439:214|547:191,1,105.600003222656,10|0,0:0|0:0,0:0:0:0:
265,384,76120,6,0,B|285:348|285:348|251:155,1,211.200006445313,10|8,0:1|0:0,0:0:0:0:
91,0,76577,6,0,P|99:108|-29:119,1,249.599988574219,14|8,0:1|0:1,0:0:0:0:
139,302,77034,2,0,L|280:279,1,124.79999428711,10|0,3:2|3:0,0:0:0:0:
500,136,77339,5,10,3:1:0:0:
476,130,77415,1,0,3:1:0:0:
453,124,77491,1,0,3:1:0:0:
430,118,77567,1,0,3:1:0:0:
407,112,77643,1,8,3:2:0:0:
341,9,77795,5,2,3:1:0:0:
352,44,77872,1,0,3:0:0:0:
357,82,77948,1,8,3:2:0:0:
355,119,78024,1,0,3:0:0:0:
348,156,78100,1,0,3:0:0:0:
334,191,78176,1,0,3:0:0:0:
314,224,78252,1,8,3:2:0:0:
289,252,78328,1,0,3:0:0:0:
260,276,78405,1,0,3:0:0:0:
227,294,78481,1,0,3:0:0:0:
192,307,78557,1,8,3:2:0:0:
155,314,78633,1,0,3:0:0:0:
117,314,78709,1,0,3:0:0:0:
80,308,78785,1,0,3:0:0:0:
44,295,78861,2,0,L|30:230,1,48,8|0,3:2|3:2,0:0:0:0:
0,171,79014,6,0,B|231:132|88:353|337:323,1,403.199987695313,14|0,0:1|0:0,0:0:0:0:
512,314,80232,6,0,B|483:276|436:259|367:274|379:301|390:321|327:364|270:343|236:314|228:251|270:189|339:214,1,403.199987695313,14|0,0:1|0:0,0:0:0:0:
462,239,81450,5,14,0:1:0:0:
131,318,81755,1,14,0:1:0:0:
462,239,82059,1,14,0:1:0:0:
131,318,82364,1,14,0:1:0:0:
462,239,82669,1,14,0:1:0:0:
140,31,82973,5,10,0:1:0:0:
140,31,83049,1,10,0:1:0:0:
140,31,83125,2,0,P|117:76|61:91,1,86.3999973632813,10|8,0:0|0:1,0:0:0:0:
254,132,83430,6,0,P|277:177|333:192,1,86.3999973632813,10|8,0:2|0:1,0:0:0:0:
132,250,83735,6,2,P|109:295|53:310,1,86.3999973632813,2|0,0:0|0:0,0:1:0:0:
79,310,84039,6,0,P|59:267|64:162,1,134.399995898438,14|0,0:1|0:0,0:0:0:0:
106,54,84496,1,8,0:1:0:0:
119,132,84648,1,8,0:0:0:0:
44,103,84801,1,8,0:1:0:0:
168,5,85105,5,8,0:1:0:0:
194,161,85410,1,8,0:0:0:0:
257,111,85714,5,8,0:1:0:0:
182,81,85867,1,8,0:0:0:0:
194,161,86019,1,8,0:0:0:0:
269,191,86171,1,8,0:1:0:0:
344,221,86476,6,0,P|418:195|484:203,1,134.399995898438,10|0,0:1|0:0,0:0:0:0:
356,301,86933,1,8,0:1:0:0:
281,271,87085,1,8,0:0:0:0:
344,221,87237,1,8,0:1:0:0:
293,351,87542,5,8,0:1:0:0:
270,191,87846,1,8,0:0:0:0:
206,241,88151,5,8,0:1:0:0:
126,252,88303,1,8,0:0:0:0:
52,221,88455,1,8,0:0:0:0:
3,157,88608,1,8,0:1:0:0:
132,45,88912,6,0,L|281:34,1,149.760005027344,14|0,0:1|0:0,0:0:0:0:
423,69,89369,1,8,0:1:0:0:
363,11,89521,1,8,0:0:0:0:
341,91,89674,1,8,0:1:0:0:
483,127,89978,5,8,0:1:0:0:
319,171,90283,1,8,0:0:0:0:
462,207,90587,5,8,0:1:0:0:
483,127,90740,1,8,0:0:0:0:
423,69,90892,1,8,0:0:0:0:
403,150,91044,1,8,0:1:0:0:
258,113,91349,6,0,L|100:90,1,149.760005027344,10|0,0:1|0:0,0:0:0:0:
0,198,91806,1,8,0:1:0:0:
77,170,91958,1,8,0:0:0:0:
118,240,92110,2,0,P|110:312|192:320,1,149.760005027344,8|8,0:1|0:1,0:0:0:0:
379,196,92567,5,8,0:0:0:0:
221,155,92719,1,8,0:1:0:0:
278,81,93024,5,8,0:1:0:0:
324,271,93176,1,8,0:0:0:0:
379,196,93328,2,0,P|419:139|506:166,1,149.760005027344,8|0,0:1|0:0,0:0:0:0:
272,60,93785,6,0,L|177:43,1,96,14|8,0:1|0:1,0:0:0:0:
192,252,94090,2,0,L|97:235,1,96,10|8,0:0|0:1,0:0:0:0:
325,384,94394,5,10,0:1:0:0:
329,370,94471,1,8,0:1:0:0:
333,356,94547,1,8,0:1:0:0:
199,259,94699,1,10,0:0:0:0:
199,259,94851,2,0,L|209:383,1,96,8|8,0:1|0:1,0:0:0:0:
313,190,95156,5,10,0:1:0:0:
225,131,95308,1,8,0:0:0:0:
319,83,95460,1,8,0:1:0:0:
213,8,95613,5,10,0:1:0:0:
199,11,95689,1,8,0:1:0:0:
184,13,95765,1,8,0:1:0:0:
77,118,95917,1,10,0:0:0:0:
77,118,96070,2,0,B|73:86|73:86|74:84|74:84|72:82|72:82|62:14,1,96,8|0,0:1|0:0,0:0:0:0:
0,245,96374,5,10,0:1:0:0:
99,204,96526,1,8,0:0:0:0:
161,292,96679,1,8,0:1:0:0:
278,232,96831,5,10,0:1:0:0:
275,217,96907,1,8,0:1:0:0:
271,203,96983,1,8,0:1:0:0:
170,122,97136,2,0,B|131:116|131:116|118:123|118:123|63:116,1,96,10|8,0:0|0:1,0:0:0:0:
336,93,97440,6,0,P|339:26|357:-14,1,96,10|8,0:1|0:1,0:0:0:0:
472,171,97745,2,0,P|469:238|451:278,1,96,10|8,0:0|0:1,0:0:0:0:
308,382,98049,5,10,0:1:0:0:
306,367,98125,1,8,0:1:0:0:
304,352,98202,1,8,0:1:0:0:
213,222,98354,1,10,0:0:0:0:
130,384,98506,1,12,0:1:0:0:
48,242,98811,5,10,0:1:0:0:
138,296,98963,1,8,0:0:0:0:
213,222,99115,1,8,0:1:0:0:
123,168,99268,6,0,B|97:163|97:163|90:159|90:159|85:161|85:161|0:147,1,96,2|8,0:0|0:1,0:0:0:0:
246,105,99572,2,0,P|294:27|386:26,1,192,10|0,0:0|0:0,0:0:0:0:
495,173,100029,5,10,0:1:0:0:
367,274,100181,1,8,0:0:0:0:
341,112,100334,1,8,0:1:0:0:
227,161,100486,5,2,0:0:0:0:
401,189,100638,1,8,0:1:0:0:
336,23,100790,1,8,0:0:0:0:
234,57,100943,6,0,B|172:62|172:62|142:109|142:109|49:154,1,211.200006445313,10|8,0:1|0:1,0:0:0:0:
218,384,101400,2,0,B|224:336|224:336|223:329|223:329|231:269,1,105.600003222656,10|0,0:0|0:0,0:0:0:0:
362,177,101704,5,10,0:1:0:0:
512,264,101856,1,10,0:1:0:0:
458,98,102009,1,10,0:0:0:0:
354,300,102161,6,0,B|231:292|294:191|158:194,1,230.39999296875,14|8,0:1|0:1,0:0:0:0:
0,363,102618,1,8,0:0:0:0:
2,115,102770,1,8,0:1:0:0:
20,129,102846,1,8,0:1:0:0:
39,140,102922,2,0,P|85:99|73:37,1,115.199996484375,10|8,0:0|0:1,0:0:0:0:
81,49,103379,6,0,L|62:228,2,153.6,14|8|8,0:1|0:1|0:0,0:0:0:0:
224,11,104141,1,2,0:0:0:0:
81,49,104293,1,8,0:1:0:0:
224,11,104445,1,8,0:0:0:0:
282,138,104598,6,0,P|356:174|434:160,1,153.6,10|8,0:1|0:1,0:0:0:0:
367,268,105054,1,2,0:0:0:0:
491,227,105207,1,8,0:0:0:0:
370,287,105359,1,2,0:0:0:0:
501,243,105511,1,8,0:1:0:0:
373,306,105664,1,10,0:0:0:0:
284,177,105816,6,0,P|251:93|141:111,1,192,14|8,0:1|0:1,0:0:0:0:
0,182,106273,5,10,0:0:0:0:
61,15,106425,1,8,0:1:0:0:
116,193,106577,5,10,0:1:0:0:
138,202,106653,1,8,0:1:0:0:
161,203,106729,1,8,0:1:0:0:
317,56,106882,5,10,0:0:0:0:
151,103,107034,1,8,0:1:0:0:
325,78,107186,5,10,0:1:0:0:
164,18,107339,1,8,0:1:0:0:
258,231,107491,5,10,0:0:0:0:
340,60,107643,1,8,0:1:0:0:
246,209,107795,5,10,0:0:0:0:
416,285,107948,1,8,0:1:0:0:
512,136,108252,6,0,B|486:95|406:84|368:115|372:135|372:158|277:251|132:227|105:73|170:18|253:17|275:84,1,537.6,14|0,0:1|0:0,0:0:0:0:
275,84,109471,6,0,P|260:201|73:6,1,604.799981542969,14|0,0:1|0:0,0:0:0:0:
56,18,110689,6,0,B|72:61|72:61|192:73,1,153.6,14|0,0:1|0:0,0:0:0:0:
428,44,111146,5,2,3:0:0:0:
418,40,111222,1,0,3:0:0:0:
369,139,111374,1,2,3:0:0:0:
359,135,111450,2,0,P|348:189|277:174,1,134.399995898438,0|2,3:0|0:3,0:0:0:0:
190,59,111907,5,14,0:1:0:0:
58,352,112212,1,14,0:1:0:0:
59,76,112516,5,10,0:1:0:0:
213,358,112669,1,10,0:0:0:0:
314,37,112821,1,10,0:0:0:0:
512,349,113125,6,0,P|515:250|354:214,1,268.799991796875,14|8,0:1|0:1,0:0:0:0:
213,358,113582,2,0,P|263:351|354:352,1,115.199996484375,10|0,0:0|0:0,0:0:0:0:
149,134,113887,1,10,0:1:0:0:
57,250,114039,2,0,B|2:275|2:275|38:220,1,115.199996484375,2|8,0:1|0:0,0:0:0:0:
285,63,114344,6,0,B|411:37|369:128|505:123,1,230.39999296875,2|0,0:0|0:0,0:0:0:0:
242,308,114801,2,0,P|195:312|128:325,1,115.199996484375,10|0,0:0|0:0,0:0:0:0:
285,63,115105,1,10,0:1:0:0:
392,270,115257,1,10,0:1:0:0:
392,270,115334,1,8,0:1:0:0:
392,270,115410,1,8,0:0:0:0:
503,56,115562,6,0,B|426:44|426:44|375:77|375:77|274:61,1,230.39999296875,10|8,0:1|0:1,0:0:0:0:
15,157,116019,1,10,0:0:0:0:
110,0,116171,1,2,0:0:0:0:
203,240,116323,1,10,0:1:0:0:
284,62,116476,2,0,B|246:63|246:63|228:84|228:84|159:95,1,115.199996484375,2|8,0:0|0:0,0:0:0:0:
389,202,116780,6,0,P|388:306|511:359,1,230.39999296875,2|0,0:0|0:0,0:0:0:0:
373,175,117237,1,10,0:2:0:0:
256,369,117389,1,2,0:1:0:0:
178,91,117542,1,8,0:0:0:0:
61,285,117694,1,10,0:1:0:0:
61,285,117770,1,8,0:1:0:0:
61,285,117846,1,8,0:0:0:0:
349,141,117999,6,0,B|504:140|395:252|517:323,1,268.799991796875,14|8,0:1|0:1,0:0:0:0:
288,384,118455,1,10,0:0:0:0:
512,320,118608,1,2,0:0:0:0:
246,264,118760,2,0,B|160:271|160:271|138:289|138:289|13:300,1,230.39999296875,10|8,0:1|0:0,0:0:0:0:
255,144,119217,5,2,0:0:0:0:
255,144,119293,1,2,0:0:0:0:
255,144,119369,2,0,P|263:36|369:8,1,230.39999296875,10|8,0:1|0:0,0:0:0:0:
466,0,119826,1,0,0:0:0:0:
408,267,119978,2,0,B|318:252|318:252|305:255|305:255|175:233,1,230.39999296875,10|8,0:1|0:0,0:0:0:0:
0,62,120435,6,0,B|110:47|110:47|121:48|121:48|321:21,1,268.799991796875,14|8,0:1|0:1,0:0:0:0:
434,284,120892,5,10,0:0:0:0:
479,44,121044,1,10,0:1:0:0:
294,297,121197,5,10,0:0:0:0:
266,28,121349,1,10,0:1:0:0:
147,320,121501,5,10,0:0:0:0:
64,33,121653,2,0,P|25:104|175:173,1,288.000010986329,14|8,0:1|0:1,0:0:0:0:
467,74,122110,5,8,0:0:0:0:
168,31,122262,1,8,0:1:0:0:
349,228,122415,5,8,2:3:0:0:
353,199,122491,1,8,2:3:0:0:
357,170,122567,1,4,2:3:0:0:
361,141,122643,1,4,2:3:0:0:
365,112,122719,1,8,2:2:0:0:
168,31,122872,6,0,P|158:146|21:164,1,268.799991796875,14|8,0:1|0:1,0:0:0:0:
254,357,123328,2,0,L|387:346,1,115.199996484375,10|0,0:0|0:0,0:0:0:0:
199,160,123633,1,10,0:1:0:0:
74,384,123785,1,2,0:0:0:0:
25,167,123938,1,10,0:0:0:0:
252,336,124090,6,0,B|375:353|348:278|474:300,1,230.39999296875,2|0,0:0|0:0,0:0:0:0:
279,94,124547,2,0,P|284:41|236:2,1,115.199996484375,10|0,0:0|0:0,0:0:0:0:
6,188,124851,1,10,0:1:0:0:
63,4,125004,1,10,0:1:0:0:
63,4,125080,1,8,0:1:0:0:
63,4,125156,1,8,0:0:0:0:
281,116,125308,6,0,B|373:131|373:131|395:168|395:168|489:193,1,230.39999296875,10|8,0:1|0:1,0:0:0:0:
211,370,125765,2,0,B|205:324|205:324|203:322|203:322|204:321|204:321|194:252,1,115.199996484375,10|0,0:0|0:0,0:0:0:0:
154,4,126070,2,0,P|142:102|6:119,1,230.39999296875,10|8,0:1|0:0,0:0:0:0:
347,225,126526,6,0,P|359:323|495:340,1,230.39999296875,2|0,0:0|0:0,0:0:0:0:
355,116,126983,1,10,0:0:0:0:
197,311,127136,1,8,0:1:0:0:
164,34,127288,1,8,0:0:0:0:
7,223,127440,1,8,0:1:0:0:
7,223,127516,1,8,0:1:0:0:
7,223,127592,1,8,0:0:0:0:
278,145,127745,6,0,B|352:137|352:137|398:163|398:163|544:152,1,268.799991796875,14|8,0:1|0:1,0:0:0:0:
341,26,128202,1,10,0:0:0:0:
284,256,128354,1,2,0:0:0:0:
74,138,128506,2,0,P|182:80|120:-8,1,230.39999296875,10|8,0:1|0:0,0:0:0:0:
11,228,128963,5,2,0:0:0:0:
11,228,129039,1,2,0:0:0:0:
11,228,129115,1,10,0:1:0:0:
100,291,129268,1,0,0:3:0:0:
163,202,129420,1,10,0:0:0:0:
74,138,129572,1,0,0:0:0:0:
86,307,129724,6,0,P|162:382|278:353,1,230.39999296875,10|8,0:1|0:2,0:0:0:0:
512,189,130181,6,0,B|439:163|439:163|342:219|342:219|212:171,1,268.799991796875,14|8,0:1|0:1,0:0:0:0:
88,23,130638,2,0,L|246:0,1,134.399995898438,10|0,3:2|3:0,2:0:0:0:
65,280,130943,5,10,3:1:0:0:
60,255,131019,1,0,3:1:0:0:
55,232,131095,1,0,3:1:0:0:
50,209,131171,1,0,3:1:0:0:
45,185,131247,1,8,3:2:0:0:
88,23,131400,5,2,3:1:0:0:
90,63,131476,1,0,3:0:0:0:
101,103,131552,1,8,3:2:0:0:
118,140,131628,1,0,3:0:0:0:
143,174,131704,1,0,3:0:0:0:
172,202,131780,1,0,3:0:0:0:
207,224,131856,1,8,3:2:0:0:
245,240,131933,1,0,3:0:0:0:
285,248,132009,1,0,3:0:0:0:
326,248,132085,1,0,3:0:0:0:
367,242,132161,1,8,3:2:0:0:
405,227,132237,1,0,3:0:0:0:
441,206,132313,1,0,3:0:0:0:
471,179,132389,1,0,3:0:0:0:
496,146,132466,2,0,L|489:80,1,48,8|0,3:2|3:2,0:0:0:0:
476,24,132618,6,0,B|236:-19|381:202|141:173,1,403.199987695313,14|0,0:1|0:0,0:0:0:0:
16,189,133836,6,0,B|256:146|111:367|351:338,1,403.199987695313,14|0,0:1|0:0,0:0:0:0:
494,202,135054,5,14,0:1:0:0:
167,296,135359,1,14,0:1:0:0:
494,202,135664,1,14,0:1:0:0:
167,296,135968,1,14,0:1:0:0:
494,202,136273,1,14,0:1:0:0:
216,9,136577,5,10,0:1:0:0:
216,9,136653,1,10,0:1:0:0:
216,9,136729,2,0,B|184:22|184:22|102:3,1,86.3999973632813,10|8,0:0|0:1,0:0:0:0:
298,172,137034,6,0,B|330:185|330:185|412:166,1,86.3999973632813,10|8,0:2|0:1,0:0:0:0:
197,383,137491,6,2,B|231:343|231:343|180:103,1,268.799991796875,14|8,0:1|0:1,0:1:0:0:
0,30,137948,5,10,0:0:0:0:
31,195,138100,1,2,0:0:0:0:
139,29,138252,5,10,0:1:0:0:
31,217,138405,1,2,0:0:0:0:
193,292,138557,5,10,0:0:0:0:
115,130,138709,1,2,0:0:0:0:
16,376,138861,5,10,0:1:0:0:
188,272,139014,1,2,0:0:0:0:
321,343,139166,1,10,0:0:0:0:
140,148,139318,5,2,0:0:0:0:
319,1,139471,1,10,0:1:0:0:
335,123,139623,5,2,0:0:0:0:
124,17,139775,1,10,0:0:0:0:
350,143,139927,6,2,B|399:152|399:152|420:172|420:172|447:179|447:179|514:221,1,172.799994726563,10|0,0:1|0:0,0:1:0:0:
502,214,140232,2,2,B|507:175|507:175|509:172|509:172|508:169|508:169|519:84,1,115.199996484375,10|8,0:1|0:0,0:1:0:0:
342,240,140537,2,2,B|337:279|337:279|335:282|335:282|336:285|336:285|325:370,1,115.199996484375,2|8,0:0|0:1,0:1:0:0:
94,384,140841,5,2,0:0:0:0:
327,353,140993,1,10,0:0:0:0:
127,241,141146,5,2,0:0:0:0:
127,241,141222,1,2,0:0:0:0:
127,241,141298,2,0,B|80:236|80:236|69:240|69:240|13:232,1,115.199996484375,8|0,0:1|0:0,0:1:0:0:
269,150,141603,2,0,B|316:145|316:145|327:149|327:149|382:141,1,115.199996484375,8|0,0:0|0:0,0:0:0:0:
196,0,141907,5,10,0:0:0:0:
127,241,142059,1,10,0:1:0:0:
14,24,142212,1,10,0:0:0:0:
278,168,142364,6,2,P|404:162|435:35,1,268.799991796875,14|8,0:1|0:1,0:1:0:0:
512,313,142821,2,2,P|473:277|394:271,1,115.199996484375,10|0,0:0|0:0,0:1:0:0:
191,367,143125,5,10,3:1:0:0:
141,375,143202,1,0,3:0:0:0:
94,367,143278,1,0,3:0:0:0:
56,339,143354,1,0,3:0:0:0:
28,299,143430,1,8,3:2:0:0:
20,251,143506,1,0,3:0:0:0:
29,204,143582,1,0,3:0:0:0:
58,166,143658,1,0,3:0:0:0:
98,140,143735,5,10,3:1:0:0:
121,190,143811,1,0,3:0:0:0:
167,222,143887,1,0,3:0:0:0:
223,228,143963,1,0,3:0:0:0:
274,206,144039,1,8,3:2:0:0:
308,161,144115,1,0,3:0:0:0:
317,107,144191,1,0,3:0:0:0:
296,56,144268,1,0,3:0:0:0:
253,20,144344,5,10,3:1:0:0:
212,64,144420,1,0,3:0:0:0:
192,122,144496,1,0,3:0:0:0:
194,182,144572,1,0,3:0:0:0:
217,238,144648,1,8,3:2:0:0:
261,281,144724,1,0,3:0:0:0:
319,302,144801,6,2,B|354:244|354:244|245:153|245:153|190:184,1,268.799991796875,14|8,0:1|0:1,0:1:0:0:
0,335,145257,5,10,0:0:0:0:
193,182,145410,1,10,0:1:0:0:
0,335,145562,5,10,0:0:0:0:
89,86,145714,1,10,0:1:0:0:
195,338,145867,1,10,0:0:0:0:
373,77,146019,6,2,B|416:47|416:47|330:60|330:60|316:70|316:70|206:87,1,268.799991796875,14|8,0:1|0:1,0:1:0:0:
0,236,146476,5,10,0:0:0:0:
205,87,146628,1,10,0:1:0:0:
217,253,146780,5,10,0:0:0:0:
0,51,146933,2,0,L|116:35,1,96,10|8,0:1|0:0,0:0:0:0:
95,37,147237,6,2,P|127:169|261:190,1,288.000010986329,14|0,0:1|0:0,0:1:0:0:
431,9,147694,2,0,L|295:-2,1,115.199996484375,8|0,0:2|0:0,0:0:0:0:
396,207,147999,2,0,L|510:216,1,115.199996484375,8|0,0:1|0:0,0:0:0:0:
284,359,148303,5,10,0:2:0:0:
217,101,148455,1,2,0:0:0:0:
217,101,148532,1,2,0:0:0:0:
217,101,148608,2,0,P|190:205|80:183,1,230.39999296875,8|8,0:1|0:0,0:1:0:0:
18,0,149065,5,2,0:0:0:0:
87,192,149217,1,10,0:1:0:0:
247,10,149369,1,2,0:0:0:0:
320,223,149521,1,8,0:0:0:0:
512,89,149674,6,2,B|432:73|432:73|379:121|379:121|293:104,1,230.39999296875,10|8,0:1|0:1,0:1:0:0:
89,194,150131,2,0,P|89:131|85:72,1,115.199996484375,8|0,0:0|0:0,0:0:0:0:
321,245,150435,2,0,P|321:308|325:367,1,115.199996484375,8|0,0:1|0:0,0:0:0:0:
61,330,150740,5,10,0:0:0:0:
335,371,150892,1,2,0:0:0:0:
335,371,150968,1,2,0:0:0:0:
335,371,151044,2,0,P|402:364|471:363,1,115.199996484375,8|0,0:1|0:0,0:1:0:0:
134,219,151349,2,0,P|76:216|19:210,1,115.199996484375,8|0,0:0|0:0,0:0:0:0:
279,38,151653,5,8,0:0:0:0:
361,182,151806,1,8,0:1:0:0:
437,3,151958,1,8,0:0:0:0:
512,256,152110,5,14,3:1:0:0:
487,216,152186,1,0,3:0:0:0:
451,188,152262,1,0,3:0:0:0:
406,177,152339,1,0,3:0:0:0:
361,182,152415,1,8,3:1:0:0:
321,205,152491,1,0,3:0:0:0:
280,226,152567,1,8,3:2:0:0:
235,231,152643,1,0,3:0:0:0:
191,219,152719,1,0,3:0:0:0:
155,193,152795,1,0,3:0:0:0:
137,148,152872,5,10,3:1:0:0:
186,117,152948,1,0,3:0:0:0:
242,108,153024,1,0,3:0:0:0:
297,123,153100,1,0,3:0:0:0:
342,159,153176,1,8,3:2:0:0:
368,210,153252,1,0,3:0:0:0:
371,267,153328,1,0,3:0:0:0:
350,320,153405,1,0,3:0:0:0:
310,361,153481,5,10,3:1:0:0:
253,334,153557,1,0,3:0:0:0:
210,288,153633,1,0,3:0:0:0:
187,229,153709,1,0,3:0:0:0:
187,166,153785,1,8,3:2:0:0:
211,108,153861,1,0,3:0:0:0:
254,62,153938,1,0,3:0:0:0:
311,36,154014,1,0,3:0:0:0:
374,33,154090,5,10,2:1:0:0:
155,169,154242,2,0,B|115:156|115:156|84:158|84:158|16:133,1,115.199996484375,2|8,0:0|0:0,0:0:0:0:
308,384,154547,6,2,B|337:367|337:367|329:258|329:258|325:251|325:251|315:129|315:129|349:115,1,307.2,14|8,0:1|0:1,0:1:0:0:
57,21,155004,5,10,0:0:0:0:
346,116,155156,1,10,0:1:0:0:
89,187,155308,5,10,0:0:0:0:
323,0,155460,1,10,0:1:0:0:
89,187,155613,1,10,0:0:0:0:
380,259,155765,6,2,B|437:197|437:197|209:255,1,307.2,14|8,0:1|0:1,0:1:0:0:
13,341,156222,5,10,0:0:0:0:
180,80,156374,1,10,0:1:0:0:
13,341,156526,5,10,0:0:0:0:
180,80,156679,1,10,0:1:0:0:
285,368,156831,1,10,0:0:0:0:
499,169,156983,5,14,3:1:0:0:
467,119,157059,1,0,3:0:0:0:
417,89,157136,1,0,3:0:0:0:
359,84,157212,1,0,3:0:0:0:
306,106,157288,1,8,3:1:0:0:
268,149,157364,1,0,3:0:0:0:
253,205,157440,1,8,3:2:0:0:
265,262,157516,1,0,3:0:0:0:
300,308,157592,1,0,3:0:0:0:
354,332,157669,1,0,3:0:0:0:
412,330,157745,5,10,3:1:0:0:
428,267,157821,1,0,3:0:0:0:
424,202,157897,1,0,3:0:0:0:
400,142,157973,1,0,3:0:0:0:
359,92,158049,1,8,3:2:0:0:
305,57,158125,1,0,3:0:0:0:
242,40,158202,1,0,3:0:0:0:
178,43,158278,1,0,3:0:0:0:
118,65,158354,5,10,3:1:0:0:
144,136,158430,1,0,3:0:0:0:
194,192,158506,1,0,3:0:0:0:
262,225,158582,1,0,3:0:0:0:
337,230,158658,1,8,3:2:0:0:
408,207,158735,1,0,3:0:0:0:
466,158,158811,1,0,3:0:0:0:
501,92,158887,1,0,3:0:0:0:
509,17,158963,5,10,2:2:0:0:
194,192,159115,1,10,2:2:0:0:
118,65,159420,6,0,B|333:4|263:201|468:158,2,384,14|2|2,0:1|0:0|0:0,0:0:0:0:
306,326,164293,6,0,B|430:417|594:285|603:136|533:-5|364:53|354:158|419:216,1,624,2|2,0:0|0:0,0:0:0:0:
411,208,166729,6,0,L|270:182,1,134.399995898438,14|0,3:1|3:0,0:0:0:0:
156,202,167186,2,0,P|171:167|159:113,1,67.1999979492188,0|0,3:0|3:0,0:0:0:0:
163,126,167415,1,0,3:2:0:0:
154,115,167491,2,0,P|129:55|182:15,1,134.399995898438,0|0,3:2|3:0,0:0:0:0:
324,59,167948,6,0,L|339:208,1,144.000005493164,2|0,3:2|3:0,0:0:0:0:
409,291,168405,2,0,P|441:305|493:283,1,72.0000027465821,0|0,3:0|3:0,0:0:0:0:
488,290,168633,1,0,3:0:0:0:
497,279,168709,2,0,L|511:135,1,144.000005493164,0|0,3:0|3:0,0:0:0:0:
346,50,169166,6,0,B|270:27|279:84|199:74,1,153.6,2|0,3:2|3:0,0:0:0:0:
40,125,169623,2,0,P|81:103|125:112,1,76.8,0|0,3:0|3:0,0:0:0:0:
120,117,169851,1,0,3:0:0:0:
129,129,169927,2,0,B|140:165|140:165|134:234|134:234|154:291,1,153.6,0|0,3:0|3:0,0:0:0:0:
229,378,170384,5,14,0:1:0:0:
234,357,170993,1,14,0:1:0:0:
239,336,171603,1,14,0:1:0:0:
362,110,171907,5,8,0:0:0:0:
357,117,171983,1,8,0:0:0:0:
353,124,172059,2,0,L|278:109,1,43.1999986816407,8|8,0:1|0:1,0:0:0:0:
169,12,172212,5,10,2:1:0:0:
185,30,172288,1,10,2:1:0:0:
200,49,172364,2,0,L|282:30,1,62.3999971435548,10|0,2:2|2:1,0:0:0:0:
180,193,172516,6,0,L|82:173,1,72.0000027465821,10|0,2:2|2:0,0:0:0:0:
0,207,174039,6,0,L|314:185,1,288.000010986329,14|8,0:1|2:1,0:0:0:0:
469,112,174496,5,2,1:1:0:0:
338,5,174648,5,2,1:1:0:0:
174,62,174801,5,2,1:1:0:0:
134,249,174953,5,2,1:1:0:0:
313,373,175105,5,2,1:1:0:0:
512,226,175257,6,0,B|343:147|400:342|233:274,1,307.2,14|8,0:1|0:1,0:0:0:0:
7,64,175714,1,10,0:0:0:0:
237,275,175867,1,2,0:0:0:0:
162,15,176019,1,10,0:1:0:0:
55,298,176171,1,2,0:0:0:0:
162,15,176323,1,10,0:0:0:0:
394,181,176476,6,0,P|356:291|241:279,1,249.599988574219,2|0,0:0|0:0,0:0:0:0:
108,130,176933,2,0,B|231:108,1,124.79999428711,10|0,0:0|0:0,0:0:0:0:
39,0,177237,1,10,0:0:0:0:
0,270,177389,1,10,0:1:0:0:
0,270,177466,1,8,0:1:0:0:
0,270,177542,1,8,0:0:0:0:
257,120,177694,6,0,B|392:90|334:263|446:315,1,288.000010986329,14|8,0:1|0:1,0:0:0:0:
141,377,178151,1,10,0:2:0:0:
435,309,178303,1,2,0:0:0:0:
231,108,178455,2,0,B|62:65|62:65|47:103|9:134,1,249.599988574219,10|8,0:1|0:0,0:0:0:0:
262,226,178912,5,2,0:0:0:0:
262,226,178988,1,2,0:0:0:0:
262,226,179065,2,0,P|247:331|375:374,1,249.599988574219,8|8,0:1|0:0,0:0:0:0:
440,314,179521,1,0,0:0:0:0:
186,167,179674,2,0,P|306:162|363:57,1,249.599988574219,10|8,0:1|0:0,0:0:0:0:
64,0,180131,6,0,P|127:89|122:283,1,288.000010986329,14|8,0:1|0:1,0:0:0:0:
0,357,180587,5,10,0:0:0:0:
42,143,180740,1,10,0:1:0:0:
212,54,180892,5,10,0:0:0:0:
242,367,181044,1,10,0:1:0:0:
434,379,181197,5,10,0:2:0:0:
488,73,181349,1,10,3:1:0:0:
453,44,181425,1,0,3:0:0:0:
415,24,181501,1,8,3:2:0:0:
374,11,181577,1,0,3:0:0:0:
331,7,181653,1,0,3:0:0:0:
288,10,181729,1,0,3:0:0:0:
247,22,181806,1,8,3:2:0:0:
209,42,181882,1,0,3:0:0:0:
176,70,181958,1,0,3:0:0:0:
149,103,182034,1,0,3:0:0:0:
128,140,182110,1,8,3:2:0:0:
115,182,182186,1,0,3:0:0:0:
110,226,182262,1,0,3:0:0:0:
116,267,182339,1,0,3:0:0:0:
128,309,182415,2,0,L|185:341,1,48,8|0,3:2|3:0,0:0:0:0:
249,376,182567,6,0,B|287:349|287:349|266:250|266:250|260:245|260:245|240:152|240:152|279:127,1,288.000010986329,14|8,0:1|0:1,0:0:0:0:
498,316,183024,2,0,L|514:168,1,124.79999428711,10|0,0:2|0:0,0:0:0:0:
370,0,183328,1,10,0:1:0:0:
279,216,183481,1,2,0:0:0:0:
512,192,183633,1,10,0:0:0:0:
249,12,183785,6,0,P|240:88|88:139,1,249.599988574219,2|0,0:0|0:0,0:0:0:0:
374,325,184242,2,0,L|551:309,1,124.79999428711,10|0,0:2|0:0,0:0:0:0:
267,124,184547,1,10,0:1:0:0:
196,374,184699,1,10,0:1:0:0:
196,374,184775,1,8,0:1:0:0:
196,374,184851,1,8,0:0:0:0:
58,175,185004,6,0,B|25:152|25:152|72:78|28:-10|28:-10|-8:59,1,249.599988574219,10|8,0:1|0:1,0:0:0:0:
234,216,185460,2,0,B|292:207|292:207|295:203|295:203|388:189,1,124.79999428711,10|0,0:0|0:0,0:0:0:0:
66,346,185765,1,8,0:1:0:0:
61,329,185841,1,8,0:1:0:0:
57,312,185917,1,8,0:1:0:0:
53,296,185993,1,8,0:1:0:0:
48,279,186070,1,8,0:0:0:0:
242,122,186222,6,0,B|282:142|330:142|330:142|353:178|353:178|423:184|477:218,1,249.599988574219,2|0,0:0|0:0,0:0:0:0:
304,22,186679,1,10,0:0:0:0:
165,267,186831,1,8,0:1:0:0:
166,20,186983,1,8,0:0:0:0:
321,259,187136,1,8,0:1:0:0:
321,259,187212,1,8,0:1:0:0:
321,259,187288,1,8,0:0:0:0:
39,102,187440,6,0,B|138:83|138:83|159:49|159:49|334:16,1,288.000010986329,14|8,0:1|0:1,0:0:0:0:
512,154,187897,1,10,0:0:0:0:
298,233,188049,1,2,0:0:0:0:
437,384,188202,2,0,B|426:288|426:288|427:282|427:282|409:136,1,249.599988574219,10|8,0:1|0:0,0:0:0:0:
196,27,188658,5,2,0:0:0:0:
196,27,188735,1,2,0:0:0:0:
196,27,188811,1,8,0:1:0:0:
169,161,188963,1,0,0:0:0:0:
35,134,189115,1,10,0:0:0:0:
62,0,189268,1,0,0:0:0:0:
186,179,189420,6,0,P|272:202|352:77,1,249.599988574219,10|8,0:1|0:0,0:0:0:0:
121,341,189877,6,0,P|21:317|18:153,1,288.000010986329,14|8,0:1|0:1,0:0:0:0:
195,0,190334,5,10,0:0:0:0:
317,292,190486,1,8,0:1:0:0:
488,74,190638,5,10,2:2:0:0:
445,64,190714,1,8,2:2:0:0:
403,55,190790,1,8,2:1:0:0:
361,45,190867,1,8,2:1:0:0:
319,36,190943,1,10,2:0:0:0:
512,212,191095,6,0,B|409:184|409:184|401:179|401:179|188:122,1,307.2,14|8,0:1|0:1,0:0:0:0:
0,237,191552,5,8,0:2:0:0:
16,221,191628,5,8,0:2:0:0:
38,219,191704,5,8,0:2:0:0:
53,202,191780,5,8,0:2:0:0:
74,193,191856,5,8,0:3:0:0:
46,144,191933,5,8,0:3:0:0:
73,98,192009,5,8,0:3:0:0:
37,58,192085,5,8,0:3:0:0:
58,7,192161,5,8,0:0:0:0:
240,162,192313,6,0,B|335:147|335:147|383:184|383:184|525:163,1,288.000010986329,14|8,0:1|0:1,0:0:0:0:
178,384,192770,2,0,B|170:345|170:345|172:333|172:333|158:252,1,115.199996484375,8|0,0:0|0:0,0:0:0:0:
119,59,193075,1,10,0:1:0:0:
0,232,193227,2,0,B|7:193|7:193|5:180|5:180|20:100,1,115.199996484375,2|8,0:0|0:0,0:0:0:0:
276,0,193532,6,0,P|278:62|446:126,1,230.39999296875,2|0,0:0|0:0,0:0:0:0:
112,254,193988,2,0,P|57:238|-19:231,1,115.199996484375,8|0,0:0|0:0,0:0:0:0:
119,59,194293,1,10,0:1:0:0:
256,204,194445,2,0,P|261:157|285:84,1,115.199996484375,10|8,0:1|0:0,0:0:0:0:
512,291,194750,6,0,P|476:198|331:181,1,230.39999296875,10|8,0:1|0:1,0:0:0:0:
180,384,195207,1,8,0:0:0:0:
180,384,195511,1,10,0:1:0:0:
150,221,195664,1,2,0:0:0:0:
119,59,195816,1,8,0:0:0:0:
334,147,195968,6,0,B|468:145|406:40|557:47,1,230.39999296875,2|0,0:2|0:0,0:0:0:0:
312,26,196425,2,0,L|184:4,1,115.199996484375,8|0,0:0|0:0,0:0:0:0:
56,229,196729,5,10,0:2:0:0:
198,6,196882,1,10,0:1:0:0:
56,229,197034,1,10,0:0:0:0:
221,109,197186,6,0,B|257:80|308:90|308:90|318:50|345:25|345:25|400:30|462:-1,1,288.000010986329,14|8,0:1|0:1,0:0:0:0:
271,215,197643,1,10,0:0:0:0:
166,3,197795,1,2,0:0:0:0:
56,229,197948,2,0,P|151:231|107:146,1,230.39999296875,10|8,0:1|0:2,0:0:0:0:
465,85,198405,5,2,0:0:0:0:
465,85,198481,1,2,0:0:0:0:
465,85,198557,2,0,P|369:87|413:2,1,230.39999296875,8|8,0:1|0:0,0:0:0:0:
412,2,199014,1,0,0:0:0:0:
490,250,199166,2,0,P|476:144|370:130,1,230.39999296875,10|8,0:1|0:0,0:0:0:0:
171,311,199623,6,0,B|130:377|130:377|189:149,1,288.000010986329,14|8,0:1|0:1,0:0:0:0:
330,38,200080,5,10,0:0:0:0:
36,186,200232,1,10,0:1:0:0:
37,50,200384,5,10,0:0:0:0:
348,280,200537,1,10,0:1:0:0:
381,159,200689,5,10,0:0:0:0:
40,384,200841,2,0,P|47:240|186:204,1,307.2,14|8,0:1|0:1,0:0:0:0:
503,372,201298,5,8,0:0:0:0:
359,53,201450,1,8,0:1:0:0:
146,313,201603,5,8,0:3:0:0:
146,313,201679,1,8,0:3:0:0:
146,313,201755,2,0,B|103:336|103:336|68:300,1,96,8|8,0:3|0:0,0:0:0:0:
70,302,202059,6,0,B|27:269|27:269|55:166|55:166|60:165|60:165|87:71|87:71|52:45,1,307.2,14|8,0:1|0:1,0:1:0:0:
195,189,202516,2,0,L|320:180,1,124.79999428711,8|0,0:0|0:0,0:0:0:0:
511,28,202821,2,0,B|464:61|464:61|248:20,1,249.599988574219,10|8,0:1|0:0,0:0:0:0:
28,141,203278,5,2,0:0:0:0:
28,141,203354,1,2,0:0:0:0:
28,141,203430,2,0,P|142:129|156:14,1,249.599988574219,8|8,0:1|0:0,0:0:0:0:
75,12,203887,1,0,0:0:0:0:
181,138,204039,2,0,B|333:145|229:238|390:263,1,249.599988574219,8|8,0:1|0:0,0:0:0:0:
0,354,204496,6,0,B|151:330|47:237|199:230,1,249.599988574219,10|8,0:1|0:1,0:0:0:0:
464,220,204953,2,0,P|504:153|443:58,1,187.199991430664,8|0,0:0|0:0,0:0:0:0:
363,50,205257,2,0,P|301:165|392:241,1,249.599988574219,10|8,0:1|0:0,0:0:0:0:
198,19,205714,5,2,0:0:0:0:
198,19,205790,1,2,0:0:0:0:
198,19,205867,2,0,B|150:11|150:11|122:23|122:23|34:10,1,124.79999428711,8|0,0:1|0:0,0:0:0:0:
329,161,206171,2,0,B|377:153|377:153|405:165|405:165|493:152,1,124.79999428711,8|0,0:0|0:0,0:0:0:0:
261,326,206476,5,8,0:0:0:0:
184,145,206628,1,8,0:1:0:0:
128,384,206780,1,8,0:0:0:0:
36,208,206933,6,0,B|17:172|17:172|57:80|57:80|13:16|13:16|24:75|2:109,1,307.2,14|8,0:1|0:1,0:0:0:0:
362,15,207389,5,10,0:0:0:0:
5,102,207542,1,8,0:1:0:0:
386,116,207694,5,10,0:0:0:0:
36,208,207846,1,8,0:1:0:0:
410,217,207999,5,10,0:0:0:0:
80,305,208151,2,0,P|98:144|225:141,1,288.000010986329,14|8,0:1|0:1,0:0:0:0:
511,323,208608,5,10,0:0:0:0:
455,16,208760,1,8,0:1:0:0:
426,354,208912,5,10,0:0:0:0:
362,15,209065,1,8,0:1:0:0:
338,379,209217,5,10,0:0:0:0:
271,15,209369,2,0,P|265:105|172:7,1,307.2,14|8,0:1|0:1,0:0:0:0:
448,106,209826,5,10,3:2:0:0:
472,148,209902,1,0,3:0:0:0:
482,197,209978,1,0,3:0:0:0:
474,246,210054,1,0,3:0:0:0:
451,290,210131,1,8,3:2:0:0:
415,325,210207,1,0,3:0:0:0:
370,345,210283,1,0,3:0:0:0:
323,348,210359,1,0,3:0:0:0:
273,337,210435,1,8,3:2:0:0:
231,309,210511,1,0,3:0:0:0:
199,269,210587,5,2,3:2:0:0:
261,262,210664,1,0,3:0:0:0:
312,226,210740,1,8,3:2:0:0:
342,173,210816,1,0,3:0:0:0:
345,111,210892,1,0,3:0:0:0:
318,54,210968,1,0,3:0:0:0:
271,15,211044,1,8,3:2:0:0:
211,1,211120,1,0,3:0:0:0:
150,16,211197,1,0,3:0:0:0:
103,56,211273,1,0,3:0:0:0:
79,113,211349,5,10,0:0:0:0:
333,235,211501,2,0,L|454:233,1,115.199996484375,10|8,0:0|0:3,0:0:0:0:
333,235,211806,6,0,P|471:237|334:155,1,403.199987695313,14|0,0:1|0:0,0:0:0:0:
190,258,213024,6,0,P|52:260|189:178,1,403.199987695313,14|0,0:1|0:0,0:0:0:0:
317,382,214242,5,14,0:1:0:0:
212,2,214547,1,14,0:1:0:0:
317,382,214851,1,14,0:1:0:0:
212,2,215156,1,14,0:1:0:0:
317,382,215460,1,14,0:1:0:0:
479,13,215765,5,10,0:1:0:0:
479,13,215841,1,10,0:1:0:0:
479,13,215917,2,0,L|500:111,1,86.3999973632813,10|8,0:0|0:1,0:0:0:0:
366,171,216222,6,0,L|385:256,1,86.3999973632813,10|8,0:2|0:1,0:0:0:0:
216,5,216526,6,2,L|234:89,1,86.3999973632813,2|0,0:0|0:0,0:1:0:0:
234,89,216831,6,0,B|112:54|167:175|4:122,2,211.200006445313,14|8|8,0:1|0:0|0:1,0:0:0:0:
388,244,217592,2,0,B|454:242|432:266|509:273,1,105.600003222656,2|8,0:0|0:0,0:0:0:0:
205,365,217897,5,2,0:0:0:0:
205,365,217973,1,2,0:0:0:0:
205,364,218049,2,0,P|209:312|204:259,1,105.600003222656,8|0,0:1|0:0,0:0:0:0:
488,166,218354,2,0,P|484:219|489:272,1,105.600003222656,10|0,0:0|0:0,0:0:0:0:
219,57,218658,5,10,0:1:0:0:
425,20,218811,1,2,0:1:0:0:
219,57,218963,1,10,0:0:0:0:
488,166,219115,6,0,P|440:77|334:75,1,211.200006445313,10|8,0:1|0:1,0:0:0:0:
214,276,219572,2,0,P|256:263|325:262,1,105.600003222656,10|0,0:0|0:0,0:0:0:0:
219,57,219877,1,10,0:1:0:0:
129,139,220029,2,0,P|78:154|26:155,1,105.600003222656,2|8,0:0|0:0,0:0:0:0:
322,5,220334,5,2,0:0:0:0:
322,5,220410,1,2,0:0:0:0:
322,5,220486,2,0,B|365:8|365:8|381:20|381:20|423:20,1,105.600003222656,8|0,0:1|0:0,0:0:0:0:
129,139,220790,2,0,B|87:139|87:139|71:151|71:151|27:154,1,105.600003222656,8|0,0:0|0:0,0:0:0:0:
266,372,221095,5,10,0:1:0:0:
354,145,221247,1,10,0:1:0:0:
453,348,221400,1,8,0:0:0:0:
225,198,221552,6,0,B|185:177|150:184|150:184|132:164|132:164|81:173|26:153,1,211.200006445313,14|8,0:1|0:1,0:0:0:0:
288,77,222009,2,0,B|273:27|273:27|299:-20,1,105.600003222656,10|0,0:0|0:0,0:0:0:0:
380,173,222313,1,10,0:1:0:0:
493,102,222466,2,0,B|519:55|519:55|504:5,1,105.600003222656,2|8,0:0|0:0,0:0:0:0:
233,205,222770,5,2,0:0:0:0:
233,205,222846,1,2,0:0:0:0:
233,205,222922,2,0,P|181:212|130:198,1,105.600003222656,8|0,0:1|0:0,0:0:0:0:
332,384,223227,2,0,P|318:333|325:281,1,105.600003222656,10|0,0:0|0:0,0:0:0:0:
493,102,223532,5,10,0:1:0:0:
441,323,223684,1,2,0:0:0:0:
379,74,223836,1,10,0:0:0:0:
233,205,223988,6,0,P|206:306|108:293,1,211.200006445313,14|8,0:1|0:1,0:0:0:0:
23,29,224445,5,10,3:2:0:0:
59,23,224521,1,0,3:0:0:0:
96,21,224598,1,0,3:0:0:0:
133,23,224674,1,0,3:0:0:0:
168,34,224750,1,8,3:1:0:0:
200,55,224826,1,0,3:0:0:0:
231,72,224902,1,0,3:0:0:0:
267,80,224978,1,0,3:0:0:0:
304,81,225054,1,8,3:1:0:0:
341,79,225131,1,0,3:0:0:0:
378,73,225207,6,0,L|407:25,2,52.8000016113282,2|0|8,3:2|3:2|3:1,0:0:0:0:
303,212,225511,5,2,3:2:0:0:
345,221,225587,1,0,3:0:0:0:
380,245,225664,1,8,0:0:0:0:
145,105,225816,5,2,3:2:0:0:
193,101,225892,1,0,3:0:0:0:
231,72,225968,1,8,3:1:0:0:
57,208,226120,5,2,3:2:0:0:
98,237,226197,1,0,3:0:0:0:
116,281,226273,2,0,P|72:273|73:241,1,67.1999979492188,8|0,3:2|3:0,0:0:0:0:
400,321,226729,5,2,0:2:0:0:
408,328,226806,5,2,0:0:0:0:
416,335,226882,5,2,0:2:0:0:
447,264,227034,5,2,0:2:0:0:
444,184,227186,5,2,0:2:0:0:
403,112,227339,5,2,0:2:0:0:
331,65,227491,5,2,0:2:0:0:
228,73,227643,6,2,B|191:60|191:60|167:71|167:71|109:60,1,115.199996484375,14|0,0:1|0:0,0:1:0:0:
