osu file format v14

[General]
AudioFilename: audio2.mp3
AudioLeadIn: 0
PreviewTime: 59445
Countdown: 0
SampleSet: Soft
StackLeniency: 0.7
Mode: 0
LetterboxInBreaks: 0
WidescreenStoryboard: 1

[Editor]
DistanceSpacing: 1
BeatDivisor: 4
GridSize: 32
TimelineZoom: 2.2

[Metadata]
Title:BWLAUTE BEIRRD
TitleUnicode:BWLAUTE BEIRRD
Artist:Yumeno Yuki
ArtistUnicode:夢乃ゆき
Creator:Lasse
Version:Normal.
Source:抜きゲーみたいな島に住んでる貧乳(わたし)はどうすりゃいいですか? 2
Tags:nukitashi 2 Is the prospect LMT AIR or Kalibe Hope or Despair opening full version eroge visual novel blue bird water japanese pop rock english sbeve
BeatmapID:2130019
BeatmapSetID:1014034

[Difficulty]
HPDrainRate:4
CircleSize:3.4
OverallDifficulty:5
ApproachRate:6
SliderMultiplier:1.1
SliderTickRate:1

[Events]
//Background and Video events
0,0,"d.jpg",0,0
//Break Periods
2,159620,163243
2,164493,165679
//Storyboard Layer 0 (Background)
//Storyboard Layer 1 (Fail)
//Storyboard Layer 2 (Pass)
//Storyboard Layer 3 (Foreground)
//Storyboard Layer 4 (Overlay)
//Storyboard Sound Samples

[TimingPoints]
1197,304.568527918782,4,2,0,70,1,0
10334,-125,4,2,34,40,0,0
10790,-125,4,2,35,55,0,0
18100,-111.111111111111,4,2,35,55,0,0
19318,-111.111111111111,4,2,35,60,0,0
20080,-111.111111111111,4,2,35,65,0,0
20156,-111.111111111111,4,2,35,5,0,0
20613,-111.111111111111,4,2,35,10,0,0
20689,-99.9999999999999,4,2,34,68,0,0
25410,-99.9999999999999,4,2,35,68,0,0
25714,-99.9999999999999,4,2,34,68,0,0
27846,-99.9999999999999,4,2,35,68,0,0
30435,-125,4,2,35,50,0,0
38202,-125,4,2,35,40,0,0
38354,-125,4,2,35,50,0,0
38506,-125,4,2,35,40,0,0
38658,-125,4,2,35,50,0,0
38811,-125,4,2,35,40,0,0
38963,-125,4,2,35,42,0,0
39115,-125,4,2,35,44,0,0
39268,-125,4,2,35,46,0,0
39420,-125,4,2,35,48,0,0
39572,-125,4,2,35,50,0,0
39724,-125,4,2,35,52,0,0
39877,-125,4,2,35,54,0,0
40029,-125,4,2,35,56,0,0
40181,-105.263157894737,4,2,34,60,0,0
44902,-105.263157894737,4,2,35,60,0,0
45207,-105.263157894737,4,2,34,60,0,0
47339,-105.263157894737,4,2,35,62,0,0
48557,-100,4,2,35,64,0,0
49775,-125,4,2,35,60,0,0
52212,-111.111111111111,4,2,35,64,0,0
52669,-111.111111111111,4,2,35,62,0,0
54648,-125,4,2,35,60,0,0
57085,-125,4,2,35,50,0,0
57389,-125,4,2,35,40,0,0
58151,-125,4,2,35,30,0,0
58303,-125,4,2,35,64,0,0
58912,-125,4,2,35,66,0,0
59065,-125,4,2,35,68,0,0
59217,-125,4,2,35,70,0,0
59521,-90.9090909090909,4,2,34,76,0,1
59978,-90.9090909090909,4,2,35,76,0,1
69115,-90.9090909090909,4,2,35,76,0,0
69268,-90.9090909090909,4,2,34,76,0,1
69724,-90.9090909090909,4,2,35,76,0,1
79014,-111.111111111111,4,2,35,60,0,0
79090,-111.111111111111,4,2,35,30,0,0
79775,-111.111111111111,4,2,35,35,0,0
80232,-111.111111111111,4,2,35,60,0,0
80308,-111.111111111111,4,2,35,30,0,0
80993,-111.111111111111,4,2,35,35,0,0
81450,-111.111111111111,4,2,35,60,0,0
83735,-111.111111111111,4,2,35,50,0,0
83963,-111.111111111111,4,2,35,5,0,0
84039,-125,4,2,35,48,0,0
88912,-117.647058823529,4,2,35,50,0,0
92567,-117.647058823529,4,2,35,52,0,0
93024,-117.647058823529,4,2,35,54,0,0
93633,-117.647058823529,4,2,35,48,0,0
93785,-105.263157894737,4,2,34,60,0,0
98506,-105.263157894737,4,2,35,60,0,0
102161,-100,4,2,35,60,0,0
103379,-125,4,2,35,60,0,0
105816,-111.111111111111,4,2,35,60,0,0
108252,-125,4,2,35,60,0,0
108405,-125,4,2,35,5,0,0
109318,-125,4,2,35,40,0,0
109471,-125,4,2,35,62,0,0
109547,-125,4,2,35,5,0,0
110537,-125,4,2,35,42,0,0
110689,-125,4,2,35,60,0,0
110993,-125,4,2,35,40,0,0
111755,-125,4,2,35,30,0,0
111907,-125,4,2,35,64,0,0
112516,-125,4,2,35,66,0,0
112669,-125,4,2,35,68,0,0
112821,-125,4,2,35,70,0,0
113125,-90.9090909090909,4,2,34,76,0,1
113582,-90.9090909090909,4,2,35,76,0,1
122719,-90.9090909090909,4,2,35,76,0,0
122872,-90.9090909090909,4,2,34,76,0,1
123328,-90.9090909090909,4,2,35,76,0,1
132618,-111.111111111111,4,2,35,60,0,0
132770,-111.111111111111,4,2,35,5,0,0
133684,-111.111111111111,4,2,35,35,0,0
133836,-111.111111111111,4,2,35,60,0,0
133988,-111.111111111111,4,2,35,5,0,0
134902,-111.111111111111,4,2,35,35,0,0
135054,-111.111111111111,4,2,35,60,0,0
137491,-90.9090909090909,4,2,34,72,0,1
137948,-90.9090909090909,4,2,35,72,0,1
140156,-90.9090909090909,4,2,35,32,0,1
140232,-90.9090909090909,4,2,35,72,0,1
141907,-90.9090909090909,4,2,35,72,0,0
142364,-90.9090909090909,4,2,35,72,0,1
146019,-90.9090909090909,4,2,35,74,0,1
146933,-90.9090909090909,4,2,35,72,0,0
147085,-90.9090909090909,4,2,35,70,0,0
147237,-90.9090909090909,4,2,34,74,0,1
147999,-90.9090909090909,4,2,35,74,0,1
151653,-90.9090909090909,4,2,35,74,0,0
152110,-90.9090909090909,4,2,35,74,0,1
154090,-90.9090909090909,4,2,35,74,0,0
154547,-90.9090909090909,4,2,35,74,0,1
155765,-90.9090909090909,4,2,35,75,0,1
156983,-90.9090909090909,4,2,35,76,0,1
157745,-90.9090909090909,4,2,35,77,0,1
158354,-90.9090909090909,4,2,35,78,0,1
158963,-90.9090909090909,4,2,35,80,0,1
159420,-133.333333333333,4,2,35,52,0,0
159496,-133.333333333333,4,2,35,5,0,0
160638,-133.333333333333,4,2,35,32,0,0
160790,-133.333333333333,4,2,35,5,0,0
161856,-133.333333333333,4,2,35,34,0,0
164293,-133.333333333333,4,2,35,36,0,0
164445,-133.333333333333,4,2,35,5,0,0
166273,-133.333333333333,4,2,35,32,0,0
166729,-133.333333333333,4,2,35,38,0,0
167948,-133.333333333333,4,2,35,39,0,0
169166,-133.333333333333,4,2,35,40,0,0
170384,-133.333333333333,4,2,35,50,0,0
170993,-133.333333333333,4,2,35,52,0,0
171603,-133.333333333333,4,2,35,54,0,0
171907,-117.647058823529,4,2,35,56,0,0
172212,-117.647058823529,4,2,35,58,0,0
172516,-117.647058823529,4,2,35,60,0,0
174039,-90.9090909090909,4,2,35,74,0,1
174344,-90.9090909090909,4,2,35,66,0,1
174496,-90.9090909090909,4,2,35,68,0,0
174648,-90.9090909090909,4,2,35,70,0,0
174801,-90.9090909090909,4,2,35,72,0,0
174953,-90.9090909090909,4,2,35,74,0,0
175105,-90.9090909090909,4,2,35,76,0,0
175257,-90.9090909090909,4,2,34,78,0,1
175714,-90.9090909090909,4,2,35,78,0,1
182415,-90.9090909090909,4,2,35,78,0,0
182567,-90.9090909090909,4,2,34,78,0,1
183024,-90.9090909090909,4,2,35,78,0,1
191400,-90.9090909090909,4,2,35,72,0,1
191552,-90.9090909090909,4,2,35,74,0,1
191856,-90.9090909090909,4,2,35,76,0,1
192161,-90.9090909090909,4,2,35,78,0,0
192313,-90.9090909090909,4,2,34,78,0,1
192770,-90.9090909090909,4,2,35,78,0,1
201907,-90.9090909090909,4,2,35,78,0,0
202059,-90.9090909090909,4,2,34,78,0,1
202516,-90.9090909090909,4,2,35,78,0,1
205181,-90.9090909090909,4,2,35,38,0,1
205257,-90.9090909090909,4,2,35,78,0,1
206933,-90.9090909090909,4,2,35,79,0,1
209369,-90.9090909090909,4,2,35,80,0,1
211653,-90.9090909090909,4,2,35,74,0,1
211806,-111.111111111111,4,2,35,60,0,0
211958,-111.111111111111,4,2,35,5,0,0
212872,-111.111111111111,4,2,35,35,0,0
213024,-111.111111111111,4,2,35,60,0,0
213176,-111.111111111111,4,2,35,5,0,0
214090,-111.111111111111,4,2,35,35,0,0
214242,-111.111111111111,4,2,35,60,0,0
216526,-111.111111111111,4,2,35,50,0,0
216755,-111.111111111111,4,2,35,5,0,0
216831,-100,4,2,34,68,0,0
217136,-100,4,2,35,68,0,0
226729,-125,4,2,35,37,0,0
226882,-125,4,2,35,38,0,0
227034,-125,4,2,35,39,0,0
227186,-125,4,2,35,40,0,0
227339,-125,4,2,35,41,0,0
227491,-125,4,2,35,42,0,0
227643,-142.857142857143,4,2,35,60,0,0
227948,-142.857142857143,4,2,35,40,0,0

[Colours]
Combo1 : 250,190,230
Combo2 : 130,200,230
Combo3 : 255,230,140
Combo4 : 170,245,170

[HitObjects]
67,144,10334,6,2,B|89:136|111:138|111:138|129:124|129:124|159:127|192:115,1,132,2|14,0:0|0:1,0:1:0:0:
159,364,12770,6,0,P|156:342|159:320,1,44,8|8,0:0|0:1,0:0:0:0:
176,279,13075,2,0,P|178:257|176:235,1,44,8|12,0:0|0:1,0:0:0:0:
43,106,15054,6,0,L|-2:100,2,44,8|8|8,0:1|0:0|0:1,0:0:0:0:
115,171,15664,6,0,P|131:226|203:247,1,132,14|8,0:1|0:1,0:0:0:0:
282,215,16425,1,8,0:0:0:0:
282,215,16577,1,8,0:1:0:0:
245,134,16882,2,0,P|231:79|287:10,1,132,14|8,0:1|0:1,0:0:0:0:
360,8,17643,1,8,0:0:0:0:
360,8,17795,1,8,0:1:0:0:
442,79,18100,6,0,B|446:129|446:129|439:146|439:146|448:227,1,148.49999546814,14|10,0:1|3:2,0:0:0:0:
448,323,18861,1,8,3:1:0:0:
363,365,19166,1,8,3:2:0:0:
363,365,19318,2,0,B|315:344|319:376|252:352,1,98.9999969787599,2|0,3:2|3:0,0:0:0:0:
216,332,19775,2,0,L|208:218,1,98.9999969787599,8|2,3:2|0:0,0:0:0:0:
332,75,20689,6,0,B|371:75|371:75|395:97|395:97|443:109,2,110,14|8|8,0:1|0:0|0:1,0:0:0:0:
235,35,21603,1,8,0:0:0:0:
235,35,21755,2,0,B|196:35|196:35|172:57|172:57|124:69,1,110,2|0,0:0|0:0,0:0:0:0:
79,61,22212,1,10,0:0:0:0:
0,137,22516,1,10,0:1:0:0:
0,137,22669,1,2,0:1:0:0:
65,229,22973,6,0,P|113:255|167:250,1,110,10|8,0:1|0:1,0:0:0:0:
215,223,23430,2,0,L|225:99,1,110,10|10,0:0|0:1,0:0:0:0:
294,27,24039,1,8,0:0:0:0:
294,27,24191,2,0,P|341:1|395:6,1,110,2|0,0:0|0:0,0:0:0:0:
445,30,24648,1,8,0:0:0:0:
499,132,24953,1,10,0:1:0:0:
499,132,25105,1,10,0:1:0:0:
398,200,25410,6,0,B|362:203|362:203|340:224|340:224|285:242,1,110,14|8,0:1|0:1,0:0:0:0:
248,260,25867,2,0,P|266:308|223:368,1,110,10|10,0:0|0:1,0:0:0:0:
130,358,26476,1,8,0:0:0:0:
130,358,26628,2,0,P|105:310|122:260,1,110,2|0,0:0|0:0,0:0:0:0:
167,227,27085,1,10,0:0:0:0:
256,162,27389,1,10,0:1:0:0:
256,162,27542,1,2,0:0:0:0:
361,212,27846,6,0,P|424:223|462:188,1,110,14|8,0:1|0:1,0:0:0:0:
492,154,28303,1,10,3:2:0:0:
476,44,28608,1,8,3:1:0:0:
373,23,28912,1,8,3:1:0:0:
373,23,29065,2,0,L|260:18,1,110,2|2,3:2|3:2,0:0:0:0:
174,83,29674,1,2,3:2:0:0:
261,157,29978,1,2,3:2:0:0:
261,157,30131,1,8,3:2:0:0:
186,246,30435,6,0,L|93:257,1,88,14|10,0:1|0:0,0:0:0:0:
23,195,31044,2,0,L|40:93,1,88,2|10,0:0|0:0,0:0:0:0:
204,23,31958,2,0,P|248:20|296:34,1,88,10|2,0:0|0:0,0:0:0:0:
356,101,32567,1,10,0:0:0:0:
356,101,32719,2,0,L|367:197,1,88,8|8,0:1|0:1,0:0:0:0:
399,223,33176,6,0,B|443:220|442:246|489:238,2,88,10|2|8,0:0|0:0|0:0,0:0:0:0:
304,244,34090,1,2,0:0:0:0:
288,339,34394,1,8,0:0:0:0:
199,379,34699,2,0,L|105:368,1,88,2|10,0:0|0:0,0:0:0:0:
0,215,35613,5,10,0:0:0:0:
13,119,35917,1,2,0:0:0:0:
26,23,36222,1,10,0:0:0:0:
218,7,36831,5,10,0:0:0:0:
231,103,37136,1,2,0:0:0:0:
244,199,37440,1,10,0:0:0:0:
358,288,37897,5,10,0:1:0:0:
358,288,38049,2,0,P|396:305|451:288,2,88,10|2|10,0:0|0:0|0:0,0:0:0:0:
285,214,38963,5,2,0:3:0:0:
361,161,39268,1,2,0:3:0:0:
365,63,39572,1,2,0:3:0:0:
282,4,39877,1,2,0:3:0:0:
175,41,40181,6,0,B|140:34|140:34|114:45|114:45|54:35,1,104.499997209549,14|10,0:1|0:0,0:0:0:0:
27,56,40638,1,8,0:1:0:0:
27,56,40790,2,0,P|1:99|19:165,1,104.499997209549,10|10,0:1|0:0,0:0:0:0:
110,270,41552,1,10,0:1:0:0:
110,270,41704,2,0,L|217:282,1,104.499997209549,8|10,0:0|0:1,0:0:0:0:
292,350,42313,1,10,0:0:0:0:
292,350,42466,2,0,L|399:362,1,104.499997209549,8|10,0:1|0:1,0:0:0:0:
443,339,42922,6,0,P|464:291|443:227,2,104.499997209549,8|10|10,0:0|0:1|0:0,0:0:0:0:
343,370,43836,1,10,0:1:0:0:
265,300,44141,1,10,0:0:0:0:
177,356,44445,1,10,0:1:0:0:
113,280,44750,1,10,0:0:0:0:
113,280,44902,1,12,0:1:0:0:
198,205,45207,5,10,0:1:0:0:
198,205,45359,2,0,B|242:199|242:199|260:205|260:205|323:200,2,104.499997209549,8|2|10,0:0|0:0|0:0,0:0:0:0:
50,167,46425,1,10,0:1:0:0:
50,167,46577,2,0,P|37:99|65:58,1,104.499997209549,8|2,0:0|0:0,0:0:0:0:
143,18,47186,1,8,0:0:0:0:
143,18,47339,2,0,L|249:24,1,104.499997209549,10|8,0:1|0:1,0:0:0:0:
282,62,47795,1,10,0:0:0:0:
383,26,48100,1,10,0:1:0:0:
383,26,48252,1,10,0:1:0:0:
486,87,48557,6,0,B|480:130|480:130|483:145|483:145|471:217,1,110,14|8,0:1|0:1,0:0:0:0:
494,247,49014,1,8,0:0:0:0:
465,353,49318,1,10,0:0:0:0:
465,353,49471,1,8,0:1:0:0:
371,286,49775,6,0,B|309:241|309:241|281:329|212:348,1,220,14|2,0:1|0:0,0:0:0:0:
75,322,50993,2,0,L|64:171,1,132,10|2,0:1|0:0,0:0:0:0:
17,101,51755,2,0,P|65:107|112:87,1,88,2|10,0:0|0:0,0:0:0:0:
142,58,52212,6,0,P|183:37|237:46,1,98.9999969787599,14|8,0:1|0:1,0:0:0:0:
266,81,52669,1,10,0:0:0:0:
356,40,52973,1,10,0:1:0:0:
397,130,53278,1,10,0:0:0:0:
307,171,53582,2,0,L|193:165,1,98.9999969787599,10|10,0:1|0:0,0:0:0:0:
114,204,54191,1,10,0:0:0:0:
114,204,54344,1,8,0:1:0:0:
182,292,54648,6,0,B|224:301|224:301|239:330|239:330|292:349,1,132,14|8,0:1|0:0,0:0:0:0:
383,380,55410,2,0,L|394:285,1,88,2|8,0:0|0:0,0:0:0:0:
438,275,55867,2,0,L|433:135,1,132,10|10,0:1|0:0,0:0:0:0:
374,66,56628,2,0,P|327:78|277:55,1,88,2|8,0:0|0:0,0:0:0:0:
252,37,57085,6,0,P|93:77|92:241,1,352,14|14,0:1|0:1,0:0:0:0:
165,330,58608,1,14,0:1:0:0:
268,275,58912,1,10,0:1:0:0:
268,275,59065,1,10,0:0:0:0:
268,275,59217,1,10,0:0:0:0:
358,355,59521,6,0,P|406:359|443:240,1,181.500005538941,14|10,0:1|0:0,0:0:0:0:
387,150,60283,1,10,0:1:0:0:
387,150,60435,1,2,0:2:0:0:
272,191,60740,2,0,B|204:181|204:181|172:198|172:198|96:190,1,181.500005538941,2|10,0:0|0:0,0:0:0:0:
4,110,61501,1,10,0:1:0:0:
4,110,61653,1,10,0:1:0:0:
106,32,61958,6,0,B|153:25|153:25|172:38|172:38|223:32,1,121.000003692627,10|8,0:1|0:1,0:0:0:0:
281,17,62415,1,10,0:0:0:0:
371,105,62719,1,10,0:1:0:0:
371,105,62872,1,2,0:0:0:0:
284,188,63176,2,0,P|256:255|296:305,1,121.000003692627,2|0,0:0|0:0,0:0:0:0:
325,330,63633,1,10,0:0:0:0:
437,374,63938,1,8,0:0:0:0:
437,374,64090,1,10,0:1:0:0:
512,262,64394,6,0,B|506:216|506:216|508:203|508:203|499:121,1,121.000003692627,14|8,0:1|0:1,0:0:0:0:
490,82,64851,1,10,0:0:0:0:
389,12,65156,2,0,B|368:141,1,121.000003692627,10|8,0:1|0:0,0:0:0:0:
350,189,65613,2,0,B|315:201|275:240|275:240|258:194|223:168,1,181.500005538941,2|8,0:0|0:0,0:0:0:0:
117,108,66374,1,10,0:1:0:0:
1,250,66831,6,0,B|-8:331|-8:331|27:358,1,121.000003692627,14|8,0:1|0:1,0:0:0:0:
80,375,67288,1,10,0:0:0:0:
189,324,67592,1,10,0:0:0:0:
301,369,67897,1,10,0:0:0:0:
301,369,68049,2,0,B|325:339|325:339|308:178,1,181.500005538941,14|8,0:1|0:0,0:0:0:0:
290,81,68811,1,8,0:3:0:0:
290,81,68963,1,4,0:3:0:0:
405,14,69268,6,0,P|448:6|491:111,1,181.500005538941,14|10,0:1|0:0,0:0:0:0:
389,179,70029,2,0,L|257:169,1,121.000003692627,10|10,0:1|0:2,0:0:0:0:
221,208,70486,2,0,P|208:290|125:295,1,181.500005538941,2|10,0:0|0:0,0:0:0:0:
26,230,71247,1,10,0:1:0:0:
26,230,71400,1,10,0:1:0:0:
65,109,71704,6,0,L|251:79,1,181.500005538941,10|10,0:1|0:0,0:0:0:0:
320,175,72466,2,0,P|309:240|341:292,1,121.000003692627,10|8,0:1|0:0,0:0:0:0:
394,314,72922,1,2,0:0:0:0:
394,314,73075,2,0,P|455:291|484:237,1,121.000003692627,10|10,0:1|0:0,0:0:0:0:
498,124,73684,2,0,P|447:82|386:84,1,121.000003692627,8|8,0:0|0:0,0:0:0:0:
339,109,74141,6,0,B|283:134|283:134|214:92,1,121.000003692627,14|8,0:1|0:1,0:0:0:0:
183,67,74598,1,10,0:0:0:0:
80,133,74902,2,0,P|54:189|84:256,1,121.000003692627,10|8,0:1|0:0,0:0:0:0:
122,285,75359,1,2,0:0:0:0:
122,285,75511,2,0,L|258:303,1,121.000003692627,10|10,0:1|0:0,0:0:0:0:
347,361,76120,2,0,L|361:233,1,121.000003692627,10|8,0:1|0:0,0:0:0:0:
322,192,76577,6,0,B|253:175|274:213|201:206,1,121.000003692627,14|8,0:1|0:1,0:0:0:0:
145,191,77034,1,10,3:2:0:0:
82,87,77339,1,10,3:1:0:0:
177,13,77643,1,8,3:2:0:0:
177,13,77795,2,0,B|247:3|222:38|295:39,1,121.000003692627,2|0,3:1|3:0,0:0:0:0:
351,27,78252,1,8,3:2:0:0:
442,101,78557,2,0,P|464:158|446:213,1,121.000003692627,8|8,3:2|3:2,0:0:0:0:
409,245,79014,6,0,B|279:236|350:353|209:365,1,247.4999924469,14|0,0:1|0:0,0:0:0:0:
50,334,80232,2,0,B|12:301|12:301|46:86,1,247.4999924469,14|0,0:1|0:0,0:0:0:0:
188,31,81450,6,0,P|236:27|282:45,1,98.9999969787599,14|14,0:1|0:1,0:0:0:0:
349,131,82059,2,0,P|394:148|443:144,2,98.9999969787599,14|14|14,0:1|0:1|0:1,0:0:0:0:
268,59,82973,1,10,0:1:0:0:
268,59,83125,2,0,B|225:34|225:34|173:44,2,98.9999969787599,10|10|2,0:0|0:2|0:0,0:0:0:0:
336,146,84039,6,0,P|302:224|355:306,1,176,14|8,0:1|0:0,0:0:0:0:
475,356,85105,2,0,L|489:268,1,88,8|8,0:1|0:0,0:0:0:0:
489,176,85714,1,8,0:1:0:0:
489,176,85867,2,0,L|475:88,1,88,8|8,0:0|0:1,0:0:0:0:
385,31,86476,6,0,P|303:43|294:125,1,176,10|8,0:1|0:0,0:0:0:0:
359,254,87542,2,0,P|372:299|351:342,1,88,8|8,0:1|0:0,0:0:0:0:
267,364,88151,1,8,0:1:0:0:
267,364,88303,2,0,L|162:352,1,88,8|8,0:0|0:1,0:0:0:0:
71,383,88912,6,0,B|71:303|71:303|66:288|66:288|66:186,1,187.000003566742,14|8,0:1|0:0,0:0:0:0:
119,59,89978,2,0,P|157:71|209:63,1,93.500001783371,8|8,0:1|0:0,0:0:0:0:
300,27,90587,1,8,0:1:0:0:
300,27,90740,2,0,P|345:18|390:30,1,93.500001783371,8|8,0:0|0:1,0:0:0:0:
471,98,91349,6,0,B|478:171|478:171|475:188|475:188|485:283,1,187.000003566742,10|8,0:1|0:0,0:0:0:0:
363,367,92415,1,8,0:1:0:0:
363,367,92567,2,0,L|356:309,1,46.7500008916855,8|8,0:0|0:1,0:0:0:0:
294,244,93024,1,8,0:1:0:0:
294,244,93176,2,0,L|287:186,1,46.7500008916855,8|8,0:0|0:1,0:0:0:0:
219,56,93785,6,0,B|174:47|174:47|156:62|156:62|99:69,1,104.499997209549,14|10,0:1|0:0,0:0:0:0:
71,84,94242,1,8,0:1:0:0:
71,84,94394,2,0,B|47:132|47:132|61:190,1,104.499997209549,10|10,0:1|0:0,0:0:0:0:
136,318,95156,1,10,0:1:0:0:
136,317,95308,2,0,P|185:302|235:314,1,104.499997209549,8|10,0:0|0:1,0:0:0:0:
330,359,95917,1,10,0:0:0:0:
330,359,96070,2,0,P|379:374|429:362,1,104.499997209549,8|10,0:1|0:1,0:0:0:0:
468,327,96526,6,0,B|472:283|472:283|471:270|471:270|474:211,2,104.499997209549,8|10|10,0:0|0:1|0:0,0:0:0:0:
376,377,97440,1,10,0:1:0:0:
287,324,97745,1,10,0:0:0:0:
288,220,98049,1,10,0:1:0:0:
378,168,98354,1,10,0:0:0:0:
378,168,98506,1,12,0:1:0:0:
299,91,98811,5,10,0:1:0:0:
299,91,98963,2,0,B|255:85|255:85|237:93|237:93|174:86,2,104.499997209549,8|2|10,0:0|0:0|0:0,0:0:0:0:
423,185,100029,1,10,0:1:0:0:
423,185,100181,2,0,P|434:251|408:294,1,104.499997209549,8|2,0:0|0:0,0:0:0:0:
337,349,100790,1,8,0:0:0:0:
337,349,100943,2,0,B|289:326|289:326|231:337,1,104.499997209549,10|8,0:1|0:1,0:0:0:0:
192,359,101400,1,10,0:0:0:0:
102,304,101704,1,10,0:1:0:0:
102,304,101856,1,10,0:1:0:0:
199,236,102161,6,0,P|217:184|206:131,1,110,14|8,0:1|0:1,0:0:0:0:
178,83,102618,1,8,0:0:0:0:
105,0,102922,1,10,0:0:0:0:
105,0,103075,1,8,0:1:0:0:
7,73,103379,6,0,B|-10:122|-10:122|2:177|2:177|-8:243|-8:243|16:295,1,220,14|2,0:1|0:0,0:0:0:0:
133,362,104598,2,0,L|149:228,1,132,10|2,0:1|0:0,0:0:0:0:
195,145,105359,2,0,P|232:127|281:138,1,88,2|10,0:0|0:0,0:0:0:0:
317,163,105816,6,0,B|323:191|323:191|317:210|317:210|326:259,1,98.9999969787599,14|8,0:1|0:1,0:0:0:0:
340,307,106273,1,10,0:0:0:0:
410,375,106577,1,10,0:1:0:0:
496,329,106882,1,10,0:0:0:0:
478,232,107186,2,0,B|472:204|472:204|478:185|478:185|468:135,1,98.9999969787599,10|10,0:1|0:0,0:0:0:0:
454,38,107795,1,10,0:0:0:0:
454,38,107948,1,8,0:1:0:0:
349,87,108252,6,0,B|303:127|303:127|244:62|155:75,1,220,14|0,0:1|0:0,0:0:0:0:
32,137,109471,2,0,P|5:241|70:331,1,220,14|0,0:1|0:0,0:0:0:0:
217,358,110689,6,0,B|264:341|334:356|303:394|412:416|466:368|466:253|368:255,1,352,14|14,0:1|0:1,0:0:0:0:
260,234,112212,1,14,0:1:0:0:
156,215,112516,1,10,0:1:0:0:
156,215,112669,1,10,0:0:0:0:
156,215,112821,1,10,0:0:0:0:
55,281,113125,6,0,B|67:239|67:239|62:209|62:209|91:96,1,181.500005538941,14|10,0:1|0:0,0:0:0:0:
160,6,113887,1,10,0:1:0:0:
160,6,114039,1,2,0:1:0:0:
252,84,114344,2,0,B|351:115|326:37|427:67,1,181.500005538941,2|10,0:0|0:0,0:0:0:0:
510,161,115105,1,10,0:1:0:0:
510,161,115257,1,10,0:1:0:0:
421,253,115562,6,0,B|379:248|379:248|358:263|358:263|300:266,1,121.000003692627,10|8,0:1|0:1,0:0:0:0:
253,298,116019,1,10,0:0:0:0:
155,236,116323,1,10,0:1:0:0:
155,236,116476,1,2,0:0:0:0:
242,152,116780,2,0,P|271:102|248:48,1,121.000003692627,2|0,0:0|0:0,0:0:0:0:
199,10,117237,1,10,0:2:0:0:
78,17,117542,1,8,0:0:0:0:
78,17,117694,1,10,0:1:0:0:
18,135,117999,6,0,B|24:176|24:176|20:193|20:193|31:276,1,121.000003692627,14|8,0:1|0:1,0:0:0:0:
39,314,118455,1,10,0:0:0:0:
140,380,118760,2,0,B|146:339|146:339|142:322|142:322|153:239,1,121.000003692627,10|8,0:1|0:0,0:0:0:0:
177,206,119217,2,0,B|294:199|228:272|355:272,1,181.500005538941,2|8,0:0|0:0,0:0:0:0:
455,243,119978,1,10,0:1:0:0:
410,66,120435,6,0,B|358:37|358:37|300:59,1,121.000003692627,14|8,0:1|0:1,0:0:0:0:
255,99,120892,1,10,0:0:0:0:
319,200,121197,1,10,0:0:0:0:
253,305,121501,1,10,0:0:0:0:
253,305,121653,2,0,B|204:291|204:291|150:339|150:339|86:327,1,181.500005538941,14|8,0:1|0:0,0:0:0:0:
0,258,122415,1,8,2:3:0:0:
0,258,122567,1,4,2:3:0:0:
110,184,122872,6,0,B|147:157|147:157|105:85|151:16,1,181.500005538941,14|10,0:1|0:0,0:0:0:0:
263,12,123633,2,0,P|296:63|282:144,1,121.000003692627,10|10,0:1|0:0,0:0:0:0:
263,174,124090,2,0,P|242:212|292:344,1,181.500005538941,2|10,0:0|0:0,0:0:0:0:
395,373,124851,1,10,0:1:0:0:
395,373,125004,1,10,0:1:0:0:
489,288,125308,6,0,B|485:239|485:239|486:231|486:231|477:107,1,181.500005538941,10|10,0:1|0:0,0:0:0:0:
386,26,126070,2,0,P|328:31|321:93,1,121.000003692627,10|8,0:1|0:0,0:0:0:0:
328,149,126526,1,2,0:0:0:0:
328,149,126679,2,0,P|314:204|258:207,1,121.000003692627,10|10,0:1|0:0,0:0:0:0:
152,146,127288,2,0,B|102:107|102:107|34:142,1,121.000003692627,8|8,0:0|0:0,0:0:0:0:
7,176,127745,6,0,L|13:307,1,121.000003692627,14|8,0:1|0:1,0:0:0:0:
22,356,128202,1,10,0:0:0:0:
141,338,128506,2,0,B|185:335|185:335|206:349|206:349|266:349,1,121.000003692627,10|8,0:1|0:0,0:0:0:0:
318,374,128963,1,2,0:0:0:0:
318,374,129115,2,0,L|333:238,1,121.000003692627,10|10,0:1|0:0,0:0:0:0:
451,239,129724,2,0,L|466:103,1,121.000003692627,10|8,0:1|0:2,0:0:0:0:
435,65,130181,6,0,B|367:41|382:92|317:74,1,121.000003692627,14|8,0:1|0:1,0:0:0:0:
262,53,130638,1,10,3:2:0:0:
183,144,130943,1,10,3:1:0:0:
276,228,131247,1,8,3:2:0:0:
276,228,131400,2,0,P|292:281|260:351,1,121.000003692627,2|0,3:1|3:0,0:0:0:0:
216,367,131856,1,8,3:2:0:0:
98,337,132161,2,0,P|82:279|103:224,1,121.000003692627,8|8,3:2|3:2,0:0:0:0:
150,195,132618,6,0,B|239:186|239:186|256:194|256:194|394:182,1,247.4999924469,14|0,0:1|0:0,0:0:0:0:
509,66,133836,2,0,B|420:57|420:57|403:65|403:65|264:53,1,247.4999924469,14|0,0:1|0:0,0:0:0:0:
109,2,135054,6,0,L|119:108,1,98.9999969787599,14|14,0:1|0:1,0:0:0:0:
119,209,135664,2,0,L|109:307,2,98.9999969787599,14|14|14,0:1|0:1|0:1,0:0:0:0:
205,142,136577,1,10,0:1:0:0:
205,142,136729,2,0,B|253:130|253:130|317:149,1,98.9999969787599,10|10,0:0|0:2,0:0:0:0:
432,268,137491,6,2,B|449:328|390:372|390:372|376:343|332:319,1,181.500005538941,14|10,0:1|0:0,0:1:0:0:
233,289,138252,1,10,0:1:0:0:
137,363,138557,1,10,0:0:0:0:
27,311,138861,2,0,P|12:253|37:199,1,121.000003692627,10|10,0:1|0:0,0:0:0:0:
131,123,139471,2,0,L|261:115,1,121.000003692627,10|10,0:1|0:0,0:0:0:0:
284,166,139927,6,2,L|414:174,1,121.000003692627,10|10,0:1|0:1,0:1:0:0:
507,108,140537,1,2,0:0:0:0:
442,6,140841,1,2,0:0:0:0:
339,65,141146,2,2,L|152:53,1,181.500005538941,2|8,0:0|0:0,0:1:0:0:
40,85,141907,2,0,B|8:137|8:137|40:206,1,121.000003692627,10|10,0:0|0:0,0:0:0:0:
57,247,142364,6,2,B|131:243|103:283|166:288,1,121.000003692627,14|8,0:1|0:1,0:1:0:0:
225,275,142821,1,10,0:0:0:0:
296,177,143125,2,0,P|280:120|307:67,1,121.000003692627,10|8,3:1|3:2,0:0:0:0:
359,36,143582,1,0,3:0:0:0:
359,36,143735,2,0,P|417:34|461:74,1,121.000003692627,10|8,3:1|3:2,0:0:0:0:
480,194,144344,2,0,P|438:236|379:239,1,121.000003692627,10|8,3:1|3:2,0:0:0:0:
329,204,144801,6,2,B|280:172|280:172|208:206,1,121.000003692627,14|8,0:1|0:1,0:1:0:0:
190,248,145257,1,10,0:0:0:0:
97,326,145562,1,10,0:0:0:0:
9,251,145867,1,10,0:0:0:0:
9,251,146019,2,2,L|25:108,1,121.000003692627,14|8,0:1|0:1,0:1:0:0:
35,71,146476,1,10,0:0:0:0:
139,10,146780,1,10,0:0:0:0:
139,10,146933,1,10,0:1:0:0:
211,117,147237,6,2,P|203:201|371:312,1,302.500009231568,14|8,0:1|0:1,0:1:0:0:
475,256,148303,1,10,0:2:0:0:
475,256,148455,2,2,L|482:62,1,181.500005538941,2|8,0:0|0:0,0:1:0:0:
433,47,149065,1,2,0:0:0:0:
433,47,149217,2,2,B|387:45|387:45|369:58|369:58|304:64,1,121.000003692627,10|8,0:1|0:0,0:1:0:0:
257,47,149674,6,2,B|140:18|140:18|78:217,1,302.500009231568,10|8,0:1|0:1,0:1:0:0:
47,319,150740,1,10,0:0:0:0:
47,319,150892,2,2,L|229:312,1,181.500005538941,2|8,0:0|0:0,0:1:0:0:
340,357,151653,2,0,P|395:377|456:342,1,121.000003692627,8|8,0:0|0:0,0:0:0:0:
475,296,152110,6,2,B|482:225|482:225|481:214|481:214|490:105,1,181.500005538941,14|8,3:1|3:2,0:1:0:0:
400,33,152872,2,2,B|345:11|345:11|264:33,1,121.000003692627,10|8,3:1|3:2,0:1:0:0:
238,63,153328,1,0,3:0:0:0:
238,63,153481,2,2,L|224:193,1,121.000003692627,10|8,3:1|3:2,0:1:0:0:
145,274,154090,1,10,2:1:0:0:
145,274,154242,1,2,0:0:0:0:
24,217,154547,6,2,L|16:83,1,121.000003692627,14|8,0:1|0:1,0:1:0:0:
21,35,155004,1,10,0:0:0:0:
123,99,155308,1,10,0:0:0:0:
242,67,155613,1,10,0:0:0:0:
242,67,155765,2,2,B|291:60|291:60|312:69|312:69|375:68,1,121.000003692627,14|8,0:1|0:1,0:1:0:0:
420,59,156222,1,10,0:0:0:0:
496,152,156526,2,2,P|507:199|487:269,1,121.000003692627,10|10,0:0|0:0,0:1:0:0:
443,309,156983,6,2,B|389:303|389:303|354:343|354:343|281:359,1,181.500005538941,14|8,3:1|3:2,0:1:0:0:
168,311,157745,2,2,P|150:255|172:201,1,121.000003692627,10|8,3:1|3:2,0:1:0:0:
219,161,158202,1,0,3:0:0:0:
219,161,158354,2,2,P|241:106|222:50,1,121.000003692627,10|8,3:1|3:2,0:1:0:0:
109,5,158963,1,10,2:2:0:0:
109,5,159115,1,10,2:2:0:0:
33,85,159420,5,14,0:1:0:0:
451,177,164293,5,2,0:0:0:0:
236,328,166729,5,14,3:1:0:0:
402,122,167948,1,2,3:2:0:0:
497,368,169166,1,2,3:2:0:0:
236,328,170384,6,0,L|67:308,2,165.000006294251,14|14|14,0:1|0:1|0:1,0:0:0:0:
331,289,171907,2,0,P|349:264|333:101,1,187.000003566742,8|10,0:0|2:2,0:0:0:0:
72,41,174039,6,0,P|24:93|37:212,1,181.500005538941,14|2,0:1|1:1,0:0:0:0:
104,292,174801,2,0,L|232:311,1,121.000003692627,2|2,1:1|1:1,0:0:0:0:
270,347,175257,6,0,B|277:306|277:306|283:297|283:297|292:229,1,121.000003692627,14|8,0:1|0:1,0:0:0:0:
304,169,175714,1,10,0:0:0:0:
396,256,176019,1,10,0:1:0:0:
396,256,176171,1,2,0:0:0:0:
486,175,176476,2,0,B|479:134|479:134|473:125|473:125|460:57,1,121.000003692627,2|0,0:0|0:0,0:0:0:0:
433,2,176933,1,10,0:0:0:0:
361,99,177237,1,10,0:0:0:0:
361,99,177389,1,10,0:1:0:0:
246,31,177694,6,0,B|189:6|189:6|136:33,1,121.000003692627,14|8,0:1|0:1,0:0:0:0:
92,74,178151,1,10,0:2:0:0:
13,166,178455,2,0,B|16:206|16:206|21:211|21:211|28:290,1,121.000003692627,10|8,0:1|0:0,0:0:0:0:
67,328,178912,2,0,B|177:307|132:380|243:365,1,181.500005538941,2|8,0:0|0:0,0:0:0:0:
353,325,179674,1,10,0:1:0:0:
276,160,180131,6,0,P|260:107|299:39,1,121.000003692627,14|8,0:1|0:1,0:0:0:0:
334,13,180587,1,10,0:0:0:0:
454,5,180892,1,10,0:0:0:0:
505,120,181197,1,10,0:2:0:0:
505,120,181349,2,0,B|491:312,1,181.500005538941,10|8,3:1|3:2,0:0:0:0:
404,384,182110,1,8,3:2:0:0:
404,384,182262,1,0,3:0:0:0:
305,294,182567,6,0,B|296:220|296:220|299:208|299:208|286:111,1,181.500005538941,14|10,0:1|0:2,0:0:0:0:
196,31,183328,2,0,P|140:13|84:33,1,121.000003692627,10|10,0:1|0:0,0:0:0:0:
40,76,183785,2,0,L|26:256,1,181.500005538941,2|10,0:0|0:2,0:0:0:0:
55,374,184547,1,10,0:1:0:0:
55,374,184699,1,10,0:1:0:0:
165,312,185004,6,0,B|278:295|234:360|334:357,1,181.500005538941,10|10,0:1|0:0,0:0:0:0:
452,335,185765,2,0,L|467:195,1,121.000003692627,8|8,0:1|0:0,0:0:0:0:
449,155,186222,1,2,0:0:0:0:
449,155,186374,2,0,P|399:126|335:148,1,121.000003692627,10|10,0:1|0:0,0:0:0:0:
266,237,186983,2,0,P|216:266|152:244,1,121.000003692627,8|8,0:0|0:0,0:0:0:0:
107,216,187440,6,0,B|118:68,1,121.000003692627,14|8,0:1|0:1,0:0:0:0:
123,34,187897,1,10,0:0:0:0:
242,11,188202,2,0,B|250:131,1,121.000003692627,10|8,0:1|0:0,0:0:0:0:
269,194,188658,1,2,0:0:0:0:
269,194,188811,2,0,B|277:314,1,121.000003692627,8|10,0:1|0:0,0:0:0:0:
383,371,189420,2,0,B|424:366|456:379|456:379|487:323,1,121.000003692627,10|8,0:1|0:0,0:0:0:0:
490,278,189877,6,0,L|478:134,1,121.000003692627,14|8,0:1|0:1,0:0:0:0:
467,97,190334,1,10,0:0:0:0:
377,16,190638,1,10,2:2:0:0:
290,96,190943,1,10,2:0:0:0:
289,96,191095,2,0,P|234:115|183:87,1,121.000003692627,14|8,0:1|0:1,0:0:0:0:
143,41,191552,2,0,P|32:43|20:160,1,242.000007385254,8|8,0:2|0:0,0:0:0:0:
54,199,192313,6,0,B|104:200|104:200|136:240|136:240|219:268,1,181.500005538941,14|8,0:1|0:0,0:0:0:0:
311,345,193075,1,10,0:1:0:0:
311,345,193227,1,2,0:0:0:0:
417,285,193532,2,0,P|465:205|454:106,1,181.500005538941,2|8,0:0|0:0,0:0:0:0:
380,28,194293,2,0,L|256:14,1,121.000003692627,10|8,0:1|0:0,0:0:0:0:
203,37,194750,6,0,P|179:85|184:159,1,121.000003692627,10|8,0:1|0:1,0:0:0:0:
208,205,195207,1,8,0:0:0:0:
302,279,195511,1,10,0:1:0:0:
302,279,195664,1,2,0:0:0:0:
219,366,195968,2,0,B|160:355|160:355|132:374|132:374|26:359,1,181.500005538941,2|8,0:2|0:0,0:0:0:0:
0,255,196729,1,10,0:2:0:0:
0,255,196882,1,10,0:1:0:0:
96,161,197186,6,0,B|149:157|149:157|160:168|160:168|231:192,1,121.000003692627,14|8,0:1|0:1,0:0:0:0:
266,204,197643,1,10,0:0:0:0:
378,161,197948,2,0,P|403:107|383:51,1,121.000003692627,10|8,0:1|0:2,0:0:0:0:
328,25,198405,2,0,B|275:21|275:21|243:39|243:39|137:52,1,181.500005538941,2|8,0:0|0:0,0:0:0:0:
45,107,199166,2,0,P|20:160|40:216,1,121.000003692627,10|8,0:1|0:0,0:0:0:0:
99,230,199623,6,0,L|231:226,1,121.000003692627,14|8,0:1|0:1,0:0:0:0:
277,207,200080,1,10,0:0:0:0:
377,274,200384,1,10,0:0:0:0:
288,356,200689,1,10,0:0:0:0:
288,356,200841,2,0,L|156:352,1,121.000003692627,14|8,0:1|0:1,0:0:0:0:
113,380,201298,1,8,0:0:0:0:
16,306,201603,2,0,B|24:253|24:253|23:244|23:244|33:164,1,121.000003692627,8|8,0:3|0:0,0:0:0:0:
73,144,202059,6,2,B|182:132|121:204|227:224,1,181.500005538941,14|8,0:1|0:0,0:2:0:0:
334,171,202821,2,2,L|347:32,1,121.000003692627,10|8,0:1|0:0,0:2:0:0:
392,14,203278,2,2,B|460:3|460:3|511:82|511:82|471:149|471:149|480:210|480:210|468:240|468:240|474:276|474:276|462:341,1,423.500012924195,2|8,0:0|0:0,0:2:0:0:
419,367,204496,6,2,L|232:351,1,181.500005538941,10|8,0:1|0:0,0:2:0:0:
131,293,205257,2,2,P|120:228|163:182,1,121.000003692627,10|8,0:1|0:0,0:2:0:0:
197,147,205714,2,2,B|250:153|250:153|327:249|452:233|479:93|414:29|333:53,1,423.500012924195,2|8,0:0|0:0,0:2:0:0:
286,62,206933,6,2,B|155:47,1,121.000003692627,14|8,0:1|0:1,0:2:0:0:
110,23,207389,1,10,0:0:0:0:
1,77,207694,1,10,0:0:0:0:
94,157,207999,1,10,0:0:0:0:
94,157,208151,2,2,B|102:204|102:204|86:256|86:256|103:344,1,181.500005538941,14|10,0:1|0:0,0:2:0:0:
212,382,208912,2,0,L|226:254,1,121.000003692627,10|10,0:0|0:0,0:0:0:0:
251,206,209369,6,2,P|304:183|371:221,1,121.000003692627,14|8,0:1|0:1,0:2:0:0:
393,256,209826,1,10,3:2:0:0:
504,208,210131,1,8,3:2:0:0:
474,90,210435,1,8,3:2:0:0:
474,90,210587,2,2,B|413:77|413:77|377:87|377:87|275:63,1,181.500005538941,2|8,3:2|3:2,0:2:0:0:
192,11,211349,1,10,0:0:0:0:
192,11,211501,1,10,0:0:0:0:
84,63,211806,6,0,B|92:104|74:137|74:137|73:177|90:205|90:205|61:242|70:301,1,247.4999924469,14|0,0:1|0:0,0:0:0:0:
220,350,213024,2,0,B|296:332|296:332|350:369|350:369|468:355,1,247.4999924469,14|0,0:1|0:0,0:0:0:0:
510,203,214242,6,0,L|498:104,1,98.9999969787599,14|14,0:1|0:1,0:0:0:0:
389,98,214851,2,0,L|400:0,2,98.9999969787599,14|14|14,0:1|0:1|0:1,0:0:0:0:
300,160,215765,1,10,0:1:0:0:
300,160,215917,2,0,B|264:154|264:154|250:159|250:159|200:150,2,98.9999969787599,10|10|2,0:0|0:2|0:0,0:0:0:0:
368,262,216831,6,0,L|356:381,2,110,14|8|8,0:1|0:0|0:1,0:0:0:0:
468,213,217745,1,8,0:0:0:0:
468,213,217897,2,0,L|456:103,1,110,2|0,0:0|0:0,0:0:0:0:
446,49,218354,1,10,0:0:0:0:
347,16,218658,1,10,0:1:0:0:
347,16,218811,1,2,0:1:0:0:
271,104,219115,6,0,L|259:214,1,110,10|8,0:1|0:1,0:0:0:0:
245,266,219572,2,0,P|210:304|147:295,1,110,10|10,0:0|0:1,0:0:0:0:
53,257,220181,1,8,0:0:0:0:
53,257,220334,2,0,L|47:148,1,110,2|0,0:0|0:0,0:0:0:0:
45,92,220790,1,8,0:0:0:0:
131,23,221095,1,10,0:1:0:0:
131,23,221247,1,10,0:1:0:0:
217,112,221552,6,0,P|266:136|317:120,1,110,14|8,0:1|0:1,0:0:0:0:
364,93,222009,2,0,P|412:69|463:85,1,110,10|10,0:0|0:1,0:0:0:0:
504,187,222618,1,8,0:0:0:0:
504,187,222770,2,0,L|491:303,1,110,2|0,0:0|0:0,0:0:0:0:
480,350,223227,1,10,0:0:0:0:
373,378,223532,1,10,0:1:0:0:
373,378,223684,1,2,0:0:0:0:
297,284,223988,6,0,B|291:238|291:238|293:230|293:230|285:167,1,110,14|8,0:1|0:1,0:0:0:0:
278,120,224445,1,10,3:2:0:0:
195,46,224750,1,8,3:1:0:0:
110,116,225054,1,8,3:1:0:0:
110,116,225207,2,0,B|104:162|104:162|106:170|106:170|99:224,1,110,2|2,3:2|3:2,0:0:0:0:
44,320,225816,1,2,3:2:0:0:
140,372,226120,1,2,3:2:0:0:
140,372,226273,1,8,3:2:0:0:
283,312,226729,6,0,B|299:271|299:271|285:230|285:230|304:190|304:190|281:155|281:155|277:100,1,220,2|2,0:2|0:2,0:2:0:0:
259,66,227643,2,2,B|226:57|226:57|218:61|218:61|176:52,1,76.9999976501466,14|0,0:1|0:0,0:1:0:0:
